#TITLE:Last Card;
#SUBTITLE:;
#ARTIST:kors k;
#TITLETRANSLIT:;
#SUBTITLETRANSLIT:;
#ARTISTTRANSLIT:;
#GENRE:;
#CREDIT:;
#MUSIC:Last Card.ogg;
#BANNER:Last Card.png;
#BACKGROUND:Last Card-bg.png;
#CDTITLE:./CDTitles/DDR A20 PLUS.png;
#SAMPLESTART:93.179;
#SAMPLELENGTH:15.000;
#SELECTABLE:YES;
#OFFSET:0.000;
#BPMS:0.000=85.000
,12.000=170.000
,152.000=85.000
,184.000=170.000
;
#STOPS:87.875=1.412
,211.875=1.412
;
#BGCHANGES:;
#FGCHANGES:;

//--------------- dance-single - ITGRyan42069 ft. DRILLZ ----------------
#NOTES:
     dance-single:
     ITGRyan42069 ft. DRILLZ:
     Hard:
     13:
     0,0,0,0,0:
0000
0000
0000
0000
,
1000
0000
1000
0000
0100
0000
0100
0010
0000
0010
0001
0000
0010
0001
0010
0100
,
1000
0000
1000
0000
0001
0000
0001
0010
0000
0010
0000
0200
0000
0000
0000
0300
,
1000
0000
0001
0000
0010
0000
0001
0100
,
0001
0010
0001
0000
1000
0000
0001
0000
,
0100
0001
1000
0100
0010
0001
0010
0100
,
1000
0000
0000
0100
0000
0000
1000
0000
0000
0100
0000
0000
1000
0000
0000
0100
0000
0000
1000
0000
0000
0100
0000
0000
1000
0000
0100
0000
1000
0000
0100
0000
1000
0000
0100
0000
1000
0000
0100
0000
1000
0000
0100
0000
1000
0000
0100
0000
,
1000
0000
0000
0000
0001
0010
0001
0010
0001
0010
0001
0010
0001
0010
0001
0010
,
0001
0100
0001
0100
0001
0100
0001
0010
0001
0010
0001
0010
0001
0000
1000
0000
,
0100
0000
0000
0000
1000
0010
1000
0010
1000
0010
1000
0010
1000
0010
1000
0010
,
1000
0001
0100
0001
0100
0001
0100
0001
0010
0001
0010
0001
0010
0100
1000
0000
,
0010
0000
0000
0000
0100
0010
0100
0010
0100
0010
0100
0010
0100
0010
0100
0010
,
0100
0001
0100
0001
0100
0001
0100
0010
0100
0010
0100
0010
0100
0000
0001
0000
,
0010
0000
0000
0000
0100
1000
0100
1000
0100
1000
0100
1000
0100
1000
0100
1000
,
0100
1000
0010
1000
0010
1000
0001
1000
0001
1000
0001
1000
0001
0000
0000
0000
,
0001
0000
0000
0000
0100
0001
0100
0001
0100
0001
0100
0001
0100
0001
0100
0001
,
0100
0010
1000
0010
1000
0010
0100
0001
0100
0001
0100
0001
0100
0000
0010
0000
,
1000
0000
0000
0000
1000
0001
1000
0001
1000
0001
1000
0001
1000
0001
1000
0001
,
1000
0001
0010
0001
0010
0001
0010
0001
0010
0000
0001
0000
0100
0000
0000
0000
,
0010
0000
0000
0000
1000
0001
1000
0001
1000
0001
1000
0001
1000
0001
1000
0001
,
1000
0001
1000
0001
1000
0001
1000
0001
1000
0001
1000
0001
1000
0001
1000
0001
,
1000
0001
1000
0001
1000
0001
1000
0001
1000
0001
1000
0001
1000
0001
1000
0001
1000
0001
1000
0001
1000
0001
1000
0001
,
1001
0000
0000
0000
0001
0000
1000
0000
0100
1000
0000
0001
0010
0000
0001
0000
,
0000
0000
0001
0000
0100
0000
1000
0000
0100
0010
0000
0100
0001
0000
0010
0000
,
0100
1000
0100
1000
0100
0000
1000
0000
0001
0000
0100
0010
1000
0000
0002
0000
,
0000
0003
1000
0000
0100
0000
0010
0000
0001
0010
0001
0010
0001
1000
0000
0000
,
0010
1000
0100
0000
0010
0000
0100
0000
1000
0000
0010
0000
1000
0000
0001
0000
,
0000
0000
0001
0000
0010
0000
0100
0000
0010
0001
0000
0001
0100
0000
0010
0000
,
1000
0100
0001
0100
1000
0010
0001
0010
,
1100
1010
0110
0101
,
1000
0000
0000
0000
0010
0100
0010
0100
0010
0100
0010
0100
0010
0000
0100
0000
,
0001
0000
0000
0000
0010
0100
0010
0100
0010
0100
0010
0100
0010
0000
0001
0000
,
1000
0000
0000
0000
0001
1000
0001
1000
0001
1000
0001
1000
0001
1000
0001
1000
,
0001
1000
0001
0100
0001
0100
0001
0100
0001
0010
0001
0010
0001
0010
0001
0010
,
0001
0000
0000
0000
1000
0010
1000
0010
1000
0010
1000
0100
1000
0100
1000
0000
,
0001
0000
0000
0000
0010
0001
0010
0001
0010
0001
0100
0001
0100
0001
0100
0000
,
0010
0000
0000
0000
1000
0100
1000
0100
1000
0100
1000
0100
1000
0100
1000
0100
,
1000
0000
0011
0010
0110
0100
1100
1000
,
1010
0000
0000
0000
1000
0100
1000
0100
1000
0100
1000
0100
1000
0100
1000
0100
1000
0001
1000
0001
1000
0001
1000
0100
1000
0100
1000
0100
1000
0000
0001
0000
,
0010
0000
0000
0000
0001
0010
0001
0010
0001
0010
0001
0010
0001
0010
0001
0010
0001
1000
0001
1000
0001
1000
0001
0000
0100
0000
0010
0000
0010
0000
0000
0000
,
0110
0000
0000
0000
0100
0010
0100
0010
0100
0010
0100
0010
0100
0010
0100
0010
0100
0001
0100
0001
0100
0001
0100
0010
0100
0010
0100
0010
0100
0000
0001
0000
,
1000
0000
0000
0000
1000
0100
1000
0100
1000
0100
1000
0100
1000
0100
1000
0100
1000
0010
1000
0010
1000
0010
1000
0001
1000
0001
1000
0001
1000
0000
0000
0000
,
0101
0000
0000
0000
0001
0100
0001
0100
0001
0100
0001
0100
0001
0100
0001
0100
0001
1000
0100
1000
0100
1000
0001
0100
0001
0100
0001
0100
0001
0000
0010
0000
,
0100
0000
0000
0000
1000
0100
1000
0100
1000
0100
1000
0100
1000
0100
1000
0100
1000
0010
1000
0010
1000
0000
0001
0000
0101
0000
1010
0000
1100
0000
0000
0000
,
0101
0000
0000
0000
0001
1000
0001
1000
0001
1000
0001
1000
0001
1000
0001
1000
0100
1000
0100
1000
0100
1000
0001
1000
0001
1000
0001
1000
0001
0000
1000
0000
,
0100
0000
0000
0000
1000
0100
1000
0100
1000
0100
1000
0100
1000
0100
1000
0100
1000
0001
0010
0001
0010
0001
0010
0001
0010
0001
0010
0001
0010
0000
0000
0000
,
0001
0000
0000
0000
0100
0000
0000
0000
0010
0100
0010
0100
0010
0000
0100
0000
,
0001
0000
0000
0000
0010
0000
0000
0000
0001
0100
0001
0100
0001
0000
1000
0000
,
0010
0000
1000
0000
0100
0000
0000
0000
0010
0100
0010
0000
0001
0000
0010
0000
,
0001
1000
0000
1000
0100
0000
0010
0001
0000
0010
0001
0000
0100
0010
0100
0000
,
0001
1000
0100
0001
0100
1000
0001
0000
,
1000
0010
0001
1000
0100
0001
0100
0001
,
1000
0001
1000
0001
1000
0001
1000
0001
1000
0001
1000
0001
1000
0001
1000
0001
,
0002
0000
0000
0000
0000
0000
0000
0000
0000
0000
0003
0000
1000
0100
0020
0000
,
0000
0000
0000
0000
0000
0000
0000
0000
0000
0000
0030
0000
0100
0010
0002
0000
,
0000
0000
0000
0000
0000
0003
0000
0101
,
0000
0000
0000
0000
0110
0000
0000
0000
0100
0001
0100
0001
0100
0001
0100
0001
,
0100
0001
0010
0001
1000
0001
0010
0001
,
1000
0100
0010
0100
1000
0001
1000
0010
,
1000
0100
0110
0000
0001
0010
0110
0100
,
1000
0000
0000
0000
0000
0000
0001
0000
0000
1000
0001
1000
0001
0000
0000
0010
0000
0000
0100
0000
0000
0100
0000
0000
,
1000
0000
0010
0100
0010
0000
0100
0000
0001
0000
0010
0000
0100
1000
0100
0000
,
0010
0000
0001
0000
0010
0000
0100
0000
0010
0000
0001
0000
1000
0100
1000
0000
,
0001
0000
0100
0000
1000
0000
0100
0000
0001
0010
0001
0000
1000
0000
0100
0000
,
0001
0000
0100
0000
1000
0000
0001
0000
1000
0010
1000
0010
1000
0010
1000
0010
,
1000
0000
0001
0000
0100
0010
0100
0000
0001
0000
0100
0000
0010
1000
0100
0000
,
1000
0100
0010
0100
1000
0010
1000
0001
,
0010
1000
0010
0001
0010
0001
0010
0001
,
0011
0101
1100
1010
,
1000
0010
1000
0010
1000
0010
1000
0010
1000
0100
1000
0100
1000
0100
1000
0100
,
1000
0001
1000
0001
1000
0001
1000
0001
1000
0001
0010
0001
0010
0001
0010
0100
,
0010
0100
0010
0100
0010
0100
1000
0100
1000
0010
1000
0010
1000
0001
1000
0001
,
1000
0001
0100
0001
0100
0010
0100
0010
0100
0001
0100
0001
0100
0001
0010
0100
,
1000
0000
0000
0000
;

//--------------- dance-single - ITGRyan42069 ft. STREAMZ ----------------
#NOTES:
     dance-single:
     ITGRyan42069 ft. STREAMZ:
     Challenge:
     13:
     0,0,0,0,0:
0000
0000
0000
0000
,
0001
0000
0001
0000
0010
0000
0010
0100
0000
0100
1000
0000
1000
0010
0100
0001
,
0100
0000
0100
0000
0001
0000
0001
0010
0000
0100
0000
2000
0000
0000
0000
3000
,
1000
0000
0001
0000
0010
0000
0001
1000
,
0100
1000
0001
0000
1000
0000
0010
0000
,
0100
0010
1000
0100
0010
0001
1000
0100
,
0010
0000
0000
0001
0000
0000
0010
0000
0000
0100
0000
0000
1000
0000
0000
0100
0000
0000
0010
0000
0000
0001
0000
0000
1000
0000
0100
0000
0010
0000
0001
0000
1000
0000
0100
0000
0010
0000
0001
0000
1000
0000
0100
0000
0010
0000
0001
0000
,
0010
0000
0000
0000
0001
0010
0100
1000
0010
0100
0010
1000
0100
0010
0100
1000
,
0001
0100
0001
1000
0010
1000
0001
0010
0001
0010
0100
1000
0001
0000
0010
0000
,
0100
0000
0000
0000
1000
0100
0010
0001
0100
0010
0100
0001
0010
0100
0010
0001
,
1000
0010
1000
0001
0100
0001
0010
0100
1000
0001
0010
0100
1000
0100
1000
0000
,
0010
0000
0000
0000
0100
0001
0100
0010
1000
0001
0100
0010
1000
0010
0100
0001
,
1000
0010
0100
0001
0010
0100
1000
0100
0010
0001
0010
0100
1000
0000
0010
0000
,
0110
0000
0000
0000
0001
0010
0001
0010
0100
1000
0001
1000
0100
0010
0001
0010
,
0001
1000
0100
1000
0001
0010
0001
0100
0010
0100
0001
1000
0100
0000
0000
0000
,
1100
0000
0000
0000
1000
0100
0010
0001
0100
0010
1000
0100
0010
0001
0100
0010
,
0100
0001
0010
0100
1000
0010
0100
0001
0010
0100
1000
0010
0100
0000
0010
0000
,
1010
0000
0000
0000
0010
0100
1000
0001
0010
0100
0010
0100
1000
0001
1000
0100
,
0010
0001
1000
0001
0010
0100
1000
0100
0010
0000
0001
0000
0100
0000
0000
0000
,
0110
0000
0000
0000
1000
0100
0010
0100
0010
0001
1000
0100
0010
0100
0010
0001
,
1000
0100
0010
0001
1000
0100
0010
0001
1000
0100
0010
0001
0100
0010
1000
0100
,
0010
0000
0000
0001
0000
0000
0100
0000
0000
0010
0000
0000
1000
0000
0000
0100
0000
0000
0010
0000
0000
0001
0000
0000
1000
0000
0100
0000
0010
0000
0001
0000
1000
0000
0100
0000
0010
0000
0001
0000
1000
0000
0100
0000
0010
0000
0001
0000
,
1001
0000
0000
0000
0001
0000
1000
0000
0100
1000
0000
0001
0010
0000
0001
0000
,
0000
0000
0001
0000
0100
0000
1000
0000
0100
0010
0000
0100
0001
0000
0010
0000
,
0100
0010
0001
0010
0100
0000
1000
0000
0001
0000
0100
0010
1000
0000
0002
0000
,
0000
0003
1000
0000
0100
0000
0010
0000
0001
0010
0100
1000
0010
0100
0000
0000
,
0010
1000
0100
0000
0010
0000
0100
0000
1000
0000
0010
0000
1000
0000
0001
0000
,
0000
0000
0001
0000
0010
0000
0100
0000
0010
0001
0000
0001
0100
0000
0010
0000
,
1000
0100
0001
0100
1000
0010
0001
0010
,
1100
1010
0110
0101
,
1000
0000
0000
0000
0010
1000
0100
0010
0100
1000
0001
0010
0100
0000
0010
0000
,
0001
0000
0000
0000
0001
0010
0100
0010
0001
1000
0100
0010
0001
0000
1000
0000
,
0010
0000
0000
0000
0100
0001
0100
0010
1000
0010
1000
0100
0010
0001
1000
0010
,
0100
0001
0100
0010
0100
0001
1000
0100
0010
0001
1000
0100
0010
0001
0100
0010
,
0100
0000
0000
0000
0001
0010
0100
0010
0100
1000
0100
0010
0100
1000
0001
0000
,
0010
0000
0000
0000
0010
0001
0010
0001
1000
0100
0010
0001
0100
0001
0100
0000
,
0001
0000
0000
0000
1000
0010
1000
0001
1000
0010
0100
0001
0100
0001
1000
0001
,
0100
0000
0101
0100
0110
0010
1010
1000
,
1100
0000
0000
0000
1000
0100
0010
0001
1000
0100
0010
0001
1000
0100
0010
0001
1000
0001
0010
0100
1000
0001
0010
0100
1000
0001
0010
0100
1000
0000
0001
0000
,
0010
0000
0000
0000
0001
0100
0010
1000
0001
0100
0010
1000
0001
0100
0010
1000
0100
1000
0010
0100
0001
1000
0010
0000
0100
0000
0010
0000
0100
0000
0000
0000
,
0110
0000
0000
0000
0001
0010
0100
1000
0100
0010
0001
0010
0100
1000
0100
0010
0001
0010
0100
0010
0001
0010
0100
1000
0100
0010
0100
1000
0100
0000
0010
0000
,
0001
0000
0000
0000
1000
0100
0010
0001
1000
0001
0010
0100
1000
0001
1000
0100
0010
0001
1000
0010
1000
0010
0100
0001
0100
0001
1000
0100
0010
0000
0000
0000
,
0011
0000
0000
0000
0001
1000
0100
1000
0001
0010
0001
1000
0100
1000
0001
0010
0001
1000
0010
1000
0001
0100
0001
0010
0100
1000
0001
0010
0100
0000
1000
0000
,
0100
0000
0000
0000
1000
0010
1000
0001
1000
0010
1000
0001
1000
0010
1000
0100
0010
0001
0010
0100
1000
0000
0001
0000
0101
0000
0110
0000
1010
0000
0000
0000
,
1001
0000
0000
0000
0001
1000
0100
0010
0100
1000
0001
0010
0100
0010
0001
1000
0100
0010
0100
1000
0001
0010
0100
1000
0100
0010
0001
0100
0010
0000
1000
0000
,
0001
0000
0000
0000
0001
1000
0100
1000
0001
1000
0100
1000
0001
1000
0100
1000
0100
0010
0001
1000
0100
0010
0001
1000
0100
0010
0001
0100
0010
0000
0000
0000
,
0001
0000
0000
0000
0100
0000
0000
0000
0001
0010
0100
0010
0001
0000
1000
0000
,
0010
0000
0000
0000
0100
0000
0000
0000
0010
1000
0100
0010
0100
0000
1000
0000
,
0010
0000
1000
0000
0100
0000
0000
0000
0100
0010
0001
0000
0001
0000
0010
0000
,
0001
1000
0000
1000
0100
0000
0010
0001
0000
0010
0100
0000
0010
0100
1000
0000
,
0001
1000
0100
0001
0100
1000
0001
0000
,
1000
0010
0001
1000
0100
0001
0100
0001
,
1000
0100
0010
0001
0100
0010
1000
0100
0010
0001
0100
0010
1000
0100
0010
0001
,
0002
0000
0000
0000
0000
0000
0000
0000
0000
0000
0003
0000
1000
0100
0020
0000
,
0000
0000
0000
0000
0000
0000
0000
0000
0000
0000
0030
0000
0100
0010
0002
0000
,
0000
0000
0000
0000
0000
0003
0000
0101
,
0000
0000
0000
0000
0110
0000
0000
0000
0010
1000
0100
1000
0001
0010
0100
1000
,
0001
0100
0010
1000
0001
0010
0100
0010
,
0001
0010
0100
1000
0010
0001
0010
1000
,
0100
0010
0011
0000
0010
0100
1100
1000
,
0001
0000
0000
0000
0000
0000
1000
0000
0000
0001
0010
0100
1000
0000
0000
0001
0000
0000
0100
0000
0000
0100
0000
0000
,
0010
0000
1000
0010
0001
0000
0010
0000
1000
0000
0100
0000
0001
0100
0001
0000
,
0010
0000
0001
0000
0010
0000
0100
0000
0010
0000
0001
0000
1000
0100
1000
0000
,
0001
0000
0100
0000
1000
0000
0100
0000
0001
0010
0001
0000
1000
0000
0100
0000
,
0001
0000
0100
0000
1000
0000
0001
0000
1000
0100
0010
0001
1000
0001
0010
0100
,
1000
0000
0001
0000
0010
0001
1000
0000
0001
0000
0100
0000
0010
1000
0100
0000
,
1000
0100
0010
0100
1000
0010
1000
0001
,
0010
1000
0010
0001
0100
1000
0100
0001
,
0011
0101
1100
1010
,
1000
0010
1000
0001
0010
0100
1000
0010
1000
0100
1000
0001
0010
0001
1000
0100
,
1000
0001
0010
0100
1000
0100
0010
0001
0010
0100
1000
0010
0100
0010
1000
0100
,
0010
0001
0100
0010
0100
0001
0100
0010
1000
0010
0100
0001
1000
0100
0010
0100
,
0010
0001
1000
0100
0010
0001
0100
0010
0100
0001
0010
0100
1000
0100
0010
0001
,
0100
0000
0000
0000
;
