#TITLE:キミと見たい景色;
#SUBTITLE:;
#ARTIST:兎田ぺこら;
#TITLETRANSLIT:Kimi to Mitai Keshiki;
#SUBTITLETRANSLIT:;
#ARTISTTRANSLIT:Usada Pekora;
#GENRE:;
#CREDIT:;
#MUSIC:Kimi to Mitai Keshiki.ogg;
#BANNER:;
#BACKGROUND:;
#CDTITLE:;
#SAMPLESTART:77.641;
#SAMPLELENGTH:21.623;
#SELECTABLE:YES;
#OFFSET:-0.219;
#BPMS:0.000=86.021;
#STOPS:;
#BGCHANGES:;
#FGCHANGES:;

//--------------- dance-single - Pax_Vesania ----------------
#NOTES:
     dance-single:
     Pax_Vesania:
     Beginner:
     3:
     0,0,0,0,0:
0000
0000
0000
0000
,
0000
0000
0000
0000
,
0001
0001
1000
1000
,
2002
0000
0000
0000
0000
0000
0000
0000
0000
0000
0000
3003
0001
0000
0000
0000
,
0020
0000
0000
0000
0000
0000
0000
0030
0200
0000
0000
0000
0000
0000
0000
0300
,
2000
0000
0000
0000
0000
0000
0000
3000
0020
0000
0000
0000
0000
0000
0000
0030
,
2000
0000
0000
0000
0000
0000
0000
3000
0200
0000
0000
0000
0000
0000
0000
0300
,
0002
0000
0000
0000
0000
0003
0000
0000
0000
0000
0000
0000
1001
0000
0000
0000
,
0002
0000
0000
0000
0000
0000
0000
0003
0200
0000
0000
0000
0000
0000
0000
0300
,
0020
0000
0000
0000
0000
0000
0000
0030
2000
0000
0000
0000
0000
0000
0000
3000
,
0200
0000
0000
0000
0000
0000
0000
0300
0020
0000
0000
0000
0000
0000
0000
0030
,
0002
0000
0000
0000
0000
0000
0000
0003
0000
0000
0000
0000
1001
0000
0000
0000
,
1000
1000
0100
0100
,
0001
0001
0010
0010
,
1000
0000
0100
0000
,
0010
0001
1000
1000
,
0100
0100
0010
0010
,
1000
1000
0001
0001
,
0100
0000
0010
0000
,
1000
0001
0001
0010
,
0200
0000
0000
0000
0000
0000
0000
0000
0000
0000
0000
0000
0000
0000
0000
0300
,
2000
0000
0000
0000
0000
0000
0000
0000
0000
0000
0000
0000
0000
0000
0000
3000
,
0002
0000
0000
0000
0000
0000
0000
0003
0200
0000
0000
0000
0000
0000
0000
0300
,
0020
0000
0000
0000
0000
0000
0000
0000
0000
0000
0000
0000
0000
0000
0000
0030
,
0002
0000
0000
0000
0000
0000
0000
0000
0000
0000
0000
0000
0000
0000
0000
0003
,
2000
0000
0000
0000
0000
0000
0000
0000
0000
0000
0000
0000
0000
0000
0000
3000
,
1000
2000
3100
0200
,
0310
0020
0031
0000
,
0100
0010
1000
0001
,
0100
0001
1000
0010
,
0000
0200
0301
1000
,
1001
0000
0000
0000
0002
0000
0000
0003
1000
0000
0000
0000
0100
0000
0000
0000
,
1000
0001
0010
0001
,
1000
0100
0010
0000
,
1001
2000
3010
0010
,
0100
0001
1001
0000
,
1000
0010
0010
0100
,
0001
0010
0001
0001
,
2000
3200
2300
3200
,
0320
0230
0320
0230
,
2300
3002
2003
3002
,
0203
0320
0230
0320
,
1030
1000
0010
0000
1000
1000
0010
0000
,
0100
0100
0001
0000
0100
0100
0001
0000
,
0200
0000
0000
0300
2000
0000
0000
3000
0200
0000
0000
0300
0020
0000
0000
0030
,
0002
0000
0003
0000
,
2000
0000
0000
0000
0000
0000
0000
3000
0020
0000
0000
0030
0200
0000
0000
0300
,
0002
0000
0000
0000
0000
0000
0000
0003
0020
0000
0000
0000
0000
0000
0000
0030
,
0100
0100
1000
0001
,
0010
0001
1001
1001
,
1000
1000
0010
0000
0010
0010
1000
0000
,
1000
0100
0010
0100
,
1000
1000
0001
0000
0100
0100
0010
0000
,
1001
0001
1000
0000
,
1000
0001
0100
0010
,
1000
0100
0001
0010
,
0001
0010
0100
1000
,
0001
0001
1000
2000
0000
3000
1001
0000
,
0001
0002
0000
0000
0000
0000
0000
0000
0000
0000
0000
0000
0000
0000
0000
0000
,
0000
0000
0003
0000
;

//--------------- dance-single - Pax_Vesania ----------------
#NOTES:
     dance-single:
     Pax_Vesania:
     Easy:
     7:
     0,0,0,0,0:
0000
0000
0000
0000
,
0000
0000
0000
0000
,
0001
0001
0100
0100
,
0220
0000
0000
0000
0000
0000
0000
0000
0000
0000
0000
0330
0010
0000
0000
0000
,
2000
0000
0000
0000
0000
0000
0000
3000
0020
0000
0000
0000
0000
0000
0000
0030
,
0200
0000
0000
0000
0000
0000
0000
0300
2000
0000
0000
0000
0000
0000
0000
3000
,
0200
0000
0000
0000
0000
0000
0000
0300
0020
0000
0000
0000
0000
0000
0000
0030
,
0002
0000
0000
0000
0000
0003
0010
0000
0000
0000
0000
0000
1001
0000
0000
0000
,
0200
0000
0000
0000
0000
0000
0000
0300
0020
0000
0000
0000
0000
0000
0000
0030
,
2000
0000
0000
0000
0000
0000
0000
3000
0002
0000
0000
0000
0000
0000
0000
0003
,
0200
0000
0000
0000
0000
0000
0000
0300
0020
0000
0000
0000
0000
0000
0000
0030
,
0002
0000
0000
0000
0000
0000
0000
0003
0100
0000
0000
0000
0110
0000
0000
0000
,
1000
0000
0001
0010
0001
0010
0001
0000
,
0100
0000
0010
0100
0010
0100
0010
0000
,
1000
0010
1000
0000
0001
0100
0001
0000
,
1000
0100
0010
0000
0001
0010
0001
0000
,
1000
0000
0100
1000
0010
1000
0100
0000
,
0010
0000
0001
0100
0001
0010
0001
0000
,
0100
0010
1000
0000
0001
0100
0010
0000
,
1000
0100
0010
0000
0001
0001
1000
0100
,
0020
0000
0000
0000
0000
0000
0000
0000
0000
0000
0000
0000
0000
0030
0001
0000
,
0200
0000
0000
0000
0000
0000
0000
0000
0000
0000
0000
0000
0000
0000
0000
0300
,
0020
0000
0000
0000
0000
0000
0000
0030
2000
0000
0000
0000
0000
0000
0000
3000
,
0002
0000
0000
0000
0000
0000
0000
0000
1000
0000
0000
1000
0000
0000
0100
0003
,
1000
0000
1000
0010
0100
0010
1000
0000
,
0010
0000
0100
0010
0100
0001
0100
0000
,
0010
0000
0000
0000
1000
0100
1000
0000
0010
0000
0000
0000
0100
0010
0100
0000
,
0001
0000
0000
0000
1000
0010
1000
0000
0001
0000
0000
0000
0000
0000
0000
0000
,
0100
0010
0110
0000
0001
1000
1001
0000
,
0100
0001
0101
0000
0010
0100
1100
0000
,
1000
0000
0000
0000
0001
0100
0001
0000
0101
0000
0000
0000
0110
0000
0000
0000
,
1001
0000
0000
0000
1000
0100
1000
0000
1100
0000
0000
0000
1010
0000
0000
0000
,
0001
0100
0101
0000
1000
0010
1010
0000
,
1100
0000
0110
0000
0011
0000
0001
0100
,
0001
0000
0000
0000
1000
0010
1000
0000
0100
0000
0000
0000
0010
0000
0000
0000
,
0001
0010
0100
1000
1100
0000
0000
0000
,
2000
0000
0000
0000
0000
0000
0000
3000
0020
0000
0000
0000
0000
0000
0000
0030
,
0200
0000
0000
0000
0000
0000
0000
0300
0002
0000
0000
0000
0000
0000
0000
0003
,
1000
0100
0010
0000
0001
0010
0100
0000
,
1000
0010
0100
0000
0001
0100
0010
0000
,
1000
0010
0001
0000
0001
0010
1000
0000
,
1000
0100
0010
0000
0100
0010
0001
0000
,
1000
0100
0001
0000
0001
0100
1000
0000
,
0001
1000
0100
0000
1000
0001
0010
0000
,
0100
0010
0001
0100
0001
0010
0001
1000
,
0200
0000
0300
0000
,
0020
0000
0000
0000
0000
0000
0000
0030
0002
0000
0000
0003
2000
0000
0000
3000
,
0200
0000
0000
0000
0000
0000
0000
0300
2000
0000
0000
0000
0000
0000
0000
3000
,
0010
1000
1000
0001
0011
0000
0101
0000
,
1001
1100
0110
0101
,
0001
0000
0100
0000
0001
0000
1000
0100
1000
0000
0000
0000
0100
0000
1000
0000
,
1010
0000
0110
0000
0101
0001
0010
0100
,
1000
0000
0000
0000
0010
1000
0001
0000
0101
0000
0000
0000
0011
0000
0000
0000
,
1001
0001
0100
0010
1000
0000
0000
0000
,
0001
1000
0100
1000
0010
1000
0100
1000
,
0010
1000
0001
0010
0001
0100
0001
0010
,
0110
1100
0101
1010
,
0001
0000
0010
0000
0100
0000
2000
0000
0000
0000
0000
3000
1001
0000
0000
0000
,
1000
0002
0000
0000
0000
0000
0000
0000
0000
0000
0000
0000
0000
0000
0000
0000
,
0000
0000
0003
0000
;

//--------------- dance-single - Pax_Vesania ----------------
#NOTES:
     dance-single:
     Pax_Vesania:
     Medium:
     11:
     0,0,0,0,0:
0000
0000
0000
0000
,
0000
0000
0000
0000
,
0001
0010
0100
1000
,
0001
0000
0100
0000
0010
0000
2000
0000
0000
0000
0000
3000
1001
0000
0000
0000
,
1000
0000
0000
0100
0010
0000
0100
1000
0100
0010
0200
0000
0300
0000
0000
0000
,
1000
0000
0000
0010
0100
0000
0001
0000
0001
0100
0020
0000
0030
0000
0000
1000
,
0100
0000
0001
0020
0000
0030
0000
0001
1000
0000
0100
0000
0010
0000
0001
0002
,
0000
0000
0000
0000
0000
0000
0000
0003
0000
0000
0000
0000
1001
0000
0000
0000
,
0100
0000
0000
0001
0010
0000
0001
0010
0100
0010
0002
0000
0003
0000
0000
0000
,
1000
0000
0000
0100
0010
0000
0100
0010
0100
0010
0002
0000
0003
0000
0000
0010
,
0100
0000
1000
0002
0000
0003
0000
0100
0010
0000
0100
0000
0001
0000
0010
0002
,
0000
0000
0003
0001
0100
0010
1000
0001
0100
0000
0000
0000
0010
0000
0000
0000
,
1000
0100
0001
0100
0010
0100
0001
0100
,
1000
0000
0100
0000
0010
0000
0100
0000
1000
0000
0100
0000
1000
0000
0010
0100
,
0100
0000
0001
1000
0000
0000
0000
0100
0010
0000
0100
0000
1000
0000
0001
0020
,
0000
0000
0000
0030
0001
0100
0010
0100
,
0001
0100
0001
1000
0001
0100
0001
0010
,
0100
0000
1000
0000
0010
0000
1000
0000
0100
0000
0010
0000
0001
0000
0010
0100
,
0100
0000
1000
0100
0000
0000
0000
0100
1000
0000
0010
0000
0100
0000
0001
0020
,
0000
0000
0000
0000
0000
0000
0000
0030
0001
0000
1000
0000
0100
0000
0100
0010
,
0002
0000
0000
0000
0010
0000
0000
0000
0010
0000
0000
0000
0010
0003
0001
0010
,
0200
0000
0000
0000
1000
0000
0000
0000
0010
0000
0000
0000
1000
0000
0000
0300
,
2000
0000
0000
0000
0010
0000
0000
3000
0020
0000
0000
0000
1000
0000
0000
0030
,
0100
0000
0001
0000
0010
0000
0100
0000
1100
0000
0000
0110
0000
0000
0011
0000
,
0001
0100
0001
1000
0001
0100
0001
0010
,
0100
0000
1000
0000
0001
0000
1000
1000
0100
0000
0000
0000
1100
0000
0000
0000
,
0010
0000
1000
0000
0100
1000
0100
0010
0100
0000
0010
0000
0100
0010
0001
0010
,
0001
0000
1000
0000
0100
0010
0001
1000
0100
0000
0000
0000
0001
1000
0100
0000
,
0010
0000
0001
0020
0000
0030
0001
2000
0000
3000
0010
0000
0100
0001
0010
0000
,
0100
0000
1000
0002
0000
0003
0100
0020
0000
0000
1000
0030
0100
0000
1000
0000
,
1000
0000
0010
0200
0000
0300
0001
0000
0010
0000
0001
0000
1000
0000
0100
0000
,
2000
0000
0000
3000
0100
1000
0001
0000
0101
0000
0000
0000
0110
0000
0000
0000
,
1010
0000
1000
0100
0000
0000
0001
0200
0000
0000
0300
0000
0010
0001
0100
0000
,
0110
0000
0101
0000
0011
0000
0010
0100
,
1000
0000
0100
0000
1000
0100
0010
0001
0010
0000
0001
0000
1000
0000
0001
0000
,
0011
0000
0010
0000
0100
0000
1000
0000
0010
0000
0000
0100
0010
0100
0001
0000
,
1000
0000
1000
0000
0010
0000
1000
0100
0010
0000
0100
0000
0010
0000
0001
0000
,
0011
0000
0001
0010
0001
0100
0001
1000
0001
0010
0100
1000
0001
0000
1000
0000
,
0010
0000
0100
0010
0100
0000
0001
0000
0010
0000
0100
0010
0100
0000
1000
0000
,
0001
0000
0100
0001
0010
0000
0100
0000
1000
0000
0010
0100
0001
0000
0010
0000
,
0001
0000
1000
0200
0000
0300
1000
0000
0100
0000
0001
0000
0100
0000
0010
0002
,
0000
0000
0000
0000
0010
0000
0010
0003
0001
0000
0100
0000
0010
0000
1000
0000
,
0001
0000
0001
0010
0001
0000
0010
0000
0100
0000
0100
1000
0100
0000
0010
0000
,
0001
0000
0001
1000
0001
0000
0100
0000
0010
0000
0010
0100
0010
0000
1000
0000
,
0010
0001
0010
1000
0100
0001
0100
0010
,
0002
0000
0003
0001
0100
0010
1000
0001
0010
0000
0000
0000
0000
0000
1000
0100
,
0010
0000
0001
0000
0100
0010
0100
0000
0001
0000
1000
0000
0100
0000
0000
0000
,
0001
0000
0100
0000
0010
0100
0010
1000
0100
0000
0000
1000
0100
0000
1000
0000
,
0010
0000
0100
0000
0001
1000
0100
0010
0100
0000
0010
0000
0100
0000
1000
0000
,
0001
0000
0100
0100
0010
0100
0001
0100
0010
0000
0000
0000
0010
1000
0100
0000
,
0001
0000
0100
2000
0000
3000
0010
0200
0000
0000
0300
0000
0001
0100
0010
0000
,
1010
0000
0110
0000
0101
0001
0010
0100
,
1000
0000
0000
0000
0100
1000
0100
0010
0001
0000
1000
0000
0001
0000
0000
0000
,
0001
0000
0010
0000
1000
0000
0010
0000
0110
0000
0000
0100
1000
0001
0020
0000
,
0031
0100
0010
1000
0001
0100
1000
0100
,
0001
1000
0010
0001
0010
1000
0100
0010
,
0100
1000
0001
0010
,
0001
0000
0100
0000
0010
0000
2000
0000
0000
0000
0000
3000
0010
0000
0000
0000
,
0100
0020
0000
0000
0000
0000
0000
0000
0000
0000
0000
0000
0000
0000
0000
0000
,
0000
0000
0030
0000
;

//--------------- dance-single - Pax_Vesania ----------------
#NOTES:
     dance-single:
     Pax_Vesania:
     Hard:
     13:
     0,0,0,0,0:
0001
0100
0001
0010
0001
1000
0100
1000
,
0010
0100
0001
0010
0100
1000
0001
0010
,
0011
0101
0110
1010
,
1000
0000
0001
0000
0010
0000
0200
0000
0000
0000
0000
0300
1100
0000
0000
0000
,
0001
0000
0100
0010
0100
0000
0100
0001
0100
1000
0100
0000
0001
0000
0000
0000
,
0010
0000
0100
1000
0100
0000
0100
1000
0100
0001
0100
0000
1000
0000
0000
0100
,
0010
0000
0001
1000
0001
0000
0000
0010
0100
0000
0001
0000
0100
0000
0001
0100
,
1000
0000
0001
0010
0001
0000
1000
0000
0010
0100
0010
0000
0100
0000
0100
0000
,
0010
0000
1000
0010
1000
0000
0001
0010
1000
0001
0100
0000
1000
0000
0010
0000
,
0010
0000
0100
0010
0100
0000
0001
1000
0010
0001
1000
0000
0100
0000
0100
0001
,
0010
0000
0100
1000
0100
0000
0010
0001
1000
0000
0010
0000
1000
0000
0001
0010
,
0001
0000
0000
0001
0010
0100
1000
0001
1000
0000
0000
0000
0010
0000
0100
0000
,
0100
0000
0001
1000
0100
0000
0010
0001
1000
0100
1000
0000
0001
0000
0100
0000
,
1000
0000
0100
0001
0010
0000
0001
0100
0010
1000
0100
0000
0010
0000
0100
1000
,
0010
0000
0100
0001
1000
0000
0010
0100
0001
0000
1000
0000
0010
0000
0100
0001
,
0010
0000
0100
1000
0100
0000
0001
0000
0100
0000
1000
0000
0010
0000
0100
0000
,
0010
0000
1000
0100
0010
0000
0001
1000
0010
0100
0001
0000
0010
0000
0100
0000
,
1000
0000
0001
0100
1000
0000
0100
0000
0010
1000
0100
0000
1000
0000
0001
0010
,
1000
0000
0010
0001
0100
0000
0001
1000
0100
0000
0010
0000
0100
0000
0001
0100
,
1000
0000
0000
0000
0000
0000
0010
0000
0000
0100
0000
0000
0001
0000
0000
0000
0000
0000
1000
0000
0000
0000
0000
0000
0001
0000
0100
0000
0001
0000
0010
0000
0000
0000
0000
0000
0100
0000
0000
0000
0000
0000
1000
0000
0000
0100
0000
0000
,
0010
0000
0001
1000
0100
0000
0010
0001
1000
0000
0010
0000
0100
0000
0001
0010
,
0100
0000
1000
0000
0001
0000
0100
0000
0001
0000
0010
0000
0011
0000
0001
1000
,
0100
0000
0010
0100
1000
0000
0100
0000
0001
0000
0100
0000
0110
0000
0010
0001
,
0100
0000
0010
0000
0100
0000
1000
0000
0100
0000
0001
0100
0101
0000
0100
0010
,
0100
0000
0001
0010
0100
0000
1000
0100
0010
0000
0100
0000
1100
0000
0010
0000
,
0100
0000
0010
0000
0001
0000
0100
0100
0010
0000
1000
0000
1001
0000
0001
0000
,
0010
0000
0100
0000
1000
0100
0010
0001
0010
0000
0010
0000
0100
0010
0001
1000
,
0100
0000
0100
0000
0010
0001
0100
0010
0001
0000
0000
0000
0010
1000
0010
0000
,
1000
0000
1000
0000
0101
0000
0001
1000
0001
0000
0001
0000
0101
0000
0100
0000
,
0001
0000
0001
0000
1010
1000
0001
0100
0010
0000
1000
0000
1100
0000
0100
0000
,
0010
0000
0100
0000
1100
0100
1000
0001
0010
0000
0001
0000
0101
0000
0001
0100
,
0110
0000
0010
0000
1010
1000
0010
0000
1001
0000
0010
0000
0110
0000
0100
0001
,
0011
0000
0001
0000
1010
0000
1000
0100
0010
0000
0001
0000
1100
0000
1000
0000
,
1010
0000
1000
0010
0110
0000
0100
0001
0101
0000
0001
0000
1001
0000
0001
1000
,
1100
0000
0100
0000
1010
1000
0100
0010
0001
0000
0100
0010
0110
0000
1000
0100
,
1100
0000
0100
0010
0110
0000
0010
0001
0011
0000
0000
1000
0001
1000
0010
0000
,
1000
0000
1000
0000
1100
0000
1000
0100
0010
0000
0010
0000
0011
0000
0001
0010
,
0110
0000
0100
1000
0001
0010
0100
1000
0001
0100
0010
1000
0100
0000
0010
0000
,
0100
1000
0100
0010
0001
0100
0001
1000
0001
0010
1000
0010
0001
0100
1000
0100
,
0001
1000
0100
0010
0100
0010
0001
0010
0100
1000
0100
0001
0100
0010
0001
0010
,
0100
1000
0010
1000
0001
0010
0100
0010
0100
1000
0010
0001
0010
0100
0001
0010
,
0100
1000
0010
1000
0100
0010
0001
0010
0100
1000
0100
0001
0100
0010
0001
0010
,
1000
0010
0100
0010
0001
0100
0010
0100
0001
1000
0100
0010
0100
0010
0001
0100
,
0010
1000
0010
0001
0010
0100
1000
0100
0010
1000
0100
1000
0100
0010
0001
0010
,
0100
0010
0100
1000
0010
0100
1000
0100
0001
0010
0100
0010
0001
1000
0001
0010
,
0100
0000
1000
0001
0010
0100
1000
0010
0100
0000
0000
0000
0010
1000
0100
0000
,
0010
0000
0001
0100
0010
0000
1000
0000
0100
0000
0010
0000
0100
0010
0001
0000
,
0010
0000
0001
0100
0010
1000
0010
0100
0001
0000
1000
0100
0010
0000
0001
0000
,
1000
0000
0010
0000
0100
0010
1000
0100
0010
0000
0001
0000
0100
0000
1000
0100
,
0001
0000
0100
0100
0001
0010
0100
1000
1001
0000
0000
0000
0110
0000
0010
1000
,
0010
0000
0100
0000
1010
0000
1000
0100
0010
0000
0100
0000
1100
0000
0100
0010
,
0110
0000
0010
0001
0011
0000
0001
0100
0101
0000
0110
0000
1010
0000
0100
1000
,
1100
0000
0100
0000
1001
1000
0100
0010
0001
0000
0100
0000
0110
0000
0100
0001
,
0101
0000
0001
0100
0110
0000
0010
1000
1100
0000
0000
1000
0010
1000
0001
0000
,
1000
0100
0001
0100
0010
0001
0010
1000
,
0001
0100
1000
0100
0010
0001
0100
0001
,
0011
0101
0110
1010
,
0001
0000
0010
0000
0100
0000
2000
0000
0000
0000
0000
3000
1100
0000
0000
0000
,
0001
2002
0000
0000
0000
0000
0000
0000
0000
0000
0000
0000
0000
0000
0000
0000
,
0000
0000
3003
0000
;
