#TITLE:君という神話;
#SUBTITLE:;
#ARTIST:麻枝准×やなぎなぎ;
#TITLETRANSLIT:Kimi to Iu Shinwa;
#SUBTITLETRANSLIT:;
#ARTISTTRANSLIT:Maeda Jun × Yanaginagi;
#GENRE:;
#CREDIT:;
#MUSIC:Kimi to Iu Shinwa.ogg;
#BANNER:;
#BACKGROUND:;
#CDTITLE:;
#SAMPLESTART:46.618;
#SAMPLELENGTH:21.818;
#SELECTABLE:YES;
#OFFSET:-0.255;
#BPMS:0.000=176.000;
#STOPS:;
#BGCHANGES:;
#FGCHANGES:;

//--------------- dance-single - Pax_Vesania ----------------
#NOTES:
     dance-single:
     Pax_Vesania:
     Beginner:
     4:
     0,0,0,0,0:
0000
0000
0000
0000
,
0000
0000
0000
0000
,
0000
0000
0000
0000
,
0000
0000
0020
0000
,
0000
0000
0000
0030
0200
0000
0000
0000
0000
0000
0000
0000
0000
0000
0000
0000
,
0000
0000
0000
0300
0002
0000
0000
0000
0000
0000
0000
0000
0000
0000
0000
0000
,
0000
0000
0000
0003
0020
0000
0000
0000
0000
0000
0000
0000
0000
0000
0000
0000
,
0000
0000
0000
0030
0200
0000
0000
0000
0000
0000
0000
0300
2000
0000
0000
0000
,
0000
0000
0000
0000
0000
0000
0000
0000
0000
3000
0020
0000
0000
0000
0000
0000
,
0000
0000
0000
0000
,
0000
0000
0000
0030
0000
0000
0000
0000
0000
0000
0000
0000
0000
0000
0000
0000
,
0000
0000
0000
0000
0000
0000
0000
0000
0000
0000
0000
0000
0002
0000
0000
0003
,
2000
0000
0000
3000
0100
0000
0000
0000
0000
0000
0000
0000
1000
0000
0000
0000
,
0000
1000
0000
0000
,
0001
0000
0001
0000
,
0001
0000
0000
0000
,
0100
0000
0010
0000
,
0100
0000
0001
0000
,
0010
0010
0000
0100
,
0000
1000
0000
0000
0000
0010
0000
0000
,
0100
0000
0100
0000
0000
0001
0000
0000
,
0001
0000
0000
1000
0000
0000
1000
0000
,
0100
0000
0100
0000
0000
0010
0000
0000
,
0000
0000
0100
0000
0000
1000
0000
0000
,
0000
0000
0010
0000
0000
0001
0000
0000
,
0000
1001
0000
0110
,
0000
0000
0010
0000
0000
0010
0000
0000
,
0000
0000
1000
0000
0000
1000
0000
0000
,
0000
0000
0001
0000
0000
0001
0000
0000
,
0000
0110
0000
1001
,
0000
0000
0100
0000
0000
0100
0000
0000
,
0000
0000
0010
0000
0000
0010
0000
0000
,
0000
1000
0000
0001
,
0000
0010
0010
0100
,
0000
1000
0000
0000
,
0010
0010
0000
0000
,
0100
0100
0000
0000
,
0000
0001
0000
0010
,
0000
0100
0000
0000
,
1000
1000
0000
0000
,
0010
0000
0000
0000
0020
0000
0000
0000
0000
0030
0020
0000
0000
0000
0000
0030
,
2000
0000
0000
3000
2000
0000
0000
3000
0020
0000
0000
0000
0000
0000
0000
0030
,
0000
0100
0000
0100
,
0100
0100
0000
0010
,
0010
0010
0000
0000
,
0000
0001
0000
0010
,
0000
0100
0000
0100
,
0100
0100
0000
1000
,
0001
0000
0000
0000
0020
0000
0000
0000
0000
0030
0020
0000
0000
0000
0000
0030
,
0002
0000
0000
0003
0001
0000
0000
0000
0010
0000
0000
0000
0000
0000
0000
0000
,
0010
0000
0100
0000
,
1000
0000
1000
0000
,
0001
0000
0001
0000
,
0010
0000
0010
0000
,
0100
0000
0100
0000
,
1000
0000
0010
0010
,
0100
0000
0001
0001
,
0002
0000
0003
0000
,
0000
0010
0000
0100
,
0000
1000
0000
0001
,
0000
0100
0000
1000
,
0000
0100
0000
0001
,
0000
0010
0000
0010
,
0010
0100
0000
0100
,
0100
0010
1000
1000
,
0002
0000
0000
0000
,
0000
0003
0000
0000
;

//--------------- dance-single - Pax_Vesania ----------------
#NOTES:
     dance-single:
     Pax_Vesania:
     Easy:
     6:
     0,0,0,0,0:
0000
0000
0000
0000
,
0000
0000
0000
0000
,
0000
0000
0001
0000
0000
0001
0000
0000
,
0001
1000
2000
0000
,
0000
0000
3000
0010
0000
0000
0010
0000
,
0000
0100
0000
0001
0000
0000
0001
0000
,
0000
1000
0000
0000
0000
0000
0000
0000
,
0000
0000
0000
0000
,
0000
0000
0000
0001
0000
0000
0001
0000
,
0000
0010
0000
0010
0000
0000
0100
0000
,
0000
1000
0000
0000
0000
0000
0000
0000
,
0000
0000
0000
0000
,
0000
0010
0010
1000
,
2000
0000
0000
0000
3000
0000
0000
0001
,
0000
0001
1000
0010
,
0200
0000
0000
0000
0000
0300
0000
0010
,
0000
0010
0010
1000
,
0200
0000
0000
0000
0300
0000
0000
0010
,
0000
0000
0002
0000
0000
0003
0100
0000
,
0000
0002
0000
0000
0003
0010
0000
0000
,
0100
0200
0000
0000
,
0000
0000
0000
0000
0000
0300
0000
0000
,
0000
0000
1000
0000
0000
0010
0000
0000
,
0001
0000
0001
0000
0000
0010
0000
0000
,
1000
0000
0100
0000
0000
0100
0000
0000
,
0001
0001
0100
1000
,
1000
0000
0001
0000
0000
1000
0000
0000
,
0001
0000
0100
0000
0000
0010
0000
0000
,
0100
0000
0100
0000
0000
0001
0000
0000
,
0001
0000
2000
0000
3000
0100
0010
0000
,
0000
0000
0100
0000
0000
0001
0000
0000
,
0100
0000
1000
0000
0000
0010
0000
0000
,
0100
0001
1000
0001
,
0010
0100
1000
1000
,
0100
0100
0000
1000
0000
0010
0000
0000
,
0002
0000
0000
0003
0020
0000
0000
0030
,
0200
0000
0000
0300
0001
0000
0000
0000
,
0020
0000
0000
0030
0100
0000
1000
0000
,
0001
0010
0001
0000
,
1000
0100
0010
0000
,
0001
1000
0001
0100
,
0010
0100
0001
0000
,
1000
1000
0001
0000
,
0010
0010
0100
0000
,
1000
0010
0001
0000
,
0010
0010
0100
0100
,
0001
1000
0100
0000
,
0010
0100
1000
0000
,
0001
0100
0001
1000
,
0001
0010
0100
0000
,
1000
0000
0000
1000
0000
0000
0010
0000
,
0200
0000
0000
0300
0002
0000
0000
0003
,
0010
0010
0100
0100
,
1000
0001
0001
0100
,
0100
0001
0000
0010
,
1000
0010
0000
0001
,
1000
1001
0000
0110
,
0000
1001
0000
0001
,
0001
1000
0000
1000
,
0010
0100
0000
0001
,
0100
0010
0000
1000
,
0100
0010
0000
0001
,
0010
0100
1000
0100
,
0010
0001
0010
0001
,
1000
0010
1000
0001
,
0010
0001
1000
0100
,
0010
0001
0000
0000
0000
0000
0000
0000
;

//--------------- dance-single - Pax_Vesania ----------------
#NOTES:
     dance-single:
     Pax_Vesania:
     Medium:
     9:
     0,0,0,0,0:
0000
0000
0000
0000
,
0000
0000
0000
0000
,
0000
0000
0000
0000
,
0000
0000
0002
0000
,
0000
0000
0003
1000
0100
0000
0100
0010
,
0000
0001
0000
0001
0010
0000
0010
0001
,
0000
0100
0000
0000
0000
0000
0000
0000
,
0000
0000
0000
0000
,
0000
0000
0000
0010
0100
0000
0100
0001
,
0000
0010
0000
0001
1000
0001
1000
0001
,
0000
0100
0000
0000
0000
0000
0000
0000
,
0000
0000
0000
0000
,
0010
0010
0100
0000
0010
0000
1000
0000
,
0200
0000
0000
0000
0300
0000
0000
0010
,
0001
0100
0010
1000
,
2000
0000
0000
0000
0000
3000
0000
1000
,
0010
0001
0010
1000
,
0200
0000
0000
0000
0300
0000
0000
0010
,
0100
0000
2000
0000
0000
3000
0010
0100
,
0000
0002
0000
0000
0003
0001
0100
0010
,
1000
0000
1100
0000
0000
1000
0000
0000
,
1010
0000
0000
0100
0000
0000
0101
0000
,
0001
0000
0010
0000
0000
0001
0000
1000
,
0100
0000
0100
1000
0000
1000
0000
0100
,
0001
0000
0100
1000
0000
0010
0000
1000
,
0010
0010
0100
0001
,
0101
0000
0100
0001
0000
0001
0000
1000
,
0100
0000
0010
0100
0000
0100
0000
0010
,
0001
0000
0100
0010
0000
0010
0000
1000
,
0100
0000
0200
0000
0300
0010
0001
0000
,
0000
0000
0000
0000
2000
0000
0000
0000
0000
3000
0020
0000
0000
0000
0000
0030
,
0200
0000
0000
0300
0002
0000
0000
0000
0000
0003
0020
0000
0000
0000
0000
0030
,
0001
0000
0000
0000
2000
0000
0000
0000
0000
3000
0100
0000
0020
0000
0000
0000
,
0000
0000
0000
0030
0002
0000
0000
0000
0003
0000
0001
0000
0001
0000
0000
0000
,
0000
0000
0100
0000
0001
0100
0001
0000
,
0100
0000
0010
0000
0100
0010
0100
0000
,
0010
0000
1000
0000
0010
1000
0100
0000
,
0010
0011
0000
0101
,
0000
0000
1010
0000
1000
0001
1000
0000
,
0001
0000
1000
0000
0001
0100
0010
0000
,
0100
0101
0001
0100
,
0001
1001
0000
1010
,
0000
0000
1100
0000
1000
0100
1000
0000
,
0001
0000
0010
0000
0001
0010
0001
0000
,
0100
0000
0010
0000
0100
0010
0100
0000
,
0002
0000
0000
0000
0000
0000
0000
0003
0010
0000
0000
0000
0100
0000
0000
0000
,
1000
0000
0001
0000
0100
0000
0010
1000
,
0010
0000
0100
0000
0001
0000
0100
0001
,
0020
0000
0000
0000
0000
0000
0000
0030
0001
0000
0000
0000
1000
0000
0000
0000
,
0010
0100
0011
0001
,
0101
0000
0100
0000
0010
1000
0000
1000
,
0010
1000
0010
0000
0100
0001
0000
0001
,
0100
0001
0100
0000
0001
0010
0000
0010
,
0001
0010
0001
0000
0001
0000
0100
0000
,
0100
0000
0010
0000
1000
0100
1000
0100
,
1000
0000
0001
0000
0100
0010
0100
0010
,
0100
0101
0000
0110
,
0000
1010
0010
1000
,
1000
0001
0100
1000
,
0100
0001
0010
1000
,
0010
0001
1000
0010
,
0001
0010
1000
0001
,
0010
0100
1000
0100
,
0001
0010
1000
0100
,
0001
0100
1000
0100
,
2000
0000
0000
0000
,
0000
3000
0000
0000
;

//--------------- dance-single - Pax_Vesania ----------------
#NOTES:
     dance-single:
     Pax_Vesania:
     Hard:
     12:
     0,0,0,0,0:
0000
0000
0000
0000
,
0000
0000
0000
0000
,
0000
0000
0000
0000
,
0000
1000
0020
0000
,
0000
0000
0030
1000
0001
1000
0010
0100
,
0000
0100
0000
0001
1000
0100
0010
0001
,
0000
0010
0000
0001
0010
0100
0010
0100
,
0000
1000
0000
0010
0001
0010
1000
1000
,
0000
0010
0000
0010
0100
0001
0001
0010
,
0000
0010
0000
0001
1000
0100
0001
0100
,
0000
1000
0000
0100
0010
0001
0010
0100
,
0000
0001
0000
0100
1000
0100
0010
0100
,
1000
0100
1000
0000
0010
0000
0000
0000
0100
0000
0000
0000
0001
0000
0000
0000
,
0020
0000
0000
0030
0002
0000
0000
0003
2000
0000
0000
3000
0200
0000
0010
0300
,
0020
0000
0000
0030
0001
0000
0000
0000
0100
0000
0000
0000
0001
0000
0000
0000
,
2000
0000
0000
3000
0002
0000
0000
0003
0200
0000
0000
0300
2000
0000
0100
3000
,
0100
0010
0001
0010
,
0200
0000
0000
0300
0002
0000
0000
0003
0020
0000
0000
0030
0200
0000
1000
0300
,
0010
0000
0200
0000
0000
0300
0010
1000
,
0000
0000
0002
0000
0000
0000
0000
0003
0000
0000
0001
0000
0010
0000
0100
0000
,
1000
0000
0200
0000
0000
1000
0000
0000
,
0001
0000
0000
1000
0000
0300
1000
0000
,
0010
0000
0100
0010
0000
1000
0000
0100
,
1000
0000
0001
0100
0000
0001
0000
1000
,
0010
0001
0010
0100
0000
0001
0000
1000
,
0001
0011
0101
0110
,
1010
0000
0010
1000
0000
0001
0000
0100
,
0010
0000
1000
0001
0000
0010
0000
1000
,
0010
0001
0010
0100
0000
0010
0000
0100
,
1000
0000
1001
0000
0000
0010
0110
0000
,
0000
0000
0100
0000
0001
0100
0000
1000
,
0100
0000
0010
0000
0001
0010
0000
1000
,
0010
0000
0100
0001
0001
1000
0100
0100
,
0010
0000
0100
0000
1000
0000
0001
0000
0010
0000
0001
0010
0001
0000
0000
0000
,
0000
0000
1000
0000
0100
0010
0001
0010
,
0100
0000
0010
0000
0001
0010
0001
1000
,
0100
0000
0010
0000
0100
1000
0001
0010
,
0200
0000
0000
0300
1000
0000
0010
0000
,
0100
0000
0001
0000
1000
0100
0010
0100
,
1000
0000
0010
0000
0100
0001
0100
0010
,
1000
0000
0100
0000
0001
0100
1000
0100
,
0010
0001
0020
0030
,
0100
0100
1000
0000
0010
0000
0001
1000
,
0100
0001
0010
0000
0100
0000
0010
0100
,
1000
0001
0010
0000
1000
0000
0010
0001
,
0100
0010
0100
0000
0001
0000
0001
0000
,
1000
0100
0100
0000
1000
0010
0100
0001
,
0010
0100
0010
0000
0001
0100
1000
0100
,
0001
0010
0100
0000
0100
1000
0100
0001
,
0100
1000
0001
0000
0100
0000
0010
0000
,
1000
0000
1001
0000
0001
0010
0100
1000
,
0020
0000
0000
0030
0200
0000
0000
0300
,
0002
0000
0000
0003
0020
0000
0000
0030
,
0200
0000
0000
0300
2000
0000
0000
3000
,
0001
0000
0011
0000
0010
0100
1000
0100
,
0010
0100
0001
0000
0100
1000
0010
0100
,
0001
0010
0100
0000
0010
0001
1000
0000
,
0010
0100
1000
0000
0100
0000
0001
0100
,
0101
0000
0001
0000
1000
0100
1000
0001
,
0010
0001
1000
0100
0010
0001
0100
0010
,
0100
0001
1000
0010
0001
0010
1000
0001
,
1000
0100
0001
0100
1000
0001
0010
0100
,
0010
0100
1000
0000
1100
0000
1010
0000
,
0101
0011
1001
0110
,
1010
0110
1001
0001
,
0020
0000
0000
0000
,
0000
0030
0000
0000
;

//--------------- dance-single - Pax_Vesania ----------------
#NOTES:
     dance-single:
     Pax_Vesania:
     Challenge:
     15:
     0,0,0,0,0:
0000
0000
1000
0000
0100
0000
0010
0001
,
0000
1000
0000
0100
0000
0010
0000
0010
,
0001
0000
0010
0000
0000
0100
0000
0000
,
0001
0100
2000
0000
,
0000
0000
3000
0001
0100
1000
0100
0001
,
0000
0010
0000
0001
0010
0100
1000
0010
,
0000
0100
0000
0010
1000
0100
0010
0100
,
0000
1000
0000
0100
0100
0001
0010
0001
,
0000
0010
0000
0001
1000
0010
0100
0001
,
0000
0010
0000
0001
0100
0100
1000
0010
,
0000
0100
0000
0010
0100
0010
0001
0010
,
0000
1000
0000
0100
1000
0001
0010
0100
,
1000
0100
1000
0000
0010
0000
0100
0000
1000
0000
0100
0000
0010
0000
0100
0000
,
0001
0010
0100
0001
0100
0010
0001
1000
,
0100
0010
0100
1000
0001
0010
0100
0010
,
0001
1000
0100
1000
0001
0010
0001
0010
,
0100
1000
0100
0001
0100
1000
0100
0001
,
0100
1000
0010
0001
0010
1000
0010
0001
,
0010
1000
0001
0010
0001
0010
0100
0010
,
0100
1000
0100
1000
0001
0100
1000
0100
,
0001
0100
0101
0001
0100
0110
0010
1000
,
1010
0000
0010
0000
1000
0000
1001
0000
0001
0000
0100
0000
0001
0000
1000
0001
,
1000
0001
1000
0000
0001
0000
0000
0000
0100
0000
0101
0000
0000
0000
0001
0000
,
0011
0000
0010
0000
0100
1100
0000
1000
,
1010
0010
0100
0001
0010
0011
0000
0001
,
1001
1010
0011
0110
,
0101
0000
0001
0000
1000
1100
0000
0100
,
0101
0000
0001
0000
0100
0110
0000
0010
,
0011
0001
0010
1000
0010
0110
0000
0100
,
1000
0000
0001
0100
0001
0000
0000
0000
0101
0000
0000
0000
0010
0000
1000
0010
,
1000
0001
1001
0000
1000
0010
0000
0001
,
0100
0000
0001
0000
0010
0001
0000
1000
,
0100
0000
0000
0000
0010
0000
0010
0100
1000
0000
0010
0000
0100
0001
0010
0000
,
0010
0000
0100
0000
1000
0000
0001
0010
0100
1000
0001
0010
0100
0000
0000
0000
,
0000
0000
1100
0000
1000
0100
0010
0001
,
1000
0001
0101
0000
0001
0010
0100
1000
,
0001
1000
1010
0000
0100
0010
0100
0001
,
0100
0010
0110
0000
0010
0000
1100
0000
,
1000
0000
1010
0000
0010
0100
0001
0010
,
0001
1000
1100
0000
0100
0010
0100
1000
,
0010
0100
0101
0000
0001
0100
0001
0100
,
1000
0000
0100
0000
0110
0000
0000
0000
0010
0000
0000
0000
1000
0001
1000
0100
,
0010
0001
1000
0100
0010
0000
0000
0000
0001
0000
0010
0000
1000
0000
0001
0000
,
0100
0010
0011
0000
0001
1000
0100
0001
,
0100
0010
0110
0000
0100
1000
0010
0100
,
0010
0001
0011
0000
0010
0000
1010
0000
,
1000
0000
0001
1000
0100
0000
0000
0000
0010
0000
0001
0000
0010
0000
1000
0000
,
0010
0100
0110
0000
0010
0001
1000
0100
,
0010
0100
1100
0000
1000
0010
0001
0010
,
0100
0001
0101
0000
0010
0000
0110
0000
,
0100
0000
0001
0000
1000
0001
1000
0001
,
0100
0010
0100
1000
0100
0010
0100
0001
,
0100
0001
0010
0100
1000
0001
1000
0010
,
1000
0100
0001
0100
1000
0010
0100
0001
,
0010
0100
0010
0001
0100
0010
0001
0010
,
1000
0010
0100
0010
1000
0100
0010
0100
,
1000
0001
0101
0100
0010
0100
0110
0010
,
1000
0100
1100
1000
0001
0010
0001
1000
,
0010
0000
1000
0100
0010
0000
0000
0000
1001
0000
1000
0000
1100
0000
0100
0000
,
0110
0010
0011
0000
0101
0100
0110
0010
,
1010
1000
1100
0000
0110
0100
0101
0001
,
1001
1000
1100
0000
0011
0010
0110
0100
,
1100
1000
0001
1000
0001
0100
0010
0100
,
0010
1000
0010
0001
1000
0100
0001
0010
,
1000
0010
0100
1000
0100
0010
1000
0010
,
0100
1000
0001
0010
0100
1000
0010
0100
,
1001
1001
0000
0000
0000
0000
0000
0000
;
