#TITLE:キミのとなりで;
#SUBTITLE:;
#ARTIST:鬼頭明里;
#TITLETRANSLIT:Kimi no Tonari de;
#SUBTITLETRANSLIT:;
#ARTISTTRANSLIT:Kitou Akari;
#GENRE:;
#CREDIT:;
#MUSIC:Kimi no Tonari de.ogg;
#BANNER:;
#BACKGROUND:;
#CDTITLE:;
#SAMPLESTART:48.873;
#SAMPLELENGTH:14.243;
#SELECTABLE:YES;
#OFFSET:-0.237;
#BPMS:0.000=198.000;
#STOPS:158.000=0.303;
#BGCHANGES:;
#FGCHANGES:;

//--------------- dance-single - Pax_Vesania ----------------
#NOTES:
     dance-single:
     Pax_Vesania:
     Beginner:
     3:
     0,0,0,0,0:
0000
0000
0000
0000
,
0000
0000
0000
0000
,
0000
0000
0000
0000
,
0000
0000
0000
0000
,
0000
0001
0000
0000
,
0000
0000
0000
0000
,
0000
0000
0100
0000
,
0000
0000
0100
0000
,
0000
0010
0000
0000
,
0010
0000
0000
0000
,
1000
0000
1000
0000
,
0000
0000
0000
0000
,
0001
0000
0001
0000
,
0000
0010
0000
0000
,
0000
0010
0000
0000
,
0000
0000
0000
0100
,
0000
0100
0000
0000
,
0000
1000
0000
0000
0000
0000
1000
0000
,
0000
0000
0010
0000
,
0000
0010
0000
0000
0000
0000
0100
0000
,
0000
0000
0001
0000
,
0000
0001
0000
0000
0000
0000
0001
0000
,
0000
0000
1000
0000
,
0000
0001
0000
0000
,
0000
1001
0000
0000
,
0000
0000
0000
0000
,
0000
0110
0000
0000
,
0000
0000
0000
0000
,
0010
0010
0000
0000
,
0000
0000
0000
0000
,
0000
1001
0000
0000
,
0000
0000
0000
0000
,
0000
0100
0000
0000
,
0000
0010
0000
0000
,
0000
1000
0000
0000
,
0000
0001
0000
0000
,
0000
0000
1000
0000
0000
0100
0000
0000
,
0100
0000
0000
0000
,
0000
0010
0000
0000
,
0000
0001
0000
0000
0001
0000
0000
0000
,
0000
0100
0000
0100
,
0000
0100
0000
0010
,
0000
0010
0000
0010
,
0000
0000
0000
0000
0000
0000
0000
1001
,
0000
0000
0000
0000
0000
0000
0000
0001
,
0000
0000
0000
0100
0000
0000
0000
0010
,
0000
0000
0000
0000
0000
0000
0000
0100
,
0000
0100
0000
0000
,
0000
0001
0000
0001
,
0000
1000
0000
1000
,
0000
0010
0000
0010
,
0000
0100
0000
0100
,
0000
0000
0000
0000
,
0000
0000
0000
0000
0000
0000
0000
1000
,
0000
1000
1000
0000
,
0000
0000
0000
0000
0000
0000
0000
0001
,
0000
0000
0002
0000
0000
0000
0003
0010
,
0000
0000
0020
0000
0000
0000
0030
0100
,
0000
0000
0000
1001
,
0000
0000
0000
0000
,
1000
0000
0000
0000
,
0100
0000
0000
0000
,
1000
0000
1000
1000
,
0000
0100
0100
0000
,
0010
0000
0000
0001
,
0000
0000
0010
0000
,
0100
0000
0000
1000
,
0000
0000
0000
0000
,
0001
0000
0000
0010
,
0000
0000
0000
0000
,
0100
0000
0000
0100
0000
0000
0100
0000
,
0000
0000
0000
0000
0000
0000
0000
1000
,
0000
0000
0000
0000
,
0200
0000
0000
0000
0000
0000
0000
0000
0000
0000
0000
0000
0000
0000
0000
0300
,
0020
0000
0000
0000
,
0000
0000
0000
0000
0000
0000
0000
0030
;

//--------------- dance-single - Pax_Vesania ----------------
#NOTES:
     dance-single:
     Pax_Vesania:
     Easy:
     6:
     0,0,0,0,0:
0000
0000
0000
0000
,
0000
0000
0000
0000
,
0000
0000
0000
0000
,
0000
0000
0000
0000
,
0000
0010
0000
0000
,
0000
0000
0000
0000
,
0000
0000
0100
0000
,
0010
0000
0200
0000
,
0000
0301
0010
0000
,
0010
0000
0100
0000
,
1000
1000
0001
0000
,
1000
0000
0010
0000
,
0100
0000
0001
0000
0000
0001
0000
0000
,
0100
0100
0000
0010
,
0000
1000
0100
0100
,
0000
0000
1001
0001
,
0100
0000
0010
0010
,
0000
1000
0000
0000
0000
0000
0010
0000
,
0010
0000
0100
0100
,
0000
0001
0000
0000
0000
0000
0100
0000
,
0100
0000
0010
0010
,
0000
0100
0000
0100
0000
0000
0001
0000
,
0001
0000
0100
0010
,
0000
1000
0000
0100
,
0000
0110
0000
0000
,
0000
0000
0000
0000
,
1000
1001
0000
0000
,
0001
0000
0000
0010
0000
0000
0000
0000
,
0010
0110
0000
0000
,
0001
0000
0000
1000
,
1000
1001
0000
0000
,
0000
0000
0000
0010
,
0000
0100
0000
0001
,
0000
0100
0000
0010
,
0000
1000
0000
0100
,
1000
0000
0001
0000
0000
0010
0000
0000
,
0000
0000
1001
0000
0000
1001
0000
0000
,
0110
0000
0000
0000
,
0000
0000
0000
0000
0000
0001
0000
0000
,
0000
0100
0000
0000
0101
0000
0000
0000
,
0000
0001
0000
0001
,
0000
0010
0000
0010
,
0000
0100
0000
0100
,
0000
0000
1000
0000
0000
0000
0000
1100
,
0000
0000
0000
0000
0000
0000
0000
1001
,
0000
0000
0000
0110
0000
0000
0000
0100
,
0000
0000
0100
0000
0100
0000
0000
0001
,
0000
0001
0001
0000
,
0000
0001
0000
0001
,
0000
1000
0000
1000
,
0000
0010
0000
0010
,
0000
0100
0000
0100
,
0001
0001
1000
1000
,
0010
0000
0000
0000
1000
0000
0000
1001
,
0000
0000
0000
0000
,
0000
0000
0000
0000
0000
0000
0000
0010
,
0000
0000
0100
0000
0100
0000
0000
0001
,
0000
0000
1000
0000
1000
0000
0000
0100
,
0000
0000
0000
1001
,
0000
0000
0000
0000
,
0001
0000
0000
1000
0000
0000
0000
0000
,
1000
0000
0000
0001
0000
0000
0000
0000
,
0100
0000
0000
0010
0000
0000
1000
0000
,
1000
1000
0001
0001
,
0001
0000
0000
0010
0000
0000
0100
0000
,
0000
1000
0000
0000
0100
0000
0100
0000
,
0010
0000
0000
0010
0000
0000
0001
0000
,
0000
0000
0000
0000
,
1000
0000
0000
1000
0000
0000
0010
0000
,
0000
0000
0000
0000
,
0100
0000
0000
0001
0000
0000
0010
0000
,
0000
0000
0000
0000
0000
0000
0000
1001
,
0000
0000
0000
0000
,
0000
0000
0000
0000
,
0000
0000
0000
0000
0000
0000
0000
1000
,
0000
0002
0000
0000
0203
0000
0000
0310
;

//--------------- dance-single - Pax_Vesania ----------------
#NOTES:
     dance-single:
     Pax_Vesania:
     Medium:
     10:
     0,0,0,0,0:
0000
0000
0000
0000
,
0000
0000
0000
0000
,
0000
0000
0000
0000
,
0000
0000
0000
0000
,
0000
0110
0000
0000
,
0000
0000
0000
0000
,
0000
0000
0001
0000
,
0001
0000
0001
0011
,
0010
0000
0100
0000
1000
0001
1000
0000
,
0001
0010
0001
0000
1000
0010
0000
0010
,
0000
0100
0001
0000
0010
0200
0000
0000
,
0000
0000
0000
0300
0000
0000
1000
0000
,
0100
0000
0010
0000
0000
0100
0000
0000
,
0001
0000
0100
0000
0000
1000
0000
0000
,
0001
0000
0010
0000
0001
2000
0000
0000
,
0010
0000
0100
0000
,
3000
0000
0001
0000
0100
0001
0100
0001
,
0000
0001
0000
0010
0000
0100
1000
0100
,
1000
0100
0000
0000
1000
0010
1000
0010
,
0000
0010
0000
0100
0000
0001
0010
0001
,
0010
0001
0000
0000
0100
0010
0100
0010
,
0000
0100
0001
0100
0000
0001
1000
0001
,
1000
0001
0000
0000
0001
0100
0001
0100
,
0000
1010
0000
0110
,
0000
0000
0101
0000
0000
0100
0000
0000
,
0010
0000
0000
1000
0000
0000
0010
0000
,
0000
0000
1001
0000
0000
0001
0000
0000
,
0010
0000
0000
0001
0000
0000
1000
0010
,
1000
0000
0100
0000
0000
0100
0000
0000
,
0010
0000
0001
0010
,
0100
1100
0000
1000
,
0001
0000
1000
0000
0001
0000
0100
0010
,
1000
0100
0010
0000
0000
0010
0001
0000
,
0100
0000
0010
0000
0000
0100
1000
0000
,
0100
0000
0001
0000
0000
0010
0100
0000
,
0010
0000
0011
0000
0000
1001
0000
0000
,
1100
0000
0100
0000
0010
0001
0000
0100
,
0010
0000
0000
0100
0000
0001
0010
0000
,
0001
1000
0100
0000
0000
0010
0000
0100
,
1000
0001
0000
0000
0110
0000
0000
1000
,
0000
0100
0010
0000
0001
0100
0001
0000
,
1000
0010
1000
0000
0001
0010
0100
0000
,
1000
0100
0010
0000
0100
1000
0001
0100
,
0010
1000
0000
0000
1000
0100
0010
0001
,
0000
0001
0010
0000
0000
0000
0000
0110
,
0000
1100
0000
1010
0000
0101
0000
0011
,
0000
0001
0000
1000
0000
0001
0000
0002
,
0000
0000
0000
0000
0003
0000
0000
0100
,
0000
0010
1000
0000
0001
0010
0001
0000
,
1000
0100
1000
0000
0001
0100
0010
0000
,
1000
0001
0010
0000
0001
1000
0100
0000
,
0100
0010
0001
0000
0010
0100
1000
0000
,
0001
0010
0100
0000
0010
0000
0001
0000
,
1000
0000
0000
0010
0100
0000
0001
0010
,
0000
0001
0100
0001
2000
0000
0000
0000
,
0000
3000
0000
0000
1000
0010
0100
0001
,
0000
0000
0011
0000
0101
0000
0010
0100
,
0000
0000
1010
0000
1100
0000
1000
0001
,
0000
1000
0010
1000
0001
0000
0101
0000
,
0000
0000
1010
0000
0000
0000
0000
1000
,
0010
0000
0001
0100
0000
0000
0000
0001
,
0010
0000
1000
0100
0000
0000
0000
0100
,
1000
0000
1000
0010
0000
0000
0100
0001
,
1000
0010
1000
0100
0010
0001
0100
0010
,
0100
0000
0000
0101
0000
0000
1010
0000
,
0000
0101
0000
0000
1001
0000
0110
0000
,
0100
0000
0001
0100
0000
1000
0100
0000
,
0000
0000
0000
0000
0000
0010
0100
0010
,
0100
0000
0001
0010
0000
1000
0010
0000
,
0000
0000
0000
0000
0000
0001
1000
0100
,
0010
0000
0001
0100
0000
0010
1000
0000
,
0000
1000
0010
0001
0010
1000
0001
1000
,
0000
0000
0000
0000
,
0200
0000
0000
0000
0000
0000
0000
0000
0000
0000
0000
0000
0000
0000
0000
0300
,
0020
0000
0000
0000
0000
0000
0000
0031
,
0000
0001
0100
0010
1000
0001
0010
0100
;

//--------------- dance-single - Pax_Vesania ----------------
#NOTES:
     dance-single:
     Pax_Vesania:
     Hard:
     13:
     0,0,0,0,0:
0000
0000
0000
0000
,
0000
0000
0000
0000
,
0000
0000
0000
0000
,
0000
0000
0000
0000
,
0000
1001
0000
0000
,
0000
0000
0000
0000
,
0000
0000
0001
0000
,
1000
0000
0000
0000
0000
0000
0000
0000
0001
0000
1000
0001
1000
0000
0001
0000
,
0010
0100
1000
0000
0100
0001
0100
1000
,
0010
0100
0001
0000
0001
0010
0000
0100
,
0000
1000
0100
0000
0001
0020
0000
0000
,
0001
0000
0000
0030
0100
0000
1000
0100
,
0010
0001
0100
0000
0000
0001
0000
0000
,
0100
0000
0010
0000
0000
1000
0000
0000
,
0100
0000
0010
0001
1000
0010
0100
0001
,
0010
0000
0000
0000
0010
0000
0100
0000
1000
0000
0001
0010
0001
0000
0010
0000
,
0100
0000
0010
0000
0001
0010
1000
0010
,
0001
1000
0100
0001
0100
1000
0010
1000
,
0010
0000
0100
0000
0001
0100
1000
0100
,
0010
0100
0001
0010
0100
1000
0001
1000
,
0001
0000
0100
0000
0010
0001
0010
0100
,
0100
0001
0010
0010
0001
1000
0100
0010
,
0100
0000
1000
0000
0010
0001
0010
0100
,
1000
0100
0110
0000
0101
0000
0100
0000
,
0001
0000
0011
0000
0000
0010
0000
0000
,
0001
0000
0000
1000
0000
0000
0100
0010
,
0100
0000
1100
0000
0000
0001
0000
0000
,
0010
0000
0000
0100
0000
0000
1000
0010
,
0011
0000
0110
0000
0000
0100
0000
0000
,
0001
0000
0010
0001
,
0100
0000
0000
0001
1000
0100
0010
0100
,
1000
0001
0010
0000
0001
2000
0000
0000
,
3000
0000
1000
0000
0000
0100
0010
0001
,
0010
0000
0001
0000
0000
0100
1000
0100
,
0001
0000
0010
0000
0000
0001
1000
0100
,
0010
0001
0100
0000
0000
0101
0000
0000
,
0000
0001
0010
0000
1000
0100
0000
0001
,
0010
0000
0000
0100
0100
1000
0001
0100
,
0010
0000
1000
0000
0000
0100
0000
0010
,
0001
1000
0000
1001
1001
0000
0000
0010
,
0000
0100
0001
1000
0100
0010
0001
0100
,
0001
1000
0100
0001
0100
1000
0001
0010
,
0001
1000
0100
1000
0010
0000
0010
0100
,
0000
0001
0000
0000
1000
0010
0001
1000
,
0000
0100
0001
0000
0000
0000
0010
0011
,
0000
0101
0000
0110
0000
1010
0000
1100
,
0000
0100
0001
0100
1000
0100
0010
0110
,
0000
0010
0001
0010
0100
1000
0010
0100
,
0000
0001
0100
1000
0100
0001
0010
0100
,
1000
0010
0001
0010
0100
0010
1000
0100
,
0000
0100
0001
0100
1000
0001
1000
0001
,
0000
0010
0000
0000
0000
0000
0000
0100
,
1000
0001
0010
0000
0100
0000
0011
0000
,
0001
0000
0000
0010
0100
0000
1000
0100
,
0000
0010
0001
0100
0001
1000
0100
0010
,
0100
0010
0001
0010
0001
1000
0010
0001
,
0000
0010
0110
0010
1000
0100
0010
0011
,
0000
0001
0101
0100
0010
1000
0010
1010
,
0000
1000
0100
0010
0001
0000
0101
0000
,
0000
0100
0001
0100
0010
0100
1000
0100
,
0001
0000
0001
0100
0010
1000
0001
0010
,
0100
0010
0001
1000
0010
0001
0010
0100
,
0001
0010
0100
1000
0001
0010
1000
0001
,
0100
1000
0001
0001
0100
0100
0010
1000
,
1010
0000
0010
0110
0000
0100
0101
0000
,
0001
0011
0000
0001
1000
0000
0001
0000
,
1100
0000
1000
0100
0000
0001
0100
0000
,
0000
1000
0010
0001
1000
0100
0001
1000
,
0001
0000
0010
0100
0000
0010
0001
0000
,
0000
0001
0010
1000
0010
0001
0100
0001
,
0101
0000
0100
0110
0000
0010
1010
0000
,
1000
1100
0100
0010
0001
0010
0100
1000
,
0000
0100
0010
0100
0001
0100
1000
0001
,
0100
0010
0001
0010
0100
1000
0100
0001
,
0100
0010
1000
0100
0010
0001
0100
0010
,
0100
0000
0001
0100
0001
0000
0100
0000
0010
1000
0010
0000
0100
0000
0101
0000
;

//--------------- dance-single - Pax_Vesania ----------------
#NOTES:
     dance-single:
     Pax_Vesania:
     Challenge:
     17:
     0,0,0,0,0:
0000
0000
0000
0000
,
0000
0000
0000
0000
,
0000
0000
0000
0000
,
0000
0000
0000
0000
,
0000
0000
1000
0100
0010
0100
1000
0001
,
0010
0100
0010
0001
1000
0100
1000
0001
,
0010
0000
0001
0000
1000
0000
0001
0010
0100
0000
1000
0000
0001
0000
0100
0000
,
0010
0000
1000
0000
0001
0000
1000
0100
1000
0000
0010
0100
0010
0000
1000
0100
,
0010
0001
0010
0000
0100
0000
0000
0000
0100
0000
0010
0000
0001
0000
0010
0000
,
0100
1000
0001
1000
0010
0100
0010
0001
,
0010
0100
0001
1000
0100
0002
0000
0100
,
0100
0000
0000
0003
0100
1000
0010
0100
,
0001
0010
1000
0010
0100
1000
0001
0100
,
1000
0100
0010
0001
0010
0100
0001
0100
,
0010
1000
0100
0010
0001
0100
0010
0000
,
1000
0000
0000
0000
0000
0000
0010
0000
0100
0000
0001
0100
0001
0000
0100
0000
,
0100
0000
0010
1000
0010
0001
0010
1000
,
0010
0001
0010
0100
1000
0100
0010
0100
,
0001
0100
0001
0100
1000
0100
0001
0010
,
1000
0010
0001
0010
1000
0010
0001
0010
,
0001
1000
0100
0010
0010
0001
0001
0001
,
0000
0001
1000
1000
0000
0010
0100
0100
,
0100
0000
0010
0100
0010
1000
0100
0001
,
0100
0000
0000
0000
1100
0000
1000
0000
0001
0000
0010
0100
1000
0000
0001
0000
,
0001
1000
1010
0000
0000
0110
0000
0000
,
0101
0000
0000
0110
0000
0000
0001
0001
,
0101
0000
1001
0000
0000
0100
0000
0000
,
0110
0000
0000
0100
0000
0000
0001
1000
,
1100
0000
0101
0000
0000
0100
0000
0000
,
1000
0000
0000
0000
1000
0000
0100
0010
,
0110
0000
0011
0001
0100
0010
1000
0100
,
0010
0000
0100
0000
1000
0000
0001
0000
0010
0000
0100
0000
0000
0000
1000
0100
,
0010
0001
1000
0100
0010
0000
0000
0000
0000
0000
0001
0000
0010
0000
0001
0000
,
1000
0010
1000
0001
0000
0100
0010
0000
,
0100
0000
0001
0000
0000
0010
0110
0000
,
0100
0000
0100
1000
0000
0010
0100
0001
,
0010
0100
1100
0000
1000
1010
0000
0100
,
0101
0000
0000
0000
0001
0000
0010
0100
1000
0000
0001
0000
0010
0000
0100
0000
,
0100
0000
1000
0000
1100
0000
0000
0000
1000
0100
0010
0001
1000
0001
1000
0001
,
0010
0100
1000
0000
0000
0000
1001
0000
0110
0000
0000
0000
0000
0000
0100
0000
,
0000
0100
0001
0100
1000
0100
0001
0100
,
0010
0001
0010
1000
0010
0001
0010
1000
,
0100
0001
0100
1000
0100
0001
0100
1000
,
0010
0100
0001
0000
1000
0100
0001
0101
,
0000
0100
1000
0100
1000
0001
0010
0011
,
0001
0101
0100
0110
0010
1010
1000
1100
,
0000
0100
0010
0100
0001
0100
1000
0001
,
0000
0000
0001
0100
0010
1000
0001
0010
0100
1000
0100
0010
0100
1000
0001
0000
,
0000
0010
0100
1000
0100
0001
0100
1000
,
0001
0100
1000
0100
0001
0010
1000
0001
,
0100
1000
0001
1000
0010
0100
0001
0001
,
1000
1000
0000
0100
0010
0001
0100
0001
,
0100
0010
1000
0010
0001
0010
0100
1000
,
0100
0010
0001
0010
0100
0010
1000
1010
,
0000
0010
0100
0001
0010
0001
1000
0010
,
0001
0000
1000
0000
0100
0000
0001
0000
0010
0000
0100
1000
0001
0000
0100
0000
,
0000
0100
0110
0100
0101
0001
0100
0110
,
0000
0010
1010
1000
1100
1000
0001
1001
,
0000
1000
1010
1000
0110
0000
0101
0000
,
0000
0000
0001
0000
0010
0001
0010
0100
1000
0001
0100
0001
0010
0100
1000
0001
,
0100
0010
1000
0001
0100
0001
0010
0001
,
1000
0100
0010
0001
0100
0010
0100
0001
,
0010
0000
0100
0000
1000
0100
0010
0001
1000
0010
0100
0001
0010
0100
1000
0001
,
0100
0010
1000
0100
0010
0001
0010
0100
1000
0001
1000
0100
0010
0001
0100
0010
,
1000
0000
0001
1001
0000
1000
1100
0000
,
0010
0000
0011
0000
0000
0000
0001
0000
0100
0000
0010
1000
0010
0000
0000
0000
,
1100
0000
1000
0100
0100
0010
0001
0100
,
0001
1000
0010
0010
0001
0010
0100
0001
,
0011
0000
1000
0010
1000
0001
0001
0100
,
1000
0100
0100
0001
0010
0001
1000
0100
,
0110
0000
0010
0011
0000
0001
1001
0000
,
1000
0000
1010
0000
0000
0000
1000
0001
0100
0010
1000
0001
0010
0100
1000
0000
,
0000
0100
0010
0100
1000
0001
0010
0001
,
1000
0001
0010
0100
1000
0100
0001
0100
,
1000
0010
0001
0010
1000
0001
0010
0011
,
0000
0000
0001
0100
0001
0010
0100
1000
0100
0010
0001
0100
0010
0100
0001
0000
;
