#TITLE:快眠! 安眠! スヤリスト生活;
#SUBTITLE:;
#ARTIST:スヤリス姫(CV.水瀬いのり);
#TITLETRANSLIT:Kaimin! Anmin! Syalist Seikatsu;
#SUBTITLETRANSLIT:;
#ARTISTTRANSLIT:Princess Syalis (CV. Minase Inori);
#GENRE:;
#CREDIT:;
#MUSIC:Kaimin! Anmin! Syalist Seikatsu.ogg;
#BANNER:;
#BACKGROUND:;
#CDTITLE:;
#SAMPLESTART:56.337;
#SAMPLELENGTH:13.617;
#SELECTABLE:YES;
#OFFSET:-0.381;
#BPMS:0.000=141.000;
#STOPS:90.000=0.425;
#BGCHANGES:;
#FGCHANGES:;

//--------------- dance-single - Pax_Vesania ----------------
#NOTES:
     dance-single:
     Pax_Vesania:
     Easy:
     5:
     0,0,0,0,0:
0000
0000
0000
0000
,
0000
0000
0000
0000
,
0000
0000
0000
0000
0000
0000
0000
2000
,
0000
0000
0000
0000
0000
0000
0000
0000
0000
0000
0000
0000
0000
3000
0020
0000
,
0000
0000
0000
0000
0000
0000
0000
0000
0000
0000
0000
0000
0000
0030
0200
0000
,
0000
0000
0000
0000
,
0301
0000
1000
0000
,
0100
0000
0010
0000
,
0001
0000
0001
0000
,
0200
0000
0000
0000
0000
0000
0000
0000
0000
0000
0000
0000
0000
0000
0000
0300
,
0002
0000
0000
0000
0000
0000
0000
0003
0020
0000
0000
0000
0000
0000
0000
0030
,
0001
0100
0001
1000
,
1000
0010
1000
0001
,
0100
0010
1000
0001
,
0100
0001
1000
0100
,
0010
0000
0001
0000
,
0100
0000
0010
0010
,
1000
0000
0100
0000
,
0010
0000
0001
0001
,
0011
0000
0101
0000
,
1001
0000
1010
0000
,
1100
0000
1001
0000
,
1000
0100
0010
0100
,
0000
0000
0000
0000
1000
0000
0000
0100
0000
0000
0000
0000
0010
0000
0000
0000
,
0000
0000
0000
0000
0100
0000
0000
0010
0000
0000
0000
0000
0001
0000
0000
0000
,
0000
0001
0000
0000
0000
0000
1000
0000
,
0001
1001
1001
1000
,
0000
0010
0000
0100
,
0000
0001
0000
0100
,
0010
1000
0001
2000
,
0000
0000
0000
0000
0000
0000
0000
0000
0000
3000
0000
0000
2000
0000
0000
0000
,
0000
3020
0000
0230
,
0000
0000
0302
0000
0000
0103
0000
0000
,
0010
0000
0200
0000
0300
0001
0000
0000
,
1000
0000
0020
0000
0030
0100
0000
0000
,
0010
1000
0001
0100
,
0100
0010
0010
1000
,
0010
1000
0001
0100
,
0001
0010
0001
1000
,
0000
0100
0000
0010
,
0001
0000
0011
0000
0000
1000
0000
0000
,
0001
0000
0020
0000
0030
0001
0000
0000
,
1000
0000
0200
0000
0300
0010
0000
0000
,
0001
1000
0010
0200
,
0000
0301
0000
0001
,
0100
0001
1000
0010
,
1000
0100
1000
0002
,
0000
0000
0000
0000
0000
0000
0000
0000
0000
0000
0000
0003
0020
0000
0000
0000
,
0000
0000
0000
0030
0002
0000
0000
0000
0000
0000
0000
0003
1000
0000
0000
0000
,
0100
0010
0100
1000
,
0001
0000
0010
0000
0100
0000
0000
0020
,
0002
0000
0000
0033
;

//--------------- dance-single - Pax_Vesania ----------------
#NOTES:
     dance-single:
     Pax_Vesania:
     Medium:
     8:
     0,0,0,0,0:
0000
0000
0000
0000
,
0000
0000
0000
0000
,
0000
0000
0000
0000
0000
0000
0000
0002
,
0000
0000
0000
0000
0000
0000
0000
0000
0000
0000
0000
0000
0000
0003
2000
0000
,
0000
0000
0000
0000
0000
0000
0000
0000
0000
0000
0000
0000
0000
3000
0020
0000
,
0000
0000
0000
0000
0000
0000
0000
0000
0000
0000
0000
0000
0000
0000
0000
0030
,
0100
0001
1000
0010
,
1000
1000
0100
0100
,
0010
0010
0001
0001
,
2000
0000
0000
0000
3000
0001
0010
0000
,
0100
0010
0100
1000
,
0010
0000
0100
0000
0001
1000
0001
0000
,
0100
0000
0010
0000
1000
0001
1000
0000
,
0001
0000
0100
0000
0010
1000
0010
0000
,
1000
0000
0010
0000
0100
0001
0100
0000
,
0001
0001
0100
0100
,
0010
0000
0010
0000
1000
0020
0000
0030
,
1000
0010
0100
0001
,
0010
0010
0001
0001
,
0100
0001
0101
0001
,
1000
1010
0100
0010
,
0110
0000
0101
0000
,
0001
1000
0110
0002
,
0000
0000
0003
0000
0001
0000
0000
0010
0000
0000
0100
0000
2000
0000
0000
0000
,
0000
0000
3000
0000
1000
0000
0000
0010
0000
0000
0100
0000
0010
0000
0000
0000
,
0100
0001
1000
0001
,
1001
0000
0000
0000
0100
0000
0000
0000
0110
0000
0000
0000
1000
0000
0000
1000
,
0000
0000
1000
0000
0010
0000
0000
0000
0000
0000
0000
0000
0100
0000
0000
0100
,
0000
0100
0001
0000
0000
0000
1000
0000
,
0100
0001
0010
1000
,
0100
1000
0010
0200
,
0010
0000
0300
0020
0000
0000
1000
0000
0030
2000
0000
0000
,
0001
0000
0000
0000
3000
0000
0002
0000
0000
0000
0000
0000
0003
0000
0000
1001
0000
0000
0000
0000
0000
0000
0000
0000
,
1000
0000
0000
0000
0010
0000
0000
0100
0000
0000
0101
0000
0000
0000
0000
0000
,
0001
0000
0000
0000
0100
0000
0000
0010
0000
0000
1000
0000
0000
0000
0010
0000
,
0100
0010
0100
0000
0001
0000
0020
0000
,
0000
0000
0030
0000
0000
0001
1000
0000
,
0100
0010
0100
1000
,
0001
0000
0000
0000
0100
0000
0010
0000
0100
0000
0000
0000
0001
0000
0000
0001
,
0000
0000
1000
0000
1000
0000
0000
0010
0000
0000
0100
0000
0001
0000
0000
0000
,
0010
0000
0001
0000
0000
0011
0000
0000
,
0010
0000
0000
0000
0001
0000
0000
1000
0000
0000
1100
0000
0000
0000
0000
0000
,
1000
0000
0000
0000
0001
0000
0000
0010
0000
0000
0100
0000
0000
0000
1000
0000
,
0001
1000
0001
0000
0010
0000
0022
0000
,
0000
0000
0000
0033
0000
0000
0000
0000
0000
0000
0001
0000
0100
0000
0000
0000
,
0010
1000
0100
0001
,
0100
1000
0000
0002
,
0000
0000
0000
0003
0000
0000
1000
0000
0010
0000
1000
0000
0001
0000
0000
0000
,
0010
0100
1000
0001
,
0010
0000
0100
1000
0100
0000
0010
0000
,
0001
0000
0100
0010
0100
0000
0000
0020
,
0200
0000
0000
0330
;

//--------------- dance-single - Pax_Vesania ----------------
#NOTES:
     dance-single:
     Pax_Vesania:
     Hard:
     12:
     0,0,0,0,0:
0000
0000
0000
0000
,
0000
0000
0000
0000
,
0000
0000
0000
0000
0000
0000
0000
0202
,
0000
0000
0000
0000
0000
0000
0000
0000
0000
0000
0000
0000
0000
0303
2020
0000
,
0000
0000
0000
0000
0000
0000
0000
0000
0000
0000
0000
0000
0000
3030
0220
0000
,
0000
0000
0000
0000
0000
0000
0000
0330
,
1001
0001
1000
0100
,
0010
0001
0010
0001
0100
0001
0100
0001
,
1000
0001
1000
0001
1000
0100
1000
0010
,
0200
0000
0000
0000
0300
0001
1000
0100
,
0010
0001
0100
0010
,
1000
0010
0001
0010
1000
0010
0001
0010
,
1000
0100
0001
0100
1000
0100
0001
0100
,
1000
0001
0100
1000
0100
0001
0010
1000
,
0010
0001
0100
1000
0100
0001
0010
0100
,
1000
0000
0000
0000
0100
0000
0010
0000
0100
0000
0000
0000
1000
0000
0001
0010
,
0001
0100
0010
1000
0100
0000
0000
0000
,
0001
0000
0100
0010
0100
0000
0001
0100
,
1000
0000
0100
0001
0010
0000
0001
0000
,
0011
0010
0001
0010
0001
1000
0100
1000
,
0010
0100
0010
1000
0100
0010
0100
1000
,
0001
0010
0100
0010
0001
0100
0010
1000
,
0010
0000
0001
0000
1000
0000
0100
0000
0001
0000
0000
0000
0100
0000
0000
0001
,
0000
0000
0100
0000
0010
0000
0000
0000
0100
0000
0100
0001
1000
0000
0000
0010
,
0000
0000
0100
0000
0001
0000
0000
0000
0010
0000
0100
0000
1000
0000
0000
0001
,
0000
1000
0001
1000
0001
0100
0011
0000
,
1100
0000
0110
0000
0101
0000
0001
0100
,
0010
1000
0100
1000
1000
0000
1000
0010
,
0100
0001
0010
0001
0001
0000
0010
0001
,
0010
1000
0010
0100
0010
0001
1000
0000
,
0001
0000
0000
0010
0000
0000
0100
0000
0000
1000
0100
0010
,
0001
0010
0100
1000
0001
0010
0001
0010
0100
1000
0100
0010
,
0001
0000
1000
0000
0001
0000
0010
0000
0100
0000
1000
0000
0001
0000
0000
0011
0000
0000
0000
0000
0000
1000
0000
0000
,
0100
0000
0010
0000
0001
0000
0000
0001
0000
0000
1100
0000
0000
0000
1000
0000
,
0010
0000
0100
0000
0001
0000
0000
0001
0000
0000
0010
0000
0000
0000
0100
0000
,
1000
0100
0010
0100
1000
0001
0010
0000
,
0001
0000
0000
0000
1000
0000
0000
0000
0001
0000
1000
0100
1000
0000
0000
0000
,
0010
0000
0100
0010
1000
0100
0001
0000
,
0100
0000
0000
0000
0010
0000
0100
0000
1000
0000
0000
0000
0001
0000
0000
1000
,
0000
0000
0100
0000
0010
0000
0000
0001
0000
0000
0100
0000
0110
0000
0000
0000
,
0101
0000
0011
0000
0000
1010
0000
1000
,
0010
0000
0001
0000
0010
0000
0000
0100
0000
0000
0101
0000
0000
0000
0001
0000
,
0100
0000
1000
0000
0100
0000
0000
0001
0000
0000
0001
0000
0000
0000
1000
0000
,
1000
0010
0100
0001
0010
0001
0100
0100
,
0010
0000
0010
0000
1000
0000
0000
0000
1000
0000
0001
0100
0001
0000
0000
0000
,
0010
0000
0100
1000
0001
1000
0001
0000
,
0010
0010
0100
0000
0000
0000
2000
0000
,
0000
0000
3000
0100
0010
0001
0010
0000
,
0001
0000
0000
0000
0100
0000
0000
0000
0010
0000
0000
0000
1000
0000
0001
0010
,
0001
0000
1000
0000
0001
0100
0010
0000
0100
0000
0000
0000
0001
0000
1000
0100
,
1000
0000
0001
0000
1000
0010
0100
0000
0010
0000
0000
0000
0000
0000
2000
0000
,
0002
0000
0000
3003
;

//--------------- dance-single - Pax_Vesania ----------------
#NOTES:
     dance-single:
     Pax_Vesania:
     Challenge:
     15:
     0,0,0,0,0:
0000
0000
0000
0000
,
0000
0000
0000
0000
,
0000
0000
0000
0000
0000
0000
0000
1100
,
0000
0000
1000
0000
0100
0000
0010
0000
0100
0000
0000
1000
0000
0000
0011
0000
,
0000
0000
0001
0000
0010
0000
0100
0000
0010
0000
0000
0001
0000
0000
0101
0000
,
0000
0010
1000
0010
0001
0010
1000
0100
,
0010
0001
0010
0001
0100
0001
0100
0001
0010
0100
1000
0001
1000
0100
0010
0001
,
1000
1100
1000
1100
0100
0101
0100
0101
,
0100
0110
0100
0110
0010
0011
0001
0011
,
0001
1000
0001
1000
0001
1000
0001
1000
0001
1000
0001
1000
0001
1000
0001
1000
,
0001
0100
0010
0100
0010
0100
0010
0100
0001
0100
0001
0100
0001
0100
0001
0100
,
0001
0000
0010
0100
1000
0000
1000
0000
0001
0100
0010
0000
0010
0000
0000
0000
,
1000
0000
0100
0010
0001
0000
0001
0000
0100
0010
1000
0000
1000
0000
0000
0000
,
0001
0000
0100
1000
0100
0000
0001
0000
1000
0100
0001
0000
0100
0000
0000
0000
,
1000
0000
0010
0001
0010
0000
1000
0000
0001
0010
1000
0000
0010
0000
0000
0000
,
0011
0000
0010
0000
0100
0000
1000
0000
0101
0000
0001
0010
0001
0000
1000
0000
,
0110
0000
0000
0010
0000
0000
1000
0000
0000
0001
0000
0000
1001
0000
0000
0001
0010
0001
0010
0000
0000
0001
0000
0000
,
0101
0100
0010
0100
0110
0010
1000
0010
,
0101
0100
0101
0100
0011
0001
0011
0001
,
1000
0000
0010
0000
1000
0000
0001
0000
1000
0000
0100
0000
1000
0000
0100
0010
,
0001
0010
0001
0100
0001
1000
0010
1000
,
0100
0001
0100
1000
0010
0001
0010
1000
,
1010
0000
0110
0000
0101
0000
0011
0000
1001
0000
0000
0000
1000
0010
1000
0010
,
1000
0010
1000
0000
0001
0000
0000
0010
0000
0000
0100
0000
0010
0001
0010
0001
,
0010
0001
0010
0000
0001
0000
0000
0010
0000
0000
0100
0000
0010
0000
0100
0000
,
1000
0100
0001
0100
1000
0100
0011
0000
,
1100
0000
0000
0000
0101
0000
0000
0000
1100
0000
0000
0000
0001
0000
0000
0010
,
0100
0000
1000
0000
1000
0000
1001
0000
1001
0000
0000
0000
1000
0000
0000
0100
,
0010
0001
0001
1001
1001
0000
1000
0100
,
0001
0010
1000
0100
0001
0010
1000
0000
,
0100
0000
0000
0100
0000
0000
0100
0000
0000
1000
0010
0001
,
1000
0100
0001
0010
0100
1000
0001
0010
0100
1000
0010
0001
,
0010
0000
1000
0000
0100
0000
0001
0000
0100
0000
1000
0000
0100
0000
0000
1100
0000
0000
0000
0000
0000
1000
0000
0000
,
0010
0000
0001
0000
0010
0000
0000
0100
0000
0000
0101
0000
0000
0000
0001
0000
,
0010
0000
1000
0000
0010
0000
0000
0001
0000
0000
1000
0000
0000
0000
0100
0000
,
1000
0100
0001
0100
0010
0001
1001
0000
,
0011
0000
0000
0000
1001
0000
0000
0000
1100
0000
0000
0000
0010
1000
0100
1000
,
0010
1000
0100
1000
0001
1000
0010
1000
0001
1000
0010
0100
0001
0100
0010
0100
,
0001
0100
0010
0100
0001
1000
0100
1000
0001
1000
0100
1000
0001
0000
0000
1100
,
0000
0000
1100
0000
1010
0000
0000
0110
0000
0000
0101
0000
1001
0000
0000
0000
,
1100
0000
0000
0000
0000
0000
0011
0000
0000
0000
0000
0000
1000
0100
0010
0001
0000
0000
0000
0000
0000
0001
0000
0000
,
0001
0000
0101
0000
1100
0000
0000
0101
0000
0000
1010
0000
0000
0000
1000
0000
,
1000
0000
1010
0000
0011
0000
0000
1010
0000
0000
1000
0000
0000
0000
0001
0000
,
0010
0000
1000
0000
0001
0000
0100
0000
1000
0000
0001
0000
1000
0010
1000
0010
,
1000
0010
1000
0010
1000
0000
0000
0000
0010
0000
0000
0000
1000
0100
0010
0100
,
1000
0100
0010
0100
1000
0100
0010
0001
0010
0100
0010
0001
0010
0100
1000
0100
,
0010
0100
1000
0100
0010
0100
0010
0001
1000
0100
0010
0001
1000
0001
1000
0001
,
1000
0001
1000
0001
1000
0001
1000
0001
1000
0001
1000
0001
0100
0001
0100
0001
,
0100
0001
0100
0001
0010
0001
0010
0001
0010
0001
0010
0001
0010
0000
0100
1000
,
0001
0000
0100
0000
0001
1000
0010
0000
0010
0000
0000
0000
1000
0000
0010
0001
,
0010
0000
0100
0000
1000
0100
0010
0000
1000
0000
0000
0000
0000
0000
0002
0000
,
2000
0000
0000
3003
;
