#TITLE:Goodbye Seven Seas;
#SUBTITLE:;
#ARTIST:麻枝准×やなぎなぎ;
#TITLETRANSLIT:;
#SUBTITLETRANSLIT:;
#ARTISTTRANSLIT:Maeda Jun x Yanaginagi;
#GENRE:;
#CREDIT:;
#MUSIC:Goodbye Seven Seas.ogg;
#BANNER:;
#BACKGROUND:;
#CDTITLE:;
#SAMPLESTART:39.657;
#SAMPLELENGTH:15.641;
#SELECTABLE:YES;
#OFFSET:-0.233;
#BPMS:0.000=140.015;
#STOPS:;
#BGCHANGES:;
#FGCHANGES:;

//--------------- dance-single - Pax_Vesania ----------------
#NOTES:
     dance-single:
     Pax_Vesania:
     Beginner:
     2:
     0,0,0,0,0:
0000
0000
0000
0000
,
0000
0000
0000
0000
,
0000
0000
0000
0000
,
0000
0000
0000
0000
,
0000
1000
0000
0000
,
0000
0001
0000
0000
,
0000
0100
0000
0000
,
0000
0010
0000
0000
,
0010
0010
0000
0000
,
0000
1000
0000
0000
,
0000
0100
0000
0000
,
0000
0010
0000
0000
,
0001
0001
0000
0000
,
0000
0100
0000
0000
,
0000
0010
0000
0010
,
0010
0000
0000
0000
,
1000
1000
0000
0000
,
0000
0001
0000
0000
,
0000
0010
0000
0010
,
0010
0000
0000
0000
,
0001
0001
0000
0000
,
0000
0100
0000
0000
,
0010
0000
0020
0000
0000
0030
0000
0000
,
1000
0000
1000
0000
,
0001
0002
0000
0000
,
0000
0003
0200
0000
0000
0000
0000
0000
,
0000
0300
0020
0000
0000
0000
0000
0000
,
0000
0030
2000
0000
0000
0000
0000
0000
,
0000
3000
1000
0000
0000
0000
0000
0000
,
1000
1000
0000
0000
,
0010
0010
0000
0000
,
0100
0100
0000
0000
,
0000
0010
0000
0000
,
0010
0010
0000
0000
,
0001
0001
0000
0000
,
0100
0100
0000
0000
,
0000
1000
0000
0000
,
1000
1000
0000
0000
,
0001
0001
0000
0000
,
0000
0100
0000
0000
,
0000
0010
0000
0000
,
1001
0000
0000
0000
,
0000
1000
0000
0000
,
0000
0100
0000
0000
,
0000
0010
0000
0000
,
0001
0001
0000
0000
,
0000
0100
0000
0000
,
0000
1000
0000
0000
,
0000
1001
0000
1001
,
0000
1001
0000
0000
,
0001
0000
0000
0001
,
0000
0001
0000
0000
,
0000
0000
0000
0000
,
0000
0100
0000
0000
,
0000
0010
0000
0010
,
0000
1000
0000
1000
,
0000
2000
0000
0000
,
0000
0000
0000
0000
0000
0000
0000
3000
,
0000
0000
0000
0000
,
0000
0100
0000
0000
,
0000
0010
0000
0000
,
0000
0100
0000
0000
,
0000
0001
0000
0000
,
0000
0001
0000
0000
,
0000
0100
0000
0000
,
0000
1000
0000
0000
,
0000
0000
0001
0000
0000
0001
0000
0000
,
0002
0000
0000
0000
,
0000
0000
0000
0000
,
0000
0000
0003
0000
;

//--------------- dance-single - Pax_Vesania ----------------
#NOTES:
     dance-single:
     Pax_Vesania:
     Easy:
     4:
     0,0,0,0,0:
0000
0000
0000
0000
,
0000
0000
0000
0000
,
0000
0000
0000
0000
,
0000
0000
0000
0000
,
0000
0010
0000
0000
,
0100
0001
0000
0000
,
1000
0010
0000
0000
,
0100
0000
0001
0000
0000
1000
0000
0000
,
1000
0010
0000
0000
,
0010
0000
0100
0000
,
0001
0000
0001
0010
,
0200
0000
0000
0300
,
1000
1000
0000
0000
,
0001
0000
0100
0000
,
0010
0000
0100
0100
,
0002
0000
0000
0000
,
0003
0001
0001
0000
,
0100
0000
1000
0000
,
0100
0000
0010
0010
,
0200
0000
0000
0000
0000
0300
0000
0000
,
0001
0001
0000
0000
,
0010
0000
0100
0000
,
1000
0000
2000
0000
0000
3000
0000
0000
,
0001
0001
1000
1000
,
0010
0000
0020
0000
0000
0030
0000
0000
,
1000
0000
0010
0000
,
0100
0002
0000
0000
,
0000
0003
0010
0000
0000
0020
0000
0030
,
0000
0000
0200
0000
0000
0000
0000
0300
,
1000
0000
0001
0000
,
0010
0010
0100
0100
,
0000
2000
0000
0000
0000
3000
0000
0001
,
0000
0001
0000
0000
0100
0000
0000
0000
,
0010
0100
0001
0000
,
1000
0100
0100
0000
,
1000
0000
0010
0000
0000
0020
0000
0030
,
0000
0100
0100
0000
,
0001
0010
0100
0000
,
1000
1000
0001
0001
,
0000
0020
0000
0000
0000
0000
0000
0000
,
0000
0030
0000
0000
,
0000
0000
0001
0000
0000
1000
0000
0000
,
0000
0000
0010
0000
0000
0100
0000
0000
,
0001
0000
0001
0000
0000
0010
0000
0100
,
0000
2000
0000
0000
0000
0000
0000
3000
,
0000
0000
1000
0000
0000
0010
0000
0000
,
0000
0000
0100
0000
0000
0200
0000
0000
,
0300
0001
0000
0001
0000
0010
0000
0000
,
0001
1001
0000
1000
,
0000
1001
0000
0000
,
0010
0000
1000
0000
,
0001
0000
0010
0000
0000
0100
0000
1000
,
0000
2000
0000
0000
0000
0000
3000
0000
,
0000
1000
0000
0000
,
0010
0010
0100
0100
,
0100
0000
0002
0000
0000
0003
0020
0000
,
0000
0030
0200
0000
0000
0000
0000
0000
,
0000
0000
0000
0000
,
0300
0010
0001
0000
,
1000
0000
0010
0000
0000
0010
0000
0000
,
0000
0000
0100
0000
0000
0100
0000
0000
,
0001
0000
0000
0000
0000
0001
0000
0000
,
0010
0000
0000
0000
0000
0001
0000
0000
,
0010
0000
0010
0000
0000
0100
0000
0000
,
0100
0000
0010
0000
0000
0100
0000
0000
,
1000
0000
0001
0000
0000
0100
0000
0000
,
0010
0000
0100
0000
0000
0001
0000
0000
,
0020
0000
0000
0000
,
0000
0000
0000
0000
,
0000
0000
0030
0000
;

//--------------- dance-single - Pax_Vesania ----------------
#NOTES:
     dance-single:
     Pax_Vesania:
     Medium:
     7:
     0,0,0,0,0:
0000
0000
0000
0000
,
0000
0000
0000
0000
,
0000
0000
0000
0000
,
0000
0000
0000
0000
,
0000
0000
1000
0000
0001
0000
0000
1000
,
0001
0000
0100
0000
0010
0000
0000
0100
,
0010
0000
1000
0000
0010
0000
0000
0100
,
0001
0000
0010
0000
0100
0000
0000
0010
,
0001
1000
0001
1000
,
0010
0001
0010
1000
,
0001
0010
0100
1000
,
2000
0000
0000
0000
0000
0000
3000
0001
,
0100
0001
0010
0001
,
1000
0100
1000
0100
,
0001
0100
1000
0001
,
0020
0000
0000
0000
0000
0000
0000
0001
,
0031
0100
0010
0100
,
0001
1000
0010
0100
,
0001
0010
1000
0010
,
0020
0000
0000
0000
0000
0030
0000
0100
,
1000
0001
1000
0010
,
0100
0001
1000
0100
,
0010
0000
0220
0000
0000
0330
0000
0000
,
2000
0000
0000
3000
0020
0000
0000
0030
2000
0000
0000
3000
0002
0000
0000
0003
,
0020
0000
0000
0030
0200
0000
0000
0000
0000
0000
0300
0000
0000
0000
0010
0000
,
0001
0000
0010
0000
0200
0000
0300
0100
,
1000
0000
0002
0000
0000
0000
0003
0100
,
0010
0000
0020
0000
0030
0200
0000
0300
,
0000
0000
0001
0000
0001
1000
0000
1000
,
0010
0000
0100
0000
0100
0001
0000
0001
,
0010
0000
0000
0000
0002
0000
0000
0003
0020
0000
0000
0030
0200
0000
0000
0300
,
1000
0020
0000
0000
0000
0030
0000
0100
,
0000
0100
0001
0000
1000
0100
0000
0100
,
1000
0000
0001
0000
0010
0001
0000
0001
,
0010
0000
0200
0000
0000
0000
0300
1000
,
0001
0000
0020
0000
0030
0200
0000
0300
,
0000
0010
0100
1000
,
0001
0010
0100
1000
,
0001
0000
0000
0000
0002
0000
0000
0003
0200
0000
0000
0300
0020
0000
0000
0030
,
1000
0200
0000
0000
0000
0000
0000
0000
,
0000
0300
0000
0000
,
0001
0000
0011
0000
0001
0100
0000
0000
,
0010
0000
1010
0000
1000
0200
0000
0000
,
0300
1000
0010
0100
,
0001
0020
0000
0000
0000
0000
0000
0030
,
0100
0000
1100
0000
1000
0100
0000
0000
,
1000
0000
1001
0000
0001
0020
0000
0000
,
0030
0001
0100
0010
,
0100
0101
0100
0110
,
0010
0000
1010
0000
1000
0010
0000
0000
,
0100
0001
0010
0001
,
1000
0000
0010
0100
0000
0001
0000
0010
,
0000
0200
0000
0000
1000
0000
0300
0000
,
1000
0100
0001
0100
,
0010
0001
0100
0010
,
1000
0000
0000
0000
0200
0000
0000
0000
0000
0000
0000
0300
0020
0000
0000
0000
,
0000
0000
0000
0030
0002
0000
0000
0000
0010
0000
0000
0000
0000
0000
0000
0000
,
0010
0000
0010
0000
,
0013
0100
0000
0000
0100
1000
0000
0000
,
0001
0001
0010
0000
0000
0100
0000
0000
,
0100
0000
0001
0000
0000
0100
0000
0000
,
1000
0000
0010
0000
0000
0001
0000
0000
,
0010
0000
1000
0000
0000
0100
0000
0000
,
1000
0000
1000
0000
0000
0010
0000
0000
,
0010
0000
0001
0000
0000
0010
0000
0000
,
1000
0000
0100
0000
0000
0010
0000
0000
,
0100
0000
1000
0000
0000
0001
0000
0000
,
0020
0000
0000
0000
,
0000
0000
0000
0000
,
0000
0000
0030
0000
;

//--------------- dance-single - Pax_Vesania ----------------
#NOTES:
     dance-single:
     Pax_Vesania:
     Hard:
     11:
     0,0,0,0,0:
0000
0000
0000
0000
,
0000
0000
0000
0000
,
0000
0000
0000
0000
,
0000
0000
0000
0000
,
0000
0000
0010
0000
0000
0100
0000
0000
,
0100
0000
0001
0000
0000
0010
0000
0000
,
0100
0000
1000
0000
0000
0010
0000
0000
,
0100
0000
0010
0000
0000
1000
0000
0000
,
0001
0000
1000
0100
0010
0100
1000
0001
,
0010
0001
0100
0000
0010
1000
0000
0100
,
0000
0000
0010
0000
0002
0000
0000
0003
0020
0000
0000
0030
2000
0000
0000
3000
,
0020
0000
0000
0030
0001
0000
1000
0000
0100
0000
1000
0000
0000
0000
0100
0000
,
0010
0001
0011
0000
0100
0010
1000
0001
,
0100
1000
0100
0000
0100
0001
0000
0010
,
0000
0000
0100
0000
2000
0000
0000
3000
0020
0000
0000
0030
0200
0000
0000
0300
,
0001
0100
1000
0100
0001
0010
0000
0001
,
1000
0100
0110
0000
0100
1000
0100
0001
,
0100
0010
0100
1000
0001
0100
0000
0010
,
0000
0000
1000
0000
0020
0000
0000
0030
0002
0000
0000
0003
0020
0000
0000
0030
,
1000
0001
0010
0001
1000
0100
0000
0100
,
0010
0001
0101
0000
0010
1000
0010
0001
,
0010
0100
0001
0000
0010
0100
0000
1000
,
0000
0100
1000
0001
0010
0100
0010
0001
,
0200
0000
0000
0300
0020
0000
0000
0030
2000
0000
0000
3000
0002
0000
0000
0003
,
0200
0000
0000
0300
0110
0000
0000
0000
0010
0000
0100
0000
0000
0000
0001
0000
,
1000
0001
0020
0000
0001
0001
0000
0100
,
0130
0000
2000
0000
0010
0010
0000
0100
,
3100
0000
0000
0000
0020
0000
0000
0000
0000
0030
0002
0000
0000
0000
0013
0000
,
0100
1000
0010
0100
0001
0100
0000
0001
,
0010
1000
0010
0001
0100
0010
0000
1000
,
0100
0000
0010
0000
0200
0000
0000
0300
2000
0000
0000
3000
0002
0000
0000
0003
,
0010
0001
1000
0100
0010
0001
0000
0011
,
0010
0110
0100
1000
0001
0010
0000
0001
,
0010
1000
0001
0100
1000
0001
0000
1000
,
0010
0000
0100
0000
0002
0000
0000
0000
0000
0000
0000
0000
0000
0003
0100
0000
,
1000
0000
0000
0000
0200
0000
0000
0000
0000
0300
0020
0000
0000
0000
0130
0000
,
0001
0010
0001
1000
0010
0001
1000
0100
,
0001
0000
0010
0100
1000
0001
0000
0100
,
0010
0000
0100
0000
0002
0000
0000
0003
0200
0000
0000
0300
0020
0000
0000
0030
,
1000
0100
0010
0001
0100
0010
0100
0001
,
0010
0100
1000
0001
1000
0100
0010
0001
,
0001
0100
1000
0000
0100
0001
0000
0001
,
0010
0001
1000
0100
0010
0100
0000
0100
,
1000
0001
0100
0010
0000
0010
0000
0100
,
0001
0002
0000
0000
0010
0010
0000
0100
,
0103
0001
0010
1000
0010
0001
0000
0100
,
0010
0100
0001
0000
0100
1000
0000
0100
,
0010
0001
0010
0100
0000
0100
0000
0001
,
0010
0000
0202
0000
0000
0303
2020
0000
,
0000
0000
3030
0000
0220
0000
0000
0330
0100
0000
0101
0000
0000
0000
0000
0000
,
1000
0100
0010
0000
0100
0000
0001
0000
,
0100
0000
1000
0001
0010
0100
0000
0020
,
0000
0030
0002
0000
0000
0000
1003
0000
0001
0000
0010
0000
0000
0000
0001
0000
,
1000
0100
1000
0000
0001
0010
0000
0010
,
0001
0000
0100
0000
0010
0000
0000
0000
2000
0000
0000
3000
0200
0000
0000
0300
,
2000
0000
0000
3000
0200
0000
0000
0000
0000
0000
0000
0300
0020
0000
0000
0000
,
0000
0000
0000
0030
0001
0000
0100
0000
1000
0000
0100
0000
0000
0000
0001
0000
,
0010
1000
0010
0001
1000
0100
1000
0010
,
0001
0010
0100
1000
0100
0001
0100
0010
,
0001
0010
1000
0000
0000
0010
0000
0000
,
0010
0000
0001
0000
0000
0010
0000
0000
,
1000
0000
0010
0000
0000
1000
0000
0000
,
0010
0000
0100
0000
0000
0001
0000
0000
,
0010
0000
0010
0000
0000
0100
0000
0000
,
0100
0000
0001
0000
0000
0100
0000
0000
,
1000
0000
0100
0000
0000
0010
0000
0000
,
0100
0000
0100
0000
0000
0010
0000
0000
,
0002
0000
0000
0000
,
0000
0000
0000
0000
,
0000
0000
0003
0000
;
