#TITLE:Gimmme!;
#SUBTITLE:;
#ARTIST:ORESAMA;
#TITLETRANSLIT:;
#SUBTITLETRANSLIT:;
#ARTISTTRANSLIT:;
#GENRE:;
#CREDIT:;
#MUSIC:Gimmme!.ogg;
#BANNER:;
#BACKGROUND:;
#CDTITLE:;
#SAMPLESTART:48.962;
#SAMPLELENGTH:14.435;
#SELECTABLE:YES;
#OFFSET:-0.245;
#BPMS:0.000=133.012;
#STOPS:;
#BGCHANGES:;
#FGCHANGES:;

//--------------- dance-single - Pax_Vesania ----------------
#NOTES:
     dance-single:
     Pax_Vesania:
     Beginner:
     4:
     0,0,0,0,0:
0000
0000
0000
0000
,
0000
0000
0000
0000
,
0001
0000
0000
0001
0000
0000
1001
0000
,
1000
0000
0001
0000
,
0010
0000
0100
0000
,
1000
0000
0010
0010
,
0000
0000
0002
0000
0000
0000
0000
0003
0002
0000
0000
0003
0010
0000
0000
0000
,
0010
0000
0100
0000
,
0010
0000
1000
0000
,
0100
0100
0100
0000
,
0001
0000
0000
0000
0000
0000
0000
0000
0010
0000
0000
0000
0020
0000
0000
0030
,
0100
0000
0100
0000
,
1000
0000
0010
0010
,
0010
0000
1000
0000
,
0010
0000
0000
0000
0002
0003
0001
0000
,
0001
0000
0100
0000
,
0010
0000
1000
1000
,
1000
0000
0000
0000
0100
0000
0000
0010
,
0000
0000
0000
0000
0020
0000
0000
0030
,
0002
0000
0000
0000
0000
0000
0000
0003
0000
0000
0000
0000
0000
0000
0200
0000
,
0000
0000
0000
0000
0000
0000
0000
0300
0000
0000
0000
0000
0000
0000
0020
0000
,
0000
0000
0000
0000
0000
0000
0000
0030
0000
0000
0000
0000
0000
0000
0000
0000
,
2000
0000
0000
0000
0000
0000
0000
3000
1000
0000
0000
0000
0000
0000
0200
0000
,
0000
0000
0000
0000
0000
0000
0000
0300
0000
0000
0000
0000
0000
0000
0020
0000
,
0000
0000
0000
0000
0000
0000
0000
0030
0000
0000
0000
0000
0000
0000
0002
0000
,
0000
0000
0000
0000
0000
0000
0000
0000
0000
0000
0000
0000
0000
0000
0000
0003
,
0001
0000
0000
1000
0000
0000
0001
0000
,
0001
0000
0100
0000
,
1000
0000
0100
0000
,
0020
0000
0030
0000
0020
0000
0000
0030
0000
0000
0000
0000
0100
0000
0000
0000
,
0000
0000
0001
0000
0000
0000
2002
3003
,
1000
0000
0001
0001
,
0000
0010
0000
1000
,
1000
0000
0000
0010
0000
0000
0000
0000
,
0100
0000
0000
0100
0000
0000
1000
0000
,
0001
0001
0100
0000
,
0010
0010
1000
0000
,
0200
0000
0300
0000
0200
0000
0000
0300
0000
0000
0000
0000
0010
0000
0000
0000
,
0010
0000
0000
0000
0000
0000
0000
0000
0001
0000
0000
0000
2002
0000
0000
3003
,
1000
1000
0000
0010
,
0010
0000
0000
0000
0001
0000
0002
0003
,
0001
0000
0000
1000
0000
0000
1000
0000
,
0200
0000
0000
0000
0000
0000
0000
0300
0020
0000
0000
0030
0002
0000
0000
0003
,
0001
0000
0000
1000
0000
0000
0000
2002
,
0000
0000
0000
3003
,
1000
0000
0000
1000
0000
0000
1000
0000
0000
0000
0002
0000
0000
0000
0000
0003
,
1000
0000
0000
1000
0000
0000
1000
0000
0000
0000
0001
0000
0000
0000
2002
0000
,
0000
0000
0000
0000
,
3003
0000
0000
0000
;

//--------------- dance-single - Pax_Vesania ----------------
#NOTES:
     dance-single:
     Pax_Vesania:
     Easy:
     7:
     0,0,0,0,0:
0000
0000
0000
0000
,
0000
0000
0000
0000
,
0101
0000
0000
0110
0000
0000
1001
0000
,
0001
0000
0000
0000
0010
0000
0000
0000
0010
0000
0000
0100
0000
0000
0100
0000
,
0000
0000
0000
0000
,
1000
0000
0000
0000
0001
0000
0000
0000
0100
0000
0000
0010
0000
0000
1000
0000
,
0000
0000
0000
0000
,
0100
0000
0000
0000
0010
0000
0000
0000
0100
0000
0000
0001
0000
0000
1000
0000
,
0000
0000
0000
0000
0000
0000
0000
0001
,
0010
0000
0000
0000
0100
0000
1000
0000
0100
0000
0000
1000
0000
0000
1000
0000
,
0000
0000
0000
0000
0001
0000
0000
0000
1000
0000
0000
0000
2002
0000
0000
3003
,
1000
0010
0100
0001
,
0010
0000
0000
0010
0000
0000
0100
0000
0000
0000
0000
0000
1000
0000
0000
0000
,
1000
1000
0001
0000
0000
0001
1000
1000
,
0100
0000
0000
0010
0000
0000
0001
0000
0000
0000
0000
0000
1001
0000
0000
0000
,
0001
0100
0000
0010
0000
0010
1000
0000
,
0001
0000
0000
0010
0000
0000
0100
0000
0000
0000
0000
0000
0000
0000
1000
0000
,
0000
0010
0010
0000
0100
0100
0000
0001
,
0000
0010
0001
0000
0010
0000
0100
0000
,
2000
0000
0000
0000
0000
0000
0000
3000
0001
0000
0000
0001
0000
0000
0020
0000
,
0000
0000
0000
0000
0000
0000
0000
0030
0100
0000
0000
0100
0000
0000
2000
0000
,
0000
0000
0000
0000
0000
0000
0000
3000
0001
0000
0000
0000
0002
0000
0000
0003
,
2000
0000
0000
0000
0000
0000
0000
3000
1000
0000
0000
0100
0000
0000
0020
0000
,
0000
0000
0000
0000
0000
0000
0000
0030
0001
0000
0000
0010
0000
0000
0200
0000
,
0000
0000
0000
0000
0000
0000
0000
0300
1000
0000
0000
0001
0000
0000
0002
0000
,
0000
0000
0000
0000
0000
0000
0000
0000
0010
0000
0000
0000
0010
0000
0000
0003
,
0010
0000
0000
0100
0000
0000
1001
0000
,
1000
0100
0001
0010
,
1000
0000
0010
0000
0100
0000
0001
0010
,
0000
0000
0002
0000
0000
0000
0000
0000
0000
0003
1000
0000
1000
0000
0000
0000
,
0010
0000
0000
0000
0001
0000
0000
0000
0010
0000
0000
0000
2000
0000
0000
3000
,
0100
0100
0001
0100
,
1000
0000
0010
0000
0100
0100
0000
0001
,
0010
0000
1000
0100
0000
0010
0001
0001
,
0000
0000
0000
0000
0000
1000
0001
1000
,
0001
0100
1000
0100
,
0001
0000
0010
0000
1000
0000
0010
0001
,
0000
0000
0002
0000
0000
0000
0000
0000
0000
0003
0100
0000
0100
0000
0000
0000
,
0010
0000
0000
0000
1000
0000
0000
0000
0001
0000
0000
0000
0200
0000
0000
0300
,
0001
0010
1000
0001
,
0100
0000
1000
0000
0001
0000
1000
0001
,
1000
0000
0100
0010
0000
0001
1000
0001
,
2000
0000
0000
3000
0200
0000
0000
0300
0020
0000
0000
0030
0002
0000
0000
0003
,
0011
0000
0000
1010
0000
0000
0000
0202
,
0000
0000
0000
0303
,
1000
0000
0000
0100
0000
0000
0010
0000
0000
0000
0101
0000
0000
0000
0000
0000
,
1000
0000
0000
0010
0000
0000
0100
0000
0000
0000
0001
0000
0000
0000
0022
0000
,
0000
0000
0000
0000
,
0033
0000
0000
0000
;

//--------------- dance-single - Pax_Vesania ----------------
#NOTES:
     dance-single:
     Pax_Vesania:
     Medium:
     11:
     0,0,0,0,0:
0000
0000
0000
0000
,
0000
0000
0000
0000
,
0001
0100
0100
0010
1000
1000
1001
0000
,
1000
0000
0000
0000
0001
0000
0000
0000
0010
0000
0000
0100
0000
0000
1000
0000
,
0001
0000
0000
0000
0100
0000
0000
0000
0010
0000
0000
0100
0000
0000
0100
0000
,
0010
0000
0000
0000
1000
0000
0000
0000
0100
0000
0000
0001
0000
0000
0100
0000
,
1000
0000
0001
0000
0010
0000
0010
0000
0001
1000
0001
0000
0100
0000
0010
0000
,
0100
0000
0000
0000
0001
0000
0000
0000
0010
0000
0000
1000
0000
0000
0010
0000
,
0001
0000
0000
0000
0100
0000
0000
0000
0010
0000
0000
0100
0000
0000
1000
0000
,
0100
0000
0000
0000
0001
0000
0010
0000
0001
0000
0000
1000
0000
0000
1000
0000
,
0000
0000
0000
0000
0100
0000
0010
0000
0100
0000
0000
0000
0220
0000
0000
0330
,
0100
0010
0001
1000
0100
0010
0100
1000
,
0001
0000
0000
0010
0000
0000
0100
0000
0000
0000
0000
0000
0000
0000
1000
0000
,
0100
1000
0100
0010
0100
0001
0100
1000
,
0001
0000
0000
0100
0000
0000
0010
0000
0100
0000
0000
0000
1001
0000
0001
0000
,
0100
0001
0100
1000
0100
0010
0100
0001
,
1000
0000
0000
0100
0000
0000
0010
0000
0000
0000
0000
0000
0000
0000
0100
0000
,
0100
1000
0001
0010
0001
0100
0000
0010
,
0000
0100
1000
0100
0010
0100
0001
0000
,
0022
0000
0000
0000
0000
0000
0033
0000
0001
0000
0000
0010
0000
0000
0220
0000
,
0000
0000
0000
0000
0000
0000
0330
0000
0010
0000
0000
0001
0000
0000
0202
0000
,
0000
0000
0000
0000
0000
0000
0000
0303
0000
0000
0000
0000
2002
0000
3003
0000
,
2020
0000
0000
0000
0000
0000
3030
0000
1000
0000
0000
0100
0000
0000
0220
0000
,
0000
0000
0000
0000
0000
0000
0330
0000
0010
0000
0000
0001
0000
0000
2200
0000
,
0000
0000
0000
0000
0000
0000
3300
0000
1000
0000
0000
0001
0000
0000
0202
0000
,
0000
0000
0000
0000
0000
0000
0000
0303
,
0100
0010
0010
1000
0001
0001
1001
0000
,
1000
0010
0100
0100
1000
0100
0001
0001
,
0100
0010
0001
0010
1000
0100
0010
0001
,
0010
0002
0000
0000
0000
0003
0000
0001
,
0100
0000
1000
0100
0000
0001
0202
0303
,
0100
0010
0100
0001
1000
0000
0100
0001
,
0100
1000
0010
0001
0010
0100
0000
0000
,
0002
0003
1000
0200
0300
0010
0001
0100
,
0001
0001
1000
0100
0100
0001
0100
0010
,
0001
0100
0010
1000
0001
0010
0100
0001
,
0100
0010
0001
1000
0100
1000
0001
1000
,
0010
0000
0020
0000
0000
0000
0000
0000
0030
0000
1000
0001
1000
0000
0010
0000
,
0100
0001
1000
0100
0010
0001
0002
0013
,
1000
0001
0100
1000
0000
0010
0000
0100
,
0100
1000
0000
0100
0000
0001
0000
0001
,
1000
0100
0010
0100
0000
0010
0001
2000
,
0100
0000
0000
0000
0010
0000
0000
0000
3001
0000
0100
0000
0002
0000
0000
0003
,
1000
0010
0001
0010
0000
0100
0001
0020
,
0000
0000
0000
0030
0000
0001
1000
1000
,
1100
0000
0000
1000
0000
0000
1010
0000
0000
0000
0110
0000
0000
0000
0000
0000
,
1010
0000
0000
0010
0000
0000
0101
0000
0000
0000
0011
0000
0000
0000
2002
0000
,
0000
0000
0000
0000
,
3003
0000
0000
0000
;

//--------------- dance-single - Pax_Vesania ----------------
#NOTES:
     dance-single:
     Pax_Vesania:
     Hard:
     13:
     0,0,0,0,0:
0000
0000
0000
0000
,
2002
0000
0000
0000
0000
0000
0000
3003
,
1000
0010
1000
0000
0001
0000
0100
0001
0100
0000
0010
0000
1010
0000
0000
0000
,
1000
0000
0000
0000
0001
0000
0000
0000
0100
0000
0000
0001
0000
0000
0010
0000
,
0000
0000
0100
1000
0100
1000
0010
0000
0010
0000
0100
0001
0000
0000
1000
0000
,
0001
0000
0000
0000
1000
0000
0000
0000
0001
0000
0000
0100
0000
0000
0010
0000
,
0000
0000
0100
0001
0100
0000
0001
0000
1000
0010
1000
0000
0100
0000
0010
0000
,
0001
0000
0000
0000
0100
0000
0000
0000
1000
0000
0000
0100
0000
0000
0001
0000
,
0100
0000
0010
0100
0010
0100
0001
0000
0001
0000
0010
0100
0000
0000
1000
0000
,
1000
0000
0001
0000
0001
0000
1000
0000
0001
0000
0000
0010
0000
0000
0001
0000
,
0011
0000
0000
0000
0110
0000
0000
0000
1100
0000
0000
0000
2002
0000
0000
3003
,
1000
0010
1000
0010
0100
0001
0010
0100
,
1000
0000
0000
0001
0000
0000
0100
0000
0000
0000
0010
0000
0010
0000
1000
0000
,
0100
0001
0100
1000
0010
0100
0010
0001
,
0010
0000
0000
1000
0000
0000
0010
0000
1000
0001
1000
0000
0100
0000
0100
0000
,
0001
0100
1000
0010
0100
1000
0100
0001
,
0010
0000
0000
0100
0000
0000
1000
0000
0010
1000
0010
0100
0001
0000
0100
0000
,
0010
0010
1000
0001
0100
1000
0000
0100
,
0000
0001
0010
0001
1000
1000
0010
0000
,
0110
0000
0100
0000
0010
0000
0100
0000
0101
0000
0000
1010
0000
0000
0101
0000
,
0000
0000
0001
0000
1000
0000
0001
0000
0100
0000
0000
0011
0000
0000
0110
0000
,
0000
0000
1000
0000
1000
0000
0001
0100
0001
0000
0000
2000
0002
0000
0000
3003
,
1001
0000
0000
0000
0000
0000
0000
0000
0020
0030
2000
3020
2030
3002
2003
3000
,
0010
0000
0100
0000
0001
0000
0010
0000
1000
0000
0000
0011
0000
0000
0101
0000
,
0000
0000
1000
0000
0100
0000
0001
0000
0100
0000
0000
1100
0000
0000
0011
0000
,
0000
0000
1000
0000
0100
0000
0010
0000
0001
0100
0001
0000
1000
0010
1000
0000
,
0001
0010
0001
0000
1000
0000
0100
1000
0100
0000
0010
0000
0011
0000
0000
0000
,
1000
0000
0010
0000
0100
0010
0100
0000
0001
0000
1000
0000
0100
0010
0100
0000
,
0010
0001
1000
0100
0001
0100
0010
0100
,
1000
0100
0010
0000
0001
0100
0001
0100
0000
0000
0001
0000
0010
0100
1000
0000
,
0010
0000
0000
0000
0100
0000
0100
0000
0000
0000
0001
0000
2002
0000
0000
3003
,
1000
0000
0010
0000
0001
0000
1000
0000
0100
0000
0001
0100
0001
0100
0001
0100
,
0001
0000
1000
0000
0100
0000
0100
0000
0001
0000
0100
0010
0100
0000
1000
0000
,
0002
0003
0100
0020
0030
1000
0100
0010
,
0100
1000
0001
0000
0100
0000
0010
0100
0001
1000
0001
1000
0001
0000
1000
0000
,
0100
0000
0010
0000
0001
1000
0100
0000
0010
0000
0100
0000
1000
0001
0010
0000
,
0001
0000
0100
0000
0010
1000
0100
0000
1000
0000
0001
1000
0001
0100
0000
0000
,
0001
1000
0100
0000
0010
0100
1000
0001
0000
0000
1000
0010
1000
0000
0001
0000
,
0010
0000
1000
0000
0001
0000
0100
0000
1000
0000
0100
0000
0220
0330
0010
0000
,
0001
0100
0010
1000
0000
0001
0000
0010
,
1000
0010
0000
0100
0000
1000
0000
1000
,
0010
0001
1000
0100
0000
0001
0010
0001
,
1000
0010
1000
0001
1000
0000
0001
0100
0001
1000
0001
0000
0002
0000
0000
0003
,
1001
1000
0100
0110
0000
0010
0001
0022
,
0000
0000
0000
0000
0033
0001
0010
0100
,
1100
0000
0000
1010
0000
0000
0110
0000
0000
0000
0101
0000
0000
0000
0000
0000
,
1100
0000
0000
0110
0000
0000
0101
0000
0000
0000
0011
0000
0000
0000
2002
0000
,
0000
0000
0000
0000
0000
0003
0020
0030
0200
0000
0000
0000
0000
0000
0000
0000
,
3300
0000
0000
0000
;

//--------------- dance-single - Pax_Vesania ----------------
#NOTES:
     dance-single:
     Pax_Vesania:
     Challenge:
     16:
     0,0,0,0,0:
0001
0100
0010
1000
0001
0010
0100
1000
0001
0010
1000
0001
,
0100
0000
0000
0000
1000
0000
0000
0000
0001
0000
0000
0000
1000
0000
0001
0000
1000
0000
0001
0000
1000
0000
0001
0000
1000
0000
0001
0000
1000
0000
0001
0000
1000
0000
0001
0000
2000
0000
0000
0000
0000
0000
0000
0000
0000
3000
0000
0000
,
0001
0010
0011
0000
0101
0000
0100
0001
0101
0000
1010
0000
0101
0000
0000
0000
,
0001
0000
1000
0100
0001
0000
0100
0000
1000
0010
0001
0010
0100
0000
0001
0000
,
1000
0000
0000
0000
0000
0000
0010
0000
0000
0100
0000
0000
0001
0000
0000
0100
0000
0000
0001
0000
0000
0000
0000
0000
0010
0000
0000
0000
0000
0000
0010
0000
0000
0001
0000
0000
0000
0000
0000
0000
0000
0000
0001
0000
0010
0000
0001
0000
,
0010
0000
0100
1000
0001
0000
1000
0000
0001
0100
1000
0100
0001
0000
0100
0000
,
0010
0000
1000
0100
0010
0001
0010
0100
0001
0100
0010
0000
0011
0000
1001
0000
,
1000
0000
0001
1000
0100
0000
0010
0000
0001
0010
1000
0010
0001
0000
1000
0000
,
0100
0000
0000
0000
0000
0000
1000
0000
0000
0001
0000
0000
1000
0000
0000
0100
0000
0000
1000
0000
0000
0000
0000
0000
0001
0000
0000
0000
0000
0000
0001
0000
0000
0100
0000
0000
0000
0000
0000
0000
0000
0000
0010
0000
0100
0000
0010
0000
,
0100
0000
0001
0100
0010
0000
1000
0000
1000
0010
0001
1000
0100
0000
0001
0000
,
0001
0000
0100
1000
0100
0000
0010
0001
0010
0000
1000
0010
2020
0000
0000
3030
,
0010
0000
0010
0100
0001
0000
1000
0000
0001
0100
0001
1000
0001
0000
1000
0010
,
0100
0000
0001
0100
0010
0000
1000
0001
1000
0100
1000
0001
1000
0000
0001
0010
,
0100
0000
1000
0100
0010
0000
0001
0000
0100
0010
0100
0001
0100
0000
0001
1000
,
0100
0000
1000
0001
0010
0000
0001
0100
0010
1000
0001
0000
1001
0000
0001
0100
,
0001
0000
0100
1000
0100
0000
0010
0000
1000
0100
0001
0100
1000
0000
0010
0001
,
0010
0000
0100
1000
0100
0000
0001
1000
0010
0001
0010
0100
0001
0000
0100
0010
,
0001
0000
0010
0100
1000
0000
0100
0000
0001
0100
1000
0100
0001
0000
0100
0010
,
0100
0000
0101
0000
0110
0000
1010
0000
1100
0000
1000
0001
1000
0001
0010
0100
,
2000
0000
0000
0000
0000
0000
0000
0000
0000
3000
0000
0000
0010
0000
0100
0000
0010
0000
0100
0000
0010
0000
0100
0000
0010
0000
0100
0000
0010
0000
0100
0000
0010
0000
0100
0000
0010
0000
0000
0000
0000
0000
0101
0000
0000
0000
0000
0000
,
0000
0000
0100
0000
0001
0000
0010
0000
0011
0000
0000
1100
0000
0000
1001
0000
,
0000
0000
0001
0000
1000
0000
0010
0100
0001
0000
0000
0001
2002
0000
0000
3003
,
1000
0100
0010
0000
0001
1000
0010
0000
1010
0000
0000
0101
0000
0000
0010
0001
,
0010
0001
1000
0100
1000
0100
0010
0001
0011
0000
0000
0101
0000
0000
0001
0100
,
0001
0100
0001
0010
0100
1000
0001
1000
1001
0000
0000
0110
0000
0000
1001
0000
,
0000
0000
1000
0000
0100
0000
0010
0000
0001
0010
0001
0010
0100
1000
0001
0100
,
0010
1000
1010
0000
1100
0000
0100
0010
0110
0000
0011
0000
1001
0000
0000
0000
,
1000
0010
1000
0010
1000
0000
0001
0100
0001
0100
0001
0000
0100
0010
0100
0010
0100
0000
0001
1000
0001
1000
0001
0000
,
1000
0100
0010
0001
0010
0100
2000
0000
0000
0000
0000
0000
0000
0000
0000
0000
0000
0000
3000
0000
0000
0000
0000
0000
,
1000
0010
0100
0001
0010
0001
0100
0001
1000
0100
1000
0001
0010
0000
0001
1000
,
0100
0000
0010
0100
1000
0000
0001
0100
0001
1000
0001
0000
0101
0000
1010
0000
,
1000
0001
0010
0001
1000
0100
1000
0010
0100
0010
1000
0010
0001
1000
0100
0001
,
0100
0000
0001
0100
0001
1000
0100
1000
0001
0100
0001
1000
0001
1000
0100
0010
,
0001
0000
0100
0010
1000
0001
0100
0000
0010
1000
0100
0010
0100
1000
0001
0000
,
0100
0001
0101
0000
1010
0000
0010
0100
0001
1000
0100
1000
0010
1000
0001
0000
,
1000
0000
0000
1000
0000
0000
0001
0010
0001
0010
0001
0000
1000
0100
1000
0100
1000
0000
0001
0100
0001
0100
0001
0000
,
0100
0000
0010
0000
0100
0000
0010
0000
0100
0000
0000
0000
0001
0000
1000
0000
0001
0000
1000
0000
0001
0000
1000
0000
0001
0000
1000
0000
0001
0000
1000
0000
0001
0000
1000
0000
0002
0000
0000
0000
0000
0000
0000
0000
0000
0003
0000
0000
,
0100
0010
0001
0000
0010
0100
1000
0100
0001
0100
0001
0010
1000
0010
0100
1000
,
0001
0000
0001
1000
0100
0000
0100
0010
0100
1000
0001
0000
1001
0000
0110
0000
,
0010
0000
0100
0001
0100
1000
0100
0000
0001
0010
0100
0000
1000
0100
0010
0001
,
0100
0001
1000
0001
0100
0001
0100
0010
1000
0001
0100
0001
0010
0000
0101
0000
,
1010
0000
1000
0000
0010
0000
0110
0000
0100
0001
0100
0000
0110
0000
1001
0000
,
1000
0100
0010
0001
0100
0010
1000
0100
0010
0100
0010
0001
0010
0000
0001
0000
,
1001
1000
0100
0110
0000
0100
0010
0022
,
0000
0000
0000
0000
0000
0000
0000
0000
0000
0000
0000
0000
0000
0000
0000
0033
,
1001
0000
0000
1100
0000
0000
0110
0000
0000
0000
0011
0000
0001
0000
0000
0000
,
1010
0000
0000
0011
0000
0000
1100
0000
0000
0000
0101
0000
0001
0000
0022
0000
,
0000
0000
0000
0033
0000
0000
0001
0000
0100
0000
1000
0000
0100
0000
0001
0000
0010
0000
1000
0000
0010
0000
0001
0000
,
1000
0001
1000
0001
1000
0001
1000
0001
1000
0001
1000
0001
1000
0000
0000
0000
0000
0000
0000
0000
0000
0000
0000
0000
;

//--------------- dance-single - Pax_Vesania ----------------
#NOTES:
     dance-single:
     Pax_Vesania:
     Edit:
     18:
     0,0,0,0,0:
0001
0010
0001
0010
0100
1000
0001
0100
0001
0100
0010
1000
0010
1000
0001
0010
0100
1000
0100
0010
0001
1000
0001
0010
,
0100
1000
0001
1000
0001
1000
0001
1000
0001
1000
0001
1000
0001
1000
0001
1000
0001
1000
0001
1000
0001
1000
0001
1000
,
0001
0000
0011
0000
0101
0000
0100
0001
0101
0000
1010
0000
0101
0000
0000
0000
,
0001
0000
1000
0100
0001
0000
0100
0000
1000
0010
0001
0010
0100
0000
0001
0000
,
1000
0000
0000
0000
0000
0000
0010
0000
0000
0100
0000
0000
0001
0000
0000
0100
0000
0000
0001
0000
0000
0000
0000
0000
0010
0000
0000
0000
0000
0000
0010
0000
0000
0001
0000
0000
0000
0000
0000
0000
0000
0000
0001
0000
0010
0000
0001
0000
,
0010
0000
0100
1000
0001
0000
1000
0000
0001
0100
1000
0100
0001
0000
0100
0000
,
0010
0000
1000
0100
0010
0001
0010
0100
0001
0100
0010
0000
0011
0000
1001
0000
,
1000
0000
0001
1000
0100
0000
0010
0000
0001
0010
1000
0010
0001
0000
1000
0000
,
0100
0000
0000
0000
0000
0000
1000
0000
0000
0001
0000
0000
1000
0000
0000
0100
0000
0000
1000
0000
0000
0000
0000
0000
0001
0000
0000
0000
0000
0000
0001
0000
0000
0100
0000
0000
0000
0000
0000
0000
0000
0000
0010
0000
0100
0000
0010
0000
,
0100
0000
0001
0100
0010
0000
1000
0000
1000
0010
0001
1000
0100
0000
0001
0000
,
0001
0000
0100
1000
0100
0000
0010
0001
0010
0000
1000
0010
2020
0000
0000
3030
,
0010
0000
0010
0100
0001
0000
1000
0000
0001
0100
0001
1000
0001
0000
1000
0010
,
0100
0000
0001
0100
0010
0000
1000
0001
1000
0100
1000
0001
1000
0000
0001
0010
,
0100
0000
1000
0100
0010
0000
0001
0000
0100
0010
0100
0001
0100
0000
0001
1000
,
0100
0000
1000
0001
0010
0000
0001
0100
0010
1000
0001
0000
1001
0000
0001
0100
,
0001
0000
0100
1000
0100
0000
0010
0000
1000
0100
0001
0100
1000
0000
0010
0001
,
0010
0000
0100
1000
0100
0000
0001
1000
0010
0001
0010
0100
0001
0000
0100
0010
,
0001
0000
0010
0100
1000
0000
0100
0000
0001
0100
1000
0100
0001
0000
0100
0010
,
0100
0000
0101
0000
0110
0000
1010
0000
1100
0000
1000
0001
1000
0001
0010
0100
,
2000
0000
0000
0000
0000
0000
0000
0000
0000
3000
0000
0000
0001
0000
0010
0000
0100
0000
1000
0000
0100
0000
0010
0000
0001
0000
0010
0000
0001
0000
0100
0000
0001
0000
0100
0000
0001
0000
0100
0000
0010
0000
0100
0000
0010
0000
1000
0000
,
0010
1000
0010
1000
0010
0100
0001
0100
0010
1000
0001
0010
0100
0010
0100
1000
0100
0010
0100
0010
0001
1000
0010
1000
,
0001
0000
0100
0000
0001
0000
1000
0000
0100
0000
1000
0000
0001
0000
0100
0000
0010
0000
1000
0000
0001
0000
0100
0000
0010
0000
0000
0000
0000
0000
0000
0000
0000
1000
0000
0000
2002
0000
0000
0000
0000
0000
0000
0000
0000
3003
0000
0000
,
1000
0100
0010
0001
0010
0001
0010
0100
1000
0001
0100
0001
1000
0100
1000
0001
,
0010
0100
1000
0100
1000
0100
0010
0001
0100
1000
0100
0001
0010
0100
0001
0100
,
0010
0100
1000
0100
0001
0100
0010
0001
1000
0010
0001
1000
0100
0001
0010
1000
,
0010
0000
0100
0000
0100
0000
0010
0000
0001
0010
0001
0010
0100
1000
0001
0100
,
0010
1000
1010
0000
1100
0000
0100
0010
0110
0000
0011
0000
1001
0000
0000
0000
,
1000
0010
1000
0010
1000
0001
1000
0001
1000
0010
1000
0010
1000
0001
0100
0001
0100
0001
0010
0001
0010
0100
1000
0100
,
1000
0010
0100
0001
0010
0001
0100
0010
1000
0001
0100
0010
1000
0001
0010
0100
0010
0100
1000
0001
0010
0100
1000
0001
,
0100
0000
0100
0001
0010
0001
0100
0001
1000
0100
1000
0001
0010
0000
0001
1000
,
0100
0000
0010
0100
1000
0000
0001
0100
0001
1000
0001
0000
0101
0000
1010
0000
,
1000
0001
0010
0001
1000
0100
1000
0010
0100
0010
1000
0010
0001
1000
0100
0001
,
0100
0000
0001
0100
0001
1000
0100
1000
0001
0100
0001
1000
0001
1000
0100
0010
,
0001
0000
0100
0010
1000
0001
0100
0000
0010
1000
0100
0010
0100
1000
0001
0000
,
0100
0001
0101
0000
1010
0000
0010
0100
0001
1000
0100
1000
0010
1000
0001
0000
,
0100
0010
0100
0010
1000
0001
1000
0001
1000
0100
1000
0100
0010
0001
0010
0001
0010
0100
1000
0001
0010
0100
1000
0001
,
1000
0100
0010
0001
1000
0001
1000
0001
1000
0010
1000
0010
1000
0100
1000
0001
0010
0001
1000
0100
0010
0001
0010
0100
,
1000
0000
0010
0000
0010
0100
1000
0100
0001
0100
0001
0010
1000
0010
0100
1000
,
0001
0000
0001
1000
0100
0000
0100
0010
0100
1000
0001
0000
1001
0000
0110
0000
,
0010
0000
0100
0001
0100
1000
0100
0000
0001
0010
0100
0000
1000
0100
0010
0001
,
0100
0001
1000
0001
0100
0001
0100
0010
1000
0001
0100
0001
0010
0000
0101
0000
,
1010
0000
1000
0000
0010
0000
0110
0000
0100
0001
0100
0000
0110
0000
1001
0000
,
1000
0100
0010
0001
0100
0010
1000
0100
0010
0100
0010
0001
0010
0000
0001
0000
,
1001
1000
0100
0110
0000
0100
0010
0022
,
0000
0000
0000
0000
0000
0000
0000
0000
0000
0000
0000
0000
0000
0000
0000
0033
,
1001
0000
0000
1100
0000
0000
0110
0000
0000
0000
0011
0000
0001
0000
0000
0000
,
1010
0000
0000
0011
0000
0000
1100
0000
0000
0000
0101
0000
0001
0000
0011
0000
,
0001
0100
0001
1000
0100
1000
0010
0100
0001
0010
0001
1000
0010
1000
0001
0010
0100
1000
0100
0010
0001
0010
0100
1000
,
0001
0100
0010
1000
0001
0010
0100
1000
0010
0100
0001
0010
0100
0010
0100
1000
0100
1000
0100
0000
0000
0000
0000
0000
;
