#TITLE:Astral Dogma;
#SUBTITLE:;
#ARTIST:妖精帝國;
#TITLETRANSLIT:;
#SUBTITLETRANSLIT:;
#ARTISTTRANSLIT:Yousei Teikoku;
#GENRE:;
#CREDIT:;
#MUSIC:Astral Dogma.ogg;
#BANNER:;
#BACKGROUND:;
#CDTITLE:;
#SAMPLESTART:65.716;
#SAMPLELENGTH:20.000;
#SELECTABLE:YES;
#OFFSET:-0.050;
#BPMS:0.000=180.000;
#STOPS:;
#BGCHANGES:;
#FGCHANGES:;

//--------------- dance-single - Pax_Vesania ----------------
#NOTES:
     dance-single:
     Pax_Vesania:
     Beginner:
     5:
     0,0,0,0,0:
0000
0000
0000
0000
,
0000
0000
0000
0000
,
0000
0000
0000
0000
,
0000
0000
0000
0000
,
0000
0000
0000
0000
,
0000
0000
0000
0000
,
0000
0000
0000
0000
,
0000
0000
0000
0000
,
0000
0000
0000
0000
,
0000
0000
0000
0000
,
0000
0000
0000
0000
,
0000
0000
0000
0000
,
0000
1001
0000
0000
,
0000
0001
0000
0001
,
0000
1000
0000
0000
,
0000
0000
0020
0000
0000
0030
0200
0000
,
0000
0300
0110
0000
0000
0000
0000
0000
,
0000
0010
0000
0010
,
0000
0100
0000
0000
,
0000
0000
0020
0000
0000
0030
2000
0000
,
0000
3000
1000
0000
0000
0000
0001
0000
,
0000
0000
0020
0000
0000
0030
0200
0000
,
0000
0300
1000
0000
0000
0000
0100
0000
,
0000
0000
0020
0000
0000
0030
0002
0000
,
0000
0003
0001
0000
0000
0000
0100
0000
,
0000
0000
0020
0000
0000
0030
2000
0000
,
0000
3000
0100
0000
0000
0000
1000
0000
,
0000
0000
0002
0000
0000
0003
0002
0000
,
0000
0003
0000
0000
0000
0000
0000
0000
,
0000
0001
0000
0100
,
0100
0000
0000
0010
,
0010
0000
0000
1000
,
1000
0000
0000
0000
,
0000
0000
0000
0001
,
0001
0000
0000
0010
,
0010
0000
0000
0100
,
0100
0000
0000
0000
,
0000
0000
1000
0000
0000
0010
0000
0000
,
1000
0000
0000
0001
0000
0000
0000
0001
,
0000
0000
0001
0000
0000
0100
0000
0000
,
0001
0000
0000
1000
0000
0000
0000
0020
,
0000
0000
0030
1000
0000
0000
1000
0000
,
1000
0000
0000
0001
0000
0000
0001
0000
,
0001
0000
0000
0100
0000
0000
0100
0000
,
0100
0000
0000
0000
,
0000
0000
0000
0001
0000
0000
0010
0000
,
0010
0000
0000
0100
0000
0000
1000
0000
,
1000
0000
0000
0010
0000
0000
0100
0000
,
0001
0000
0000
0000
,
0000
0001
0000
0100
,
0000
0001
0000
1000
,
1000
0010
0000
1000
,
0000
0001
0000
1000
,
1000
0100
0000
0010
,
0000
0100
0000
1000
,
1000
0001
0000
0010
,
0000
0100
0000
1000
,
1000
0010
0000
0100
,
0000
0001
0000
0100
,
0010
1000
0000
0100
,
0000
0001
0000
0100
,
1000
2000
0000
3000
,
0001
0000
0000
0000
0002
0000
0000
0000
0000
0000
0000
0003
0020
0000
0000
0000
,
0000
0030
0200
0000
0000
0000
0000
0000
0000
0000
0000
0000
0000
0000
0000
0000
,
0000
0300
0000
0000
0000
0000
0000
0000
0000
0000
0000
0000
0000
0000
0000
0000
,
0000
0000
0020
0000
0000
0030
0002
0000
,
0000
0003
0200
0000
0000
0300
0020
0000
,
0000
0030
2000
0000
0000
3000
0200
0000
,
0000
0300
2000
0000
0000
3000
0002
0000
,
0000
0003
0020
0000
0000
0030
0200
0000
,
0000
0300
2000
0000
0000
3000
0020
0000
,
0000
0030
0100
0000
0100
0000
0002
0000
,
0000
0003
0020
0000
0000
0030
0100
0000
,
0000
0000
1000
0000
0000
1000
0000
0000
,
0001
0000
0000
0001
0000
0000
0100
0000
,
0010
0000
0000
0000
,
0000
0000
0000
0000
,
0000
0000
0100
0000
0000
1000
0000
0000
,
0001
0000
0000
0010
0000
0000
0100
0000
,
1000
0000
0000
0000
,
0000
0000
0000
0001
,
0100
0000
0020
0000
0030
2000
0000
3000
,
0020
0000
0030
0200
0000
0300
0002
0003
,
0002
0003
0200
0000
0300
0020
0000
0030
,
2000
0000
3000
0002
0000
0003
0000
0000
,
0000
0000
0001
0000
0000
1000
0000
0000
,
0100
0000
0000
0010
0000
0000
0001
0000
,
0001
0000
1000
0000
0000
0010
0000
0000
,
0100
0000
0000
0001
0000
0000
0001
0000
,
1000
0000
0010
0000
0000
0010
0100
0000
,
0000
0100
0000
0000
0000
0000
0000
0000
;

//--------------- dance-single - Pax_Vesania ----------------
#NOTES:
     dance-single:
     Pax_Vesania:
     Easy:
     9:
     0,0,0,0,0:
0000
0000
0000
0000
,
0000
0000
0000
0000
,
0000
0000
0000
0000
,
0000
0000
0000
0000
,
0000
0000
0000
0000
,
0000
0000
0000
0000
,
0000
0000
0000
0000
,
0000
0000
0000
0000
,
0000
0200
0000
0000
,
0000
0000
0000
0300
2000
0000
0000
0000
0000
0000
0000
3000
0020
0000
0000
0000
,
0000
0000
0000
0030
0200
0000
0000
0000
0000
0000
0000
0000
0000
0000
0000
0300
,
0002
0000
0000
0003
0020
0000
0000
0000
0000
0000
0000
0000
0000
0000
0000
0000
,
0000
0030
0110
0000
0000
0000
0000
0000
,
0000
0001
0010
0100
,
1000
1010
0000
0000
,
0000
0000
0202
0000
0000
0303
0220
0000
,
0000
0330
1010
0000
0000
0000
0000
0000
,
0000
1000
0001
0010
,
0001
0101
0000
0000
,
0000
0000
2002
0000
0000
3003
0220
0000
,
0330
0000
0100
0000
0000
0001
0100
0001
,
0000
0010
0100
1000
,
0001
0000
1000
0000
0000
0010
0100
0010
,
0000
0000
2000
0000
0000
3000
0002
0000
,
0000
0003
0010
0000
0000
0100
1000
0100
,
0000
0010
0001
0100
,
0010
0000
1000
0000
0000
0001
0010
0100
,
0000
0000
0000
0000
2000
0000
0000
0000
0000
0000
0000
3000
0002
0000
0000
0000
,
0000
0000
0000
0003
0000
0000
0000
0000
0000
0000
0000
0000
0000
0000
0000
0000
,
0000
0000
0000
0001
1000
0000
0010
0000
,
0100
0000
0000
0001
0100
0000
0010
0000
,
1000
0000
0000
0100
1000
0000
0010
0100
,
0010
0000
0000
0100
0000
0000
1010
0000
,
0000
1000
0000
0100
0010
0000
0001
0000
,
0010
0000
0000
0100
1000
0000
0001
0000
,
0100
0000
0000
0010
0100
0000
0001
0100
,
0001
0000
0000
0010
0000
0000
0110
0000
,
0000
0100
0000
0000
0000
1000
0000
0000
,
0010
0000
0000
1000
0000
0000
0000
0001
,
0010
0001
0000
0000
0000
0010
0000
0000
,
0100
0000
0000
1000
0000
0000
0000
0001
,
1000
0001
0000
0100
0001
0000
0100
0000
,
0010
0000
0000
1000
0100
0000
0010
0000
,
0100
0000
0000
1000
0001
0000
0010
0001
,
0100
0000
0000
0001
0000
0000
1010
0000
,
0000
0100
0000
0010
0100
0000
0001
0000
,
1000
0000
0000
0100
1000
0000
0010
0000
,
0100
0000
0000
0001
0010
0000
0100
1000
,
0100
1000
0000
1001
0000
0000
0110
0000
,
0000
1010
0000
0000
1000
0000
0001
0000
,
1000
0000
0010
0000
1000
0000
0100
0100
,
0010
0001
0100
0010
,
0100
0000
0001
0000
0010
0000
0100
0100
,
1000
0000
0200
0000
0000
0000
0000
0300
,
0010
0000
0000
0000
0002
0000
0000
0000
0000
0000
0000
0000
0000
0000
0000
0003
,
0010
0000
0020
0000
0000
0000
0000
0030
,
0100
0000
0200
0000
0000
0000
0000
0000
0000
0000
0000
0000
0000
0000
0000
0300
,
0000
0010
0001
1000
,
0100
0000
1000
0000
0001
0000
0010
0010
,
0001
0100
0010
1000
,
0010
0000
0001
0000
0010
0000
1000
1000
,
0100
0000
0020
0000
0000
0000
0000
0030
,
0001
0000
0100
0000
0020
0000
0000
0000
0000
0000
0000
0030
2000
0000
0000
0000
,
0000
3000
0200
0000
0000
0000
0000
0000
0000
0000
0000
0000
0000
0000
0000
0000
,
0000
0300
0000
0000
0000
0000
0000
0000
0000
0000
0000
0000
0000
0000
0000
0000
,
0010
0100
1000
0002
,
0003
0000
0010
0000
0100
0000
1000
0100
,
1000
0010
0100
0002
,
0000
0000
0000
0003
0020
0000
0000
0000
0000
0000
0000
0030
0100
0000
0000
0000
,
1000
0100
0010
0100
,
0000
0000
1000
0000
0001
0000
0100
0010
,
0100
0001
0010
0002
,
0000
0000
0000
0003
2000
0000
0000
0000
0000
0000
0000
3000
0200
0000
0000
0000
,
0300
0000
1000
0000
0000
0001
0000
0000
,
1000
0000
0000
0001
0000
0000
0010
0100
,
1000
0000
0000
0000
,
0000
0000
0000
0000
,
0000
0000
0001
0000
0000
1000
0000
0000
,
0001
0000
0000
1000
0000
0000
0100
0010
,
0001
0000
0000
0000
,
0000
0000
0000
0000
,
0000
0000
0010
0000
1000
0100
0000
0100
,
1000
0000
0001
0010
0000
0010
0001
0000
,
0010
0000
0001
0000
0010
0100
0000
0100
,
1000
0000
0010
0100
0000
0000
0000
0000
,
0000
0000
0001
0000
0001
1000
0000
1000
,
0010
0000
0010
0100
0000
0100
0001
0000
,
0010
0000
0100
0000
0100
1000
0000
1000
,
0010
0000
0010
0100
0000
0000
0001
1000
,
0001
0000
0000
0000
0001
0000
0000
0010
0000
0000
0100
0000
1000
0000
0000
0010
,
0000
0100
0000
0000
0000
0000
0000
0000
;

//--------------- dance-single - Pax_Vesania ----------------
#NOTES:
     dance-single:
     Pax_Vesania:
     Medium:
     12:
     0,0,0,0,0:
0000
0000
0000
0000
,
0000
0000
0000
0000
,
0000
0000
0000
0000
,
0000
0000
0000
0000
,
0000
0000
0000
0000
,
0000
0000
0000
0000
,
0000
0000
0000
0000
,
0000
0000
0000
0000
,
0000
0000
0000
0000
,
0000
0000
0000
0000
,
0000
0000
0000
0000
,
0000
0000
0000
0000
,
0000
0101
0000
0000
,
0000
0001
0010
0100
,
1000
0011
0000
0000
,
0000
0000
0202
0000
0000
0303
2200
0000
,
0000
3300
0011
0000
0000
0000
0000
0000
,
0000
0100
0001
0010
,
0100
1000
0000
0000
,
0000
0000
2002
0000
0000
3003
2200
0000
,
3300
0000
1000
0100
0000
0010
0100
1000
,
0000
0001
0010
0100
1000
0001
0100
0010
,
1000
0001
1000
0010
0000
0100
0010
0100
,
0001
0000
0100
0000
0202
0000
0000
0000
0000
0000
0000
0303
0220
0000
0000
0000
,
0330
0000
1000
0001
0010
0001
1000
0100
,
1000
0001
0010
0001
0100
0001
1000
0100
,
1000
1000
0001
0010
0000
0010
0100
1000
,
0100
0000
0010
0000
0220
0000
0000
0000
0000
0000
0000
0330
0202
0000
0000
0000
,
0000
0303
0010
0100
0000
0001
0100
0001
,
0100
0001
0100
0000
0010
0000
0100
0000
0001
0000
0100
0000
0010
0000
1000
0000
,
0100
0010
0000
0001
0010
0100
0010
0001
,
1000
0010
0000
0100
0010
1000
0010
0100
,
0001
1000
0000
0001
0010
0000
0100
1000
,
1000
0010
0100
0001
0010
0100
1000
0100
,
1000
0100
0000
0010
0100
1000
0010
0100
,
0001
0010
0000
1000
0010
0001
0100
0010
,
0100
0001
1000
0001
0010
0100
1000
0001
,
0100
0010
1000
1000
0000
0010
0100
0000
,
0001
0010
0000
0001
0100
0000
0000
0010
,
1000
0100
0010
0010
0000
0100
0100
0000
,
1000
1000
0000
0001
0001
0000
0000
0100
,
0001
0101
0000
0001
1000
0001
1000
0001
,
0100
0001
0000
0010
0001
0100
0010
1000
,
0100
1000
0000
0010
0100
0010
0100
0001
,
0010
0100
0000
1000
0001
0100
1000
0100
,
0001
0010
0001
0100
0010
1000
0100
0010
,
0100
1000
0000
0100
1000
0001
0010
0001
,
0010
0100
0000
1000
0010
0100
0001
0010
,
0001
1000
0100
1000
0010
0001
0010
1000
,
0010
1000
0000
0000
1000
0000
0010
0000
,
0010
0200
0000
0000
0000
0000
0300
0000
,
0010
0100
0002
0000
0000
0000
0000
0000
,
0003
0000
0020
0000
0000
0000
0000
0000
0000
0000
0000
0000
0000
0030
0000
0000
,
0000
0000
0200
0000
0000
0000
0000
0300
,
1000
0000
0010
0000
0200
0000
0000
0000
0000
0000
0000
0000
0000
0000
0000
0300
,
0010
0000
2000
0000
0000
0000
0000
3000
,
0001
0010
0002
0000
0000
0000
0000
0000
0000
0000
0000
0000
0003
0000
0000
0000
,
0000
0000
1000
0100
0010
0001
0100
0010
,
0100
0001
0010
0100
1000
0010
0100
0001
,
0001
0100
0010
1000
0001
0010
0100
0010
,
0001
0010
0100
1000
0100
0001
0100
1000
,
0010
1000
0200
0000
0000
0000
0000
0300
,
0100
0000
0010
0000
0002
0000
0000
0000
0000
0000
0000
0003
0200
0000
0000
0000
,
0000
0300
0020
0000
0000
0000
0000
0000
0000
0000
0000
0000
0000
0000
0000
0000
,
0000
0030
0000
0000
0000
0000
0000
0000
0000
0000
0000
0000
0000
0000
0000
0000
,
1000
1000
0001
0000
0100
0000
0020
0000
,
0030
0000
0100
0000
0010
0000
1000
0001
,
0010
0100
1000
0002
,
0000
0000
0000
0003
0200
0000
0000
0000
0000
0000
0000
0300
0010
0000
0000
0000
,
1000
0001
1000
0000
0010
0000
0100
0000
,
0000
0000
0001
0000
0010
0000
0001
0100
,
0010
1000
0100
0010
0100
1000
0001
0010
,
0001
0000
0100
0000
0220
0000
0000
0000
0330
0000
0000
0000
1010
0000
0000
1000
,
0000
1000
0100
0010
0001
0010
0100
1000
,
0001
1000
0001
1000
0010
1000
0001
0010
,
0001
0000
0101
0000
0000
1010
0000
0000
,
0101
0000
0000
0110
0000
0000
1010
0000
,
1100
0000
1000
0100
0010
0100
0010
0001
,
0010
0100
0010
0100
1000
0010
0100
0001
,
0100
0000
0110
0000
0000
1010
0000
0000
,
0011
0000
0000
1001
0000
0000
0110
0000
,
0101
0000
0002
0000
0013
0200
0000
0310
,
0002
0000
0103
0020
0000
1030
0200
0300
,
0200
0300
2000
0000
3100
0002
0000
0103
,
2000
0000
3010
0200
0000
0300
0001
0001
,
0002
0000
1003
0001
1000
0100
0010
0100
,
1000
0001
0010
0100
1000
0100
0001
0100
,
1000
0000
0001
0100
0010
1000
0010
0001
,
0010
1000
0001
0010
1000
0001
0100
1000
,
0001
0000
1000
0000
0010
0000
0000
1010
0000
0000
0010
0000
0100
0000
0000
0001
,
0000
0101
0000
0000
0000
0000
0000
0000
;

//--------------- dance-single - Pax_Vesania ----------------
#NOTES:
     dance-single:
     Pax_Vesania:
     Hard:
     15:
     0,0,0,0,0:
0000
0000
0000
0000
,
0000
0000
0000
0000
,
0000
0000
0000
0000
,
0000
0000
0000
0000
,
0000
0000
0000
0000
,
0000
0000
0000
0000
,
0000
0000
0000
0000
,
0000
0000
0000
0000
,
0000
0000
0000
0000
,
0000
0000
0000
0000
,
0000
0000
0000
0000
,
0000
0000
0000
0000
,
0000
1100
0000
0000
,
0000
0011
0101
0110
,
1010
1100
0000
0000
,
0000
0000
0202
0000
0000
0303
2020
0000
,
0000
0000
3030
0000
1100
0000
0000
0000
1000
0000
0010
0000
1000
0010
1000
0000
,
0001
0100
0001
0000
0010
0000
0000
0000
0101
0000
0000
0000
0110
0000
0000
0000
,
1010
0000
0000
0000
1100
0000
0000
0000
0100
0000
0010
0000
0100
0010
0100
0000
,
0010
0001
0010
0000
0002
0000
0000
0000
0000
0000
0003
0000
2000
0000
0000
0000
,
3000
0000
1000
0100
0000
0001
0100
1000
,
0000
0001
0010
0100
1000
0100
1000
0010
,
1000
0001
1000
0010
0100
0001
0010
0001
,
1000
0000
0100
0000
0020
0000
0000
0000
0000
0000
0000
0030
0002
0000
0000
0000
,
0003
0000
0000
0000
1000
0000
0010
0000
0100
0001
0010
0000
0001
0000
0010
0000
,
0010
0100
1000
0000
0001
0000
0001
0000
0010
0000
0010
0000
0100
0000
0100
0000
,
1000
0000
1000
0000
0100
0000
1000
0000
0010
0100
0001
0000
0010
0000
0001
0000
,
1000
0100
0010
0000
0002
0000
0000
0000
0000
0000
0000
0003
0200
0000
0000
0000
,
0000
0000
0000
0300
0010
0000
1000
0000
0000
0000
0010
0000
0100
0010
0100
0010
,
0100
0010
0100
0010
0100
0000
0001
0000
0001
0000
0100
0000
0010
0000
0100
0000
,
0001
0010
0000
0001
0100
1000
0100
0001
,
0010
0100
0000
1000
0010
0001
0010
0100
,
0001
1000
0000
0001
0001
0010
0100
0100
,
1000
0000
0010
0000
1000
0000
0001
0000
1000
0000
0100
0000
0010
0001
0010
0000
,
0001
0000
0100
0000
0001
0100
0001
0000
1000
0010
1000
0000
0010
0100
0010
0000
,
0100
0000
0001
0000
0010
0000
0100
0000
1000
0000
0010
0000
0100
0010
0100
0000
,
0001
0010
0001
0100
0010
1000
0100
0010
,
0100
1000
0100
0100
0000
0010
0100
0000
,
0010
0001
0000
0001
0100
0000
0000
0001
,
0010
0100
1000
1100
0000
1000
1010
0000
,
0010
0110
0000
0100
0101
0000
0000
0101
,
0001
0101
0000
0001
0100
1000
0100
0001
,
0010
0000
0001
0000
1000
0100
0010
0000
0001
0010
0100
0000
0010
0100
1000
0000
,
0010
0000
0100
0000
0001
0000
0010
0001
0100
0000
0010
0000
0100
0010
1000
0000
,
0001
0100
0010
0000
1000
0000
0001
0000
0100
0000
0010
0000
0001
0000
0010
0000
,
1000
0000
0100
0000
0001
0000
0100
0000
1000
0000
0010
0000
0100
0010
0100
0000
,
0001
0000
0010
0000
0100
1000
0100
0000
1000
0001
1000
0000
0001
0100
0001
0000
,
0010
0000
0100
0000
1000
0000
0010
0000
0100
0000
0001
0000
0100
1000
0100
0000
,
0010
1000
0001
0010
0001
0100
0001
0010
,
0100
1000
0100
1000
0010
0100
0010
1000
,
0010
0100
0001
0010
0001
0010
0100
0010
,
0100
1000
0100
0010
0001
0100
0010
1000
,
0001
0010
0001
1000
0100
1000
0010
1000
,
0100
0010
0100
0010
0001
0100
0001
1000
,
0001
0100
0001
0100
1000
0100
1000
0100
,
0010
0100
0010
0001
0010
0100
1000
0100
,
0010
0001
0010
0100
0010
1000
0100
0001
,
0100
0001
0100
1000
0001
0010
0100
0010
,
0001
0100
0010
1000
0010
0100
1000
0100
,
0010
0100
0010
1000
0001
1000
0010
0100
,
0001
0100
0010
0100
0001
0010
0100
0010
,
0100
1000
2000
0000
0000
0000
0000
3000
,
0100
0000
0010
0000
0002
0000
0000
0000
0000
0000
0000
0003
0200
0000
0000
0000
,
0000
0300
0020
0000
0000
0000
0000
0000
0000
0000
0000
0000
0000
0000
0000
0000
,
0000
0030
0000
0000
0010
1000
0010
1000
0001
0100
0001
0010
0100
1000
0100
0000
,
1000
0100
0010
0000
0001
0000
0020
0000
,
0030
0000
0001
0000
0010
0000
0100
1000
,
1000
0010
1000
0002
,
0000
0000
0000
0003
0200
0000
0000
0000
0000
0000
0000
0300
0001
0000
0000
0000
,
1000
0000
0100
0000
1000
0000
0010
0000
0100
0010
0100
0000
0001
0000
0010
0000
,
0001
0100
0001
0000
0010
0000
0100
0000
1000
0010
1000
0000
0001
0000
0100
0000
,
0010
1000
0010
0000
0100
0000
0001
0000
0010
0100
1000
0000
0010
0000
1000
0000
,
0100
0010
0001
0000
0022
0000
0000
0000
0033
0000
0000
0000
0110
0000
0000
0110
,
0000
1100
1000
0001
0010
0100
0100
1000
,
0100
0010
0100
1000
1000
1000
0001
0001
,
0100
0000
1001
0000
0000
0101
0000
0000
,
1010
0000
0000
0011
0000
0000
1001
0000
,
1100
0000
0000
0000
1000
0000
0100
0000
0010
0100
1000
0000
0010
0000
0100
0000
,
0001
0010
0100
0000
1000
0000
0010
0000
0100
0001
0010
0000
0001
0010
0100
0000
,
1000
0000
1000
0000
0100
0000
1000
0000
1000
0010
1000
0000
0001
0000
0010
0000
,
0010
0100
0010
0000
0001
0000
1000
0000
1000
0001
1000
0000
0100
0000
0000
0000
,
0010
0000
0202
0000
0303
0220
0000
0330
,
0022
0000
0033
0220
0000
0330
2020
3030
,
2200
3300
2002
0000
3003
0220
0000
0330
,
0202
0000
0000
0000
0303
0000
2020
0000
0000
0000
3030
0000
0100
0001
0100
0001
,
0100
0001
0100
0001
0100
0000
0010
0000
1000
0000
0010
0000
0001
0000
1000
0000
,
0100
0001
0010
1000
0001
0100
1000
0001
,
1000
0100
0010
0001
0001
0100
0010
1000
,
0010
0000
0001
0000
0010
0000
0100
0000
0001
0000
0010
0000
0001
0010
0100
1000
,
0001
0010
0100
1000
0100
0000
0000
1100
0000
0000
1010
0000
0110
0000
0000
0101
,
0000
0011
0000
0000
0000
0000
0000
0000
;

//--------------- dance-single - Pax_Vesania ----------------
#NOTES:
     dance-single:
     Pax_Vesania:
     Challenge:
     18:
     0,0,0,0,0:
0000
0000
0000
0000
,
0000
0000
0000
0000
,
0000
0000
0000
0000
,
0000
0000
0000
0000
,
0000
1001
0000
0000
,
0010
0001
0000
0000
,
1000
0001
0000
0000
,
0000
0000
0000
0000
0002
0000
0000
0000
0000
0000
0000
0003
0010
0000
0100
0000
,
0020
0000
0000
0030
0002
0000
0000
0000
0000
0000
0000
0000
0000
0000
0000
0000
,
0000
0000
0000
0003
0200
0000
0000
0000
0000
0000
0000
0300
0020
0000
0000
0000
,
0000
0000
0000
0030
0200
0000
0000
0000
0000
0000
0000
0000
0000
0000
0000
0300
,
0002
0000
0000
0003
0020
0000
0000
0000
0000
0000
0000
0000
0000
0000
0000
0000
,
0000
0000
0000
0030
0110
0000
0000
0000
0010
0000
0001
0000
0010
0001
0010
0000
,
0001
0010
0001
0000
0011
0000
0000
0000
1010
0000
0000
0000
0011
0000
0000
0000
,
0101
0000
0000
0000
0110
0000
0000
0000
0010
0000
1000
0000
0010
0100
0010
0000
,
0100
0010
0100
0000
0001
0000
0100
0001
0100
0001
0100
0000
0010
0000
1000
0010
,
1000
0010
1000
0000
1010
0000
0000
0000
1000
0000
0001
0000
1000
0010
0001
0000
,
1000
0100
0001
0000
0011
0000
0000
0000
0110
0000
0000
0000
1010
0000
0000
0000
,
1100
0000
0000
0000
1001
0000
0000
0000
0001
0000
1000
0000
0001
0010
0100
0000
,
0010
0100
1000
0000
0010
0000
1000
0100
0010
0100
1000
0000
0100
0000
0010
0001
,
0010
0100
0010
0000
0001
0000
1000
0000
1000
0100
0010
0000
0001
0000
0100
0000
,
0100
0010
1000
0000
0001
0010
0100
0010
0001
1000
0100
0010
0100
1000
0100
0010
,
0001
0010
0100
0000
1000
0000
0010
0000
0010
0100
0001
0000
0010
0000
0100
0000
,
0100
1000
0001
0000
0100
0001
1000
0010
0100
0001
0100
0010
1000
0001
0010
0100
,
1000
0001
0010
0100
1000
0000
0010
0000
0001
0010
1000
0000
0001
0000
0100
0000
,
0010
0001
0010
0000
0100
0010
0100
0010
1000
0010
1000
0010
1000
0100
0010
0001
,
0010
0100
1000
0000
0100
0000
0010
0000
0100
0010
0001
0000
0100
0000
0001
0000
,
0100
1000
0100
0000
0010
1000
0001
0100
0001
1000
0100
1000
0001
0010
0001
0010
,
0100
1000
0001
0010
0100
0000
1000
0000
0000
0000
0001
0000
1000
0001
1000
0001
,
1000
0000
0001
0000
1000
0000
0001
0000
1000
0000
0001
0000
1000
0000
0000
0000
0000
0000
0001
0000
0000
1000
0000
0000
0001
0000
0000
0000
0000
0000
1000
0000
0000
0000
0000
0000
0100
0000
0000
0010
0000
0000
0001
0000
0000
0000
0000
0000
,
1000
0000
0100
0000
1000
0100
0010
0000
0001
0010
0100
0000
1000
0100
0010
0000
,
0001
0000
1000
0000
0010
0000
0100
0001
0010
0000
0001
0000
1000
0100
0001
0000
,
0001
0000
0000
0100
0000
0000
1000
0000
0000
0001
0000
0000
0101
0000
0000
0100
0000
0000
0001
0100
0001
0100
0000
0000
,
1000
0000
0010
0000
1000
0000
0010
0000
0000
0000
0000
0000
0100
0000
0000
0000
0000
0000
0001
0000
0000
0100
0000
0000
0001
0000
0000
0000
0000
0000
1000
0000
0000
0000
0000
0000
0010
0000
0000
0001
0000
0000
0010
0000
0000
0000
0000
0000
,
0100
0000
0001
0000
0010
0100
0010
0000
0100
1000
0100
0000
0010
0001
0010
0000
,
0100
0000
1000
0000
0001
0000
1000
0001
0010
0000
0010
0000
0001
1000
0100
0000
,
0010
0000
0000
0100
0000
0000
1000
0000
0000
1001
0000
0000
0001
0000
0000
0010
0000
0000
0001
0100
0001
0100
0000
0000
,
0010
0000
1000
0100
1000
0000
1100
0000
0000
0000
0100
0000
0101
0000
0000
0000
,
0100
1100
0000
1000
1010
0000
0000
1000
,
1001
0001
0101
1100
0000
1100
0101
0000
,
0011
0110
0000
0110
1100
0000
0000
1100
,
0101
0000
1100
0000
1000
0000
0010
0100
1000
0000
0100
0000
0001
0010
0100
0000
,
0010
0000
0001
0000
1000
0010
0001
0000
0001
0010
1000
0000
0001
0100
1000
0000
,
0100
0000
0001
0000
0010
0000
0010
0100
1000
0000
0001
0000
0001
0010
0100
0000
,
1000
0000
0000
1000
0000
0000
0001
0000
0000
0110
0000
0000
0100
0000
0000
0010
0000
0000
0100
0001
0100
0001
0000
0000
,
1000
0000
0100
0000
1000
0000
0100
0000
0000
0000
0000
0000
0010
0000
0000
0000
0000
0000
0001
0000
0000
0010
0000
0000
0001
0000
0000
0000
0000
0000
1000
0000
0000
0000
0000
0000
0100
0000
0000
1000
0000
0000
0100
0000
0000
0000
0000
0000
,
0010
0000
0100
0000
0010
0001
1000
0000
0001
0010
1000
0000
0001
0100
1000
0000
,
0010
0000
0100
0000
0001
0000
0100
0010
0001
0000
0010
0000
0010
0100
1000
0000
,
0100
0000
0000
0001
0000
0000
0010
0000
0000
0110
0000
0000
0100
0000
0000
1000
0000
0000
0001
1000
0001
1000
0000
0000
,
0001
1000
0001
0000
0100
0000
0010
0000
0100
0000
0010
0000
1000
0000
0100
0000
,
1000
0100
0010
0001
0010
0001
0100
0001
,
0100
0001
0100
1000
0100
1000
0100
0010
,
0100
0010
0001
0010
0100
0001
1000
0010
,
0011
0010
1000
0100
0001
0010
1000
0100
,
0001
0010
0100
1000
0001
1000
0100
0100
,
0001
0010
0010
1000
0100
0100
0001
0010
,
0001
0100
0010
1000
0010
0001
1000
0100
,
0001
1000
0001
0010
0100
1000
1100
0100
,
0010
0110
0010
0001
0100
1000
1100
0100
,
0001
0010
0011
0010
1000
0010
0011
0001
,
0100
0101
0001
0100
1000
0100
0001
0010
,
0100
1000
1100
0000
1000
0010
1010
0010
,
1000
1001
0000
0001
0010
0001
0101
0001
,
0100
0110
0000
0100
0010
0100
0010
1000
,
0001
0000
1000
0000
0001
0100
0001
0010
0100
1000
0001
0100
0010
1000
0001
0010
,
0100
1000
0010
0100
0010
0000
0100
0000
0001
0100
0001
0000
1000
0000
0100
0000
,
1000
0100
1000
0000
0010
0000
0100
0000
0001
1000
0001
0000
0100
0000
0010
0000
,
1000
0100
0010
0000
0001
0000
0100
0000
0010
1000
0100
0000
1000
0000
0010
0000
,
1000
0001
0010
0000
0001
0000
0010
0000
0001
1000
0100
0000
0010
0000
0001
0000
,
0001
0000
0001
0000
1000
0000
1100
0000
0100
1000
0001
0000
0100
0000
0110
0000
,
0100
0010
0001
0000
0010
0000
1010
0000
1000
0010
0001
0000
0010
0000
0110
0000
,
0010
0100
1000
0000
0100
0000
0101
0000
0001
0010
1000
0000
0010
0000
0011
0000
,
0001
0100
1000
0000
0100
0000
0101
0000
0001
1000
0001
0000
1010
0000
0000
0011
,
0000
0000
1010
0000
1000
0000
0100
0000
0100
0010
0001
0000
0001
0000
0010
0000
,
0010
0100
1000
0000
0001
0000
1000
0000
0001
0100
0001
0000
1000
0010
1000
0000
,
0010
0000
1000
0000
0100
0000
1000
0000
0001
0010
0001
0000
0010
0000
0001
0000
,
1000
0100
1000
0000
0100
0000
1000
0000
0001
0010
0100
0000
1100
0000
1000
0000
,
1010
0000
0010
0000
0100
0000
0001
0000
0100
0010
1000
0000
0100
0000
0010
0000
,
0100
1000
0001
0000
0010
0000
0100
0000
0001
0010
0100
0000
0010
0100
1000
0000
,
0100
0000
0001
0000
0101
0000
0100
0000
1000
0100
1000
0000
0010
0000
0100
0000
,
0001
0010
1000
0000
0010
0000
0001
0000
0100
1000
0100
0000
1100
0000
0000
0000
,
0101
0000
0002
0100
0103
0020
1000
1030
,
0200
0001
0301
0200
1000
1300
0002
0103
,
0020
1030
0002
0100
0103
2000
0100
3100
,
0020
0000
0001
0000
0031
0000
0020
0000
1000
0000
1030
0000
0001
1000
0100
0010
,
0001
1000
0010
0100
0001
0000
1000
0000
0100
0000
0001
0000
0100
0000
1000
0000
,
0001
0100
0010
0001
0010
1000
0100
0100
,
0001
0010
0100
0001
0100
0010
0001
0100
,
1000
0000
0100
0000
0001
0000
0010
0000
0001
0000
1000
0000
0001
0100
1000
0100
,
0001
0100
1000
0100
0001
0000
0000
0101
0000
0000
1100
0000
0101
0000
0000
0011
,
0000
1010
0000
0000
0000
0000
0000
0000
;
