#TITLE:AKUMA;
#SUBTITLE:;
#ARTIST:常闇トワ;
#TITLETRANSLIT:;
#SUBTITLETRANSLIT:;
#ARTISTTRANSLIT:Tokoyami Towa;
#GENRE:;
#CREDIT:;
#MUSIC:AKUMA.ogg;
#BANNER:Scream-bn.png;
#BACKGROUND:;
#CDTITLE:;
#SAMPLESTART:51.731;
#SAMPLELENGTH:15.568;
#SELECTABLE:YES;
#OFFSET:-0.164;
#BPMS:0.000=185.000;
#STOPS:;
#BGCHANGES:;
#FGCHANGES:;

//--------------- dance-single - Pax_Vesania ----------------
#NOTES:
     dance-single:
     Pax_Vesania:
     Beginner:
     3:
     0,0,0,0,0:
0000
0000
0000
0000
,
0000
0000
0000
0000
,
0000
0000
0000
0000
,
0000
0000
0000
0000
,
0010
0000
0000
0000
,
0010
0000
1000
0000
,
1000
0000
0000
0000
,
0100
0000
0100
0000
,
0100
0000
0000
0000
,
0010
0000
0010
0000
,
0010
0000
0000
0000
,
0001
0000
0001
0000
,
0001
0000
0000
0000
,
0100
0000
0000
0000
,
0010
0000
0000
0000
,
1000
0000
0000
0000
,
0001
0000
0001
0000
,
0000
0000
0000
0000
,
0010
0000
0010
0000
,
0000
0000
0000
0000
,
1000
0000
0000
1000
,
0000
0000
0100
0000
,
0100
0000
0000
0010
,
0000
0010
0000
0010
,
0000
0000
0000
0000
,
1000
0000
0000
0000
,
0100
0000
0000
0000
,
0010
0000
0000
0100
,
0000
0100
0000
0000
,
1000
0000
1000
0000
,
0001
0000
0001
0000
,
0010
0000
0010
0000
,
0010
0000
0000
0000
,
0100
0000
0000
0000
,
1000
0000
1000
0000
,
1000
0000
0000
0000
,
0010
0000
0000
0000
,
0100
0000
0000
0000
,
0001
0000
0000
0000
,
0000
0000
0000
0000
,
0200
0000
0000
0000
0000
0000
0000
0300
,
0020
0000
0000
0000
0000
0000
0000
0030
,
2000
0000
0000
0000
0000
0000
0000
3000
,
0002
0000
0000
0000
0000
0000
0000
0003
,
0001
0000
0000
0000
0100
0000
0000
0100
,
0000
0000
0000
0000
,
0010
0000
0000
0000
,
1000
0000
1000
0000
,
2000
0000
0000
0000
0000
0000
0000
3000
,
0020
0000
0000
0000
0000
0000
0000
0030
,
0200
0000
0000
0000
0000
0000
0000
0300
,
0002
0000
0000
0000
0000
0000
0000
0003
,
0001
0000
0000
0000
0010
0000
0000
0010
,
0000
0000
0000
0000
,
1000
0000
0000
0000
,
0010
0010
0010
0010
,
0000
0000
0100
0000
,
0100
0000
0000
0000
,
0001
0000
0001
0000
,
0010
0000
0000
0000
,
0100
0000
0100
0000
,
1000
0000
0000
0000
,
0010
0000
0010
0000
,
0100
0000
0100
0000
,
0100
0000
0001
0000
,
0001
0000
0000
0000
,
0100
0000
0010
0000
,
0010
0000
0000
0000
,
1000
0000
1000
0000
,
0100
0000
0000
0000
,
0001
0000
0000
0000
,
0010
0000
0010
0000
,
0010
0000
0000
0000
,
0000
0000
0000
0000
,
1001
0000
0000
0000
,
0000
0000
0000
0000
,
0110
0000
0000
0000
,
0000
0000
0000
0000
,
1001
0000
0000
0000
,
0000
0000
0000
0000
,
0000
0000
0000
0000
,
0000
0000
0000
0000
,
0000
0000
0000
0000
,
0000
0000
0000
0000
,
0000
0000
0000
0000
,
0001
0000
0000
0000
0000
0000
0000
0100
,
0000
0000
0000
0000
,
0010
0000
0000
0000
0000
0000
0000
1000
,
0000
0001
0001
0001
,
0002
0000
0000
0000
0000
0000
0000
0003
,
0200
0000
0000
0000
0000
0000
0000
0300
,
2000
0000
0000
0000
0000
0000
0000
3000
,
0020
0000
0000
0000
0000
0000
0000
0030
,
0010
0000
0000
0000
0100
0000
0000
0100
,
0000
0000
0000
0000
,
0001
0000
0001
0000
,
0100
0100
0100
0100
,
0000
0000
0000
0000
,
0020
0000
0000
0000
0000
0000
0000
0030
,
0200
0000
0000
0000
0000
0000
0000
0300
,
0002
0000
0000
0000
0000
0000
0000
0003
,
1000
0000
0000
0000
1000
0000
0000
1000
,
0000
0000
0000
0000
,
0010
0000
0000
0010
,
0000
0010
0000
0010
,
0200
0000
0000
0000
0000
0000
0000
0300
,
0002
0000
0000
0000
0000
0000
0000
0003
,
2000
0000
0000
0000
0000
0000
0000
3000
,
0020
0000
0000
0000
0000
0000
0000
0030
,
0010
0000
0000
0000
1000
0000
0000
1000
,
0000
0000
0000
0000
,
0100
0000
0100
0000
,
0010
0010
0010
0010
,
0010
0000
0000
0001
,
0000
0100
0100
0000
,
0010
0000
0000
0010
,
0000
0000
1000
1000
,
1000
0000
0000
0100
,
0000
0010
0010
0000
,
0001
0000
0000
0100
,
0000
0000
0000
0000
0010
0000
0000
0000
0010
0000
0000
0000
0020
0000
0000
0030
;

//--------------- dance-single - Pax_Vesania ----------------
#NOTES:
     dance-single:
     Pax_Vesania:
     Easy:
     7:
     0,0,0,0,0:
0000
0000
0000
0000
,
0000
0000
0000
0000
,
0000
0000
0000
0000
,
0000
0000
0000
0000
,
0100
0100
0010
0000
,
1000
1000
0001
1000
,
0010
0010
0100
0000
,
0001
0001
0100
0100
,
0010
0010
1000
0000
,
0001
0001
0100
0010
,
1000
1000
0010
0000
,
0100
0100
0001
0010
,
0100
0000
1000
0000
,
0010
0000
0100
0100
,
0010
0000
1000
0000
,
0001
0000
0010
0010
,
0100
0000
0001
0000
,
0100
0000
1000
0010
,
0010
0000
0100
0000
,
0001
0000
0100
0010
,
1000
0100
0100
0000
,
0010
0010
0001
0010
,
0100
0100
1000
0000
,
0001
0001
0100
0010
,
0100
0000
0001
1000
,
0010
1000
0100
0100
,
0100
0000
0010
0000
,
0001
0000
0100
0100
,
0100
0010
0000
0001
,
0000
0010
0100
0100
,
0100
0000
0001
0000
,
0010
0100
0100
0100
,
0110
0000
0000
0000
,
1001
0000
0000
0000
,
0110
0000
0010
0010
,
0010
0000
1000
1000
,
1001
0000
0000
0000
,
0110
0000
0000
0000
,
1000
1000
0001
0001
,
0100
0000
0000
0001
,
0001
0100
0001
0010
,
0010
0100
1000
0000
,
0100
0100
0010
0001
,
0001
0010
0100
0000
,
1001
0000
0000
0000
0010
0000
0000
0110
,
0000
1000
0001
1000
,
1001
0000
0000
0000
0100
0000
0000
0110
,
0000
0010
0100
0001
,
0001
0100
0100
0010
,
1000
1000
0100
0000
,
0010
0010
0001
0010
,
0100
1000
1000
0000
,
1001
0000
0000
0000
0100
0000
0000
0110
,
0000
0001
1000
0001
,
1001
0000
0000
0000
,
1000
0010
1000
0001
,
1000
1000
0010
0000
,
0100
0100
0010
0000
,
0100
0100
0001
0000
,
1000
1000
0100
0000
,
0001
0001
0100
0000
,
0010
0010
0001
0000
,
0100
0100
1000
0000
,
0001
0001
0100
0001
,
1000
0010
1000
0000
,
0001
0100
0001
0000
,
1000
0100
1000
0000
,
0001
0010
0001
0000
,
0100
0010
0100
0000
,
0010
1000
0010
0000
,
1000
0001
1000
0000
,
0001
0010
0001
0000
,
0010
0000
0000
0110
0000
0000
1000
0000
,
0000
1001
0000
0000
0001
0000
1000
0000
,
0010
0000
0000
0110
0000
0000
0010
0000
,
0000
1001
0000
0000
0010
0000
0100
0000
,
0010
0000
0000
0110
0000
0000
0100
0000
,
0000
1001
0000
0000
1000
0000
0100
0000
,
0010
0000
0000
0110
0000
0000
0010
0000
,
0000
1001
0000
0000
0010
0000
0100
0000
,
0000
0000
0000
0000
,
0002
0000
0000
0000
0000
0000
0000
0000
0000
0000
0000
0000
0000
0000
0000
0003
,
2000
0000
0000
0000
0000
0000
0000
0000
0000
0000
0000
0000
0000
0000
0000
3000
,
0200
0000
0000
0000
0000
0000
0000
0000
0000
0000
0000
0000
0000
0000
0000
0300
,
0020
0000
0000
0000
0000
0000
0000
0000
0000
0000
0000
0000
0000
0000
0000
0030
,
0001
0000
0010
0000
0010
0000
0001
0010
,
0000
0100
0100
1000
,
0010
0000
0100
0000
0100
0000
0001
0100
,
0000
0100
0010
0010
,
1000
0100
0010
0000
,
0001
0010
0100
0000
,
1000
0010
0100
0000
,
0001
0100
0010
0000
,
0100
0000
0010
0000
0100
0000
0001
0010
,
0000
0000
0100
0000
1000
0000
0010
0200
,
0000
0000
0000
0000
0000
0300
0000
0000
0000
0000
0000
0000
0000
0000
0000
0000
,
0001
1000
0100
0010
,
0000
0000
0000
0000
,
0001
0100
0010
0000
,
1000
0100
0010
0000
,
0010
0100
1000
0000
,
0001
0000
1000
0000
0010
0000
1000
0010
,
0000
1000
0100
0010
,
0001
0000
0100
0000
0001
0000
0100
0001
,
0000
0100
0010
1000
,
0001
0010
0100
0000
,
1000
0001
0010
0000
,
0001
1000
0100
0000
,
0010
0001
1000
0000
,
0010
0000
0100
0000
0001
0000
0100
0100
,
0000
0000
0010
0000
1000
0000
0001
0002
,
0000
0000
0000
0000
0000
0003
0000
0000
0000
0000
0000
0000
0000
0000
0000
0000
,
0100
0010
1000
0001
,
0100
0001
0100
0000
,
0001
0100
0001
0010
,
0010
0100
1000
0000
,
0010
1000
0001
0100
,
0100
0010
1000
0000
,
0100
0010
0001
0001
,
0010
0100
1000
0000
,
0000
0000
0001
0000
1000
0000
0001
0000
1000
0000
0000
0000
2002
0000
0000
3003
;

//--------------- dance-single - Pax_Vesania ----------------
#NOTES:
     dance-single:
     Pax_Vesania:
     Medium:
     10:
     0,0,0,0,0:
0000
0000
0000
0000
,
0000
0000
0000
0000
,
0000
0000
0000
0000
,
0000
0000
0000
0000
,
1000
0000
0010
1000
0000
0010
1000
0010
,
0000
0000
0100
0000
0100
0000
0000
0000
0101
0000
0000
0000
0002
0000
0000
0003
,
0100
0000
0001
0100
0000
0001
0100
0001
,
0000
0000
0010
0000
0100
0000
0000
0000
1000
0000
0000
0000
0020
0000
0000
0030
,
1000
0000
0100
1000
0000
0100
1000
0100
,
0000
0000
0010
0000
0010
0000
0000
0000
0011
0000
0000
0000
0002
0000
0000
0003
,
0100
0000
0010
0100
0000
0010
0100
0010
,
0000
0000
1000
0000
0001
0000
1000
0000
0010
0000
0000
0000
0200
0000
0000
0300
,
0001
0001
0100
0100
,
0010
0000
0010
0100
0000
0002
0000
0003
,
0000
1000
0010
1000
0010
0000
0100
0000
,
0000
0001
0100
0001
0100
0000
0010
0000
,
0100
0100
0001
0001
,
0010
0010
0100
0000
,
1000
0010
1000
0010
1000
0000
0100
0000
,
0010
0001
0010
0001
0000
0000
1001
0000
,
1000
0000
0001
1000
0000
0001
1000
0001
,
0000
0000
0100
0000
0100
0000
0000
0000
0110
0000
0000
0000
0020
0000
0000
0030
,
0100
0000
0001
0100
0000
0001
0100
0001
,
0000
0000
0100
0000
0010
0000
0100
0000
0001
0000
0000
0000
0020
0000
0000
0030
,
0100
0000
1000
1000
0000
0010
1000
0010
,
0000
0100
0100
0000
0101
0000
0001
0000
,
0100
0000
0010
0010
0000
0100
0001
0100
,
0000
0010
0100
0001
1000
0000
1100
0000
,
1000
1000
0001
0001
,
0010
0010
1000
0000
,
0010
0001
1000
0100
,
0010
0100
1000
0100
1000
0000
0001
0000
,
0101
0000
0100
0000
0001
0100
0001
0000
,
0101
0000
0100
0000
0010
0100
0010
0000
,
0110
0000
0010
0000
1000
0010
1000
0000
,
1010
0000
1000
0000
0010
1000
0010
0000
,
0110
0000
0100
0000
0010
0100
0010
0000
,
0101
0000
0100
0000
0001
0100
0001
0000
,
0011
0000
0010
0000
0001
1000
0001
1000
,
0001
0000
0100
0110
,
0010
1000
0001
0010
,
0001
0000
0010
0100
0000
1000
0000
1000
,
0010
0100
1000
0100
,
0001
0000
0010
0001
0010
0000
0001
0000
,
0001
0000
1000
0000
1000
0000
0000
0200
,
0000
0000
0000
0300
0001
0000
0000
0000
0100
0000
0000
0000
1000
0000
0000
0000
,
0000
0000
0010
0000
0010
0000
0000
2000
,
0000
0000
0000
3000
0010
0000
0000
0000
0001
0000
0000
0000
0010
0000
0000
0000
,
0010
0100
0001
0010
,
0001
0000
1000
0100
0000
1000
0000
0010
,
0100
0001
0100
1000
,
0100
0000
0001
0010
0001
0000
1000
0000
,
1000
0000
0000
0000
0010
0000
0000
0000
0100
0000
0002
0000
0000
0003
0020
0000
,
0000
0000
0000
0030
0002
0000
0000
0003
0200
0000
0000
0300
0010
0000
2000
0000
,
0000
0000
0000
3000
0000
0000
0001
0000
,
0010
0000
0000
0000
1000
0000
0000
0000
0010
0000
0000
0000
0020
0000
0000
0030
,
0001
0010
0001
0000
1000
0000
0100
0000
,
0010
0100
1000
0001
,
0100
0010
0100
0000
0001
0000
0010
0000
,
0100
0000
0001
0000
0100
0010
0100
0000
,
0010
0000
0001
0000
1000
0100
1000
0000
,
0001
0000
0100
0000
0010
1000
0010
0000
,
1000
0010
0001
1000
,
0100
0000
0001
0000
1000
0001
1000
0001
,
1000
0000
0001
0000
0100
0001
0100
0001
,
0100
0000
0000
0000
0010
0000
0100
0000
0000
0000
0002
0000
0000
0000
0000
0003
,
0020
0000
0000
0030
0000
0000
0000
0000
0100
0000
1000
0000
0100
0000
1000
0000
,
0100
0000
0000
0000
1000
0000
0001
0000
0000
0000
0020
0000
0000
0000
0000
0030
,
0200
0000
0000
0300
0000
0000
0000
0000
0010
0000
0001
0000
0010
0000
0001
0000
,
0010
0000
0000
0000
0100
0000
0010
0000
0000
0000
0002
0000
0000
0000
0000
0003
,
2000
0000
0000
3000
0000
0000
0000
0000
0020
0000
0000
0030
0000
0000
0100
0000
,
0010
0000
1000
0001
0000
0100
0000
0010
,
0110
0000
0000
1001
0000
0000
0110
0000
,
0000
1001
0000
0000
0001
0000
0101
0000
,
0110
0000
0000
0101
0000
0000
1010
0000
,
0000
0101
0000
0000
0100
0000
0110
0000
,
0011
0000
0000
1100
0000
0000
0011
0000
,
0000
1100
0000
0000
0001
0000
1001
0000
,
0110
0000
0000
1010
0000
0000
0110
0000
,
0000
0101
0000
0000
1000
0000
1001
0000
,
0000
0000
0000
0000
,
0020
0000
0000
0000
0000
0000
0000
0000
0000
0000
0000
0000
0000
0000
0000
0030
,
2000
0000
0000
0000
0000
0000
0000
0000
0000
0000
0000
0000
0000
0000
0000
3000
,
0200
0000
0000
0000
0000
0000
0000
0000
0000
0000
0000
0000
0000
0000
0000
0300
,
0002
0000
0000
0000
0000
0000
0000
0000
0000
0000
0000
0000
0000
0000
0000
0003
,
1000
0000
0010
1000
0010
0000
0100
0100
,
0000
0001
0010
0100
,
1000
0000
0001
0010
0001
0000
0010
0010
,
0000
0001
0100
0010
,
1000
0100
0001
0100
,
0010
0000
0010
0001
0000
1000
0000
1000
,
0010
0100
0001
0100
,
0001
0000
1000
0100
1000
0000
0010
0000
,
0100
0000
0000
0000
0010
0000
0000
0000
0020
0000
0000
0000
0000
0030
0200
0000
,
0000
0000
0000
0300
0001
0000
0000
0000
1000
0000
0000
0000
0001
0000
0020
0000
,
0000
0000
0000
0030
0000
0000
1000
0000
,
0100
0001
0010
0100
,
1000
0001
0100
0010
,
1000
0000
0100
0010
0000
0100
0000
1000
,
0001
0100
0001
1000
,
0001
0000
0010
0100
0010
0000
0100
0000
,
0100
0000
1000
0010
1000
0010
0000
0200
,
0000
0000
0000
0300
0010
0000
0000
0000
1000
0000
0000
0000
0200
0000
0000
0300
,
0000
0000
0001
0100
0001
0100
0000
0001
,
0000
0000
0010
0000
0100
0000
0000
0000
1000
0000
0000
0000
0020
0000
0000
0030
,
0000
0100
0001
0010
,
1000
0000
0010
0001
0000
0010
0000
0001
,
0010
0001
0010
0000
0100
1000
0001
0000
,
0010
0000
0100
0000
1000
0000
0100
0000
2000
0000
0000
3000
0010
0000
0000
0000
,
0010
0000
0100
0100
0001
0001
0000
0020
,
0000
0000
0000
0030
0200
0000
0000
0300
2000
0000
0000
3000
0001
0000
0002
0000
,
0000
0000
0000
0000
0000
0000
0000
0003
0000
0000
0000
0000
1000
0000
0100
0000
,
0010
0001
0101
0100
,
0001
0000
1000
1000
0000
0001
0010
0010
,
0000
0000
0001
0000
0001
0000
0100
0000
0001
0000
0100
0000
0020
0000
0000
0030
,
0100
0000
0010
0010
0000
1000
1000
0100
,
0000
0000
0100
0000
1000
0000
0001
0000
0010
0000
0000
0000
0002
0000
0000
0003
,
1000
0000
0100
0100
0000
0010
0010
0010
,
0000
0000
0001
0000
0100
0000
0001
0000
0100
0000
0000
0000
0002
0000
0000
0003
,
0010
0000
0100
0100
0000
1000
1000
1000
,
0000
0000
0001
0000
1000
0000
0100
0000
0010
0000
0000
0000
0022
0000
0000
0033
;

//--------------- dance-single - Pax_Vesania ----------------
#NOTES:
     dance-single:
     Pax_Vesania:
     Hard:
     13:
     0,0,0,0,0:
0000
0000
0000
0000
,
0000
0000
0000
0000
,
0010
0000
1000
0100
0000
0010
0100
1000
,
0000
0001
1000
0100
1100
0000
1010
0000
,
0101
0000
0001
0010
0000
0001
0100
0010
,
0000
1000
0100
0100
0001
0100
0020
0030
,
0110
0000
0010
0100
0000
0001
1000
0100
,
0000
1000
0010
0100
0110
0000
0202
0303
,
0011
0000
0001
1000
0000
0001
0010
1000
,
0000
0010
0100
0100
0001
0100
0020
0030
,
0011
0000
0010
0100
0000
0001
0100
1000
,
0000
0010
1000
0010
0110
0000
0202
0303
,
0001
0000
1000
0000
0010
0100
0001
0010
,
0100
0000
0001
0100
0000
0020
0000
0030
,
0000
0001
1000
0001
0010
0000
0100
0000
,
0000
0000
1000
0100
1000
0000
0100
0000
0010
0000
0000
0000
0001
0000
0000
0000
,
0001
0010
1000
0001
0100
0010
0001
0100
,
0010
1000
0100
0000
0100
0000
0000
0000
,
0001
0100
0001
1000
0100
0000
0010
0000
,
0001
0100
1000
0100
0000
0000
0110
0000
,
1001
0000
0100
0010
0000
0100
0001
0100
,
0000
0010
1000
1000
0010
0001
0020
0030
,
1010
0000
1000
0100
0000
0001
0100
1000
,
0000
0010
0100
1000
0110
0000
0202
0303
,
0100
0000
0001
0100
0000
0001
1000
0100
,
0000
0010
0100
0100
1000
0001
0010
0000
,
0100
0000
1000
0100
0000
0001
0100
0010
,
0000
0001
0100
0001
1000
0000
0100
0000
,
1000
0100
0010
0001
0010
0000
0100
0000
,
0010
0001
0010
1000
0010
0000
0000
0000
,
1000
0010
0001
1000
0100
0001
0010
0100
,
0001
0100
1000
0001
1000
0000
0101
0000
,
0100
0000
0000
0000
0010
0000
1000
0000
0100
0000
0010
0000
0001
0010
0001
0000
,
1000
0000
0000
0000
0001
0000
0100
0000
0010
0000
0100
0000
0001
0100
0001
0000
,
0010
0000
0001
0001
0100
0100
0010
0010
,
1000
0000
0100
0100
0001
0001
0100
0100
,
1000
0000
0000
0000
0010
0000
0100
0000
0010
0000
0001
0000
0010
0100
0010
0000
,
0100
0000
0000
0000
0001
0000
0100
0000
0001
0000
0010
0000
0100
1000
0100
0000
,
1000
0010
0100
1000
0100
0010
0100
0001
,
0010
0000
0000
0000
0000
0000
0000
0000
0100
0000
1000
0001
1000
0000
0000
0000
,
0110
0100
0010
0000
1000
0000
0100
0000
,
1000
0000
0001
0010
0000
0001
0000
0100
,
0010
0001
0010
1000
0001
0000
1000
0100
,
0010
0100
1000
0001
0020
0000
0030
0000
,
0000
0000
0001
0010
0001
0010
0000
0001
,
0000
1000
0010
0100
0010
0000
1000
0000
,
0000
0000
0100
1000
0100
1000
0000
0002
,
0000
0003
0100
0000
1000
0000
0100
0000
0001
0000
0010
0000
1000
0000
0010
0000
,
0001
1000
0100
0010
0001
1000
0001
0010
,
0100
1000
0100
0010
0001
0100
0010
1000
,
0010
0100
0001
0010
0001
0010
0100
1000
,
0010
0001
0010
0100
2000
0000
3000
0000
,
0000
0000
0000
0000
0100
0000
0001
0000
0100
0000
0002
0000
0000
0003
0020
0000
,
0000
0000
0000
0030
0200
0000
0000
0300
2000
0000
0000
3000
0001
0000
0020
0000
,
0000
0000
0000
0030
0000
0000
0001
0100
,
0110
0000
0000
0000
1001
0000
0000
0000
0110
0000
0000
0000
0002
0000
0000
0003
,
0000
0000
0000
0000
0010
1000
0100
0000
,
0001
0000
0000
0000
0100
0000
0010
0000
0000
0000
0200
0000
0000
0000
0000
0300
,
2000
0000
0000
3000
0000
0000
0000
0000
0001
0000
0100
0000
1000
0000
0000
0000
,
0100
0000
0000
0000
0001
0000
0010
0000
0000
0000
0200
0000
0000
0000
0000
0300
,
2000
0000
0000
3000
0000
0000
0000
0000
0001
0000
0100
0000
1000
0000
0100
0000
,
0001
0000
0000
0000
1000
0000
0100
0000
0000
0000
0002
0000
0000
0000
0000
0003
,
0200
0000
0000
0300
0000
0000
0000
0000
0020
0000
0000
0000
0030
0000
0010
0000
,
0100
0000
1000
0001
0000
0010
0000
0002
,
0000
0003
0001
0100
0010
1000
0010
0100
,
1000
0100
0010
0100
0001
0010
0100
0001
,
0100
0010
0001
1000
0100
0010
0100
0010
,
0001
1000
0001
0010
0001
1000
0100
1000
,
0100
0001
0100
1000
0010
0001
1000
0100
,
0010
0100
0001
0010
0100
1000
0010
1000
,
0001
0010
0001
0100
0010
1000
0100
0010
,
0001
0010
1000
0001
0100
0010
0001
1000
,
1001
0000
0000
0101
0000
0000
0110
0000
,
0000
1010
0000
0000
1001
0001
1000
0000
,
1010
0000
0000
1100
0000
0000
0110
0000
,
0000
0011
0000
0000
0101
0001
0100
0000
,
1010
0000
0010
0110
0000
0100
0101
0000
,
0010
0011
0000
0010
0110
0100
1000
0000
,
0101
0000
0010
1010
0000
0100
0101
0000
,
0010
0011
0000
0100
1100
0100
1000
0000
,
0000
0000
0000
0000
,
0200
0000
0000
0000
0000
0000
0000
0000
0000
0000
0000
0000
0000
0000
0000
0300
,
0020
0000
0000
0000
0000
0000
0000
0000
0000
0000
0000
0000
0000
0000
0000
0030
,
2000
0000
0000
0000
0000
0000
0000
0000
0000
0000
0000
0000
0000
0000
0000
3000
,
0002
0000
0000
0000
0000
0000
0000
0000
0000
0000
0000
0000
0000
0000
0000
0003
,
1001
0000
0100
0001
0100
0001
0010
0110
,
0000
0100
1000
0010
1000
0010
1000
0100
,
1100
0000
0001
0001
0001
0100
0100
0110
,
0000
0100
0001
0010
0100
0001
0100
0010
,
0011
0001
1000
0100
,
0002
0000
0000
0003
0100
0000
1000
0000
0000
0000
0010
0000
0000
0000
0100
0000
,
0001
0100
1000
0100
0001
0010
0100
0010
,
0100
1000
0001
0100
0010
0000
1000
1000
,
1010
0000
0001
0100
0001
0100
0000
0020
,
0000
0030
0100
0000
1000
0000
0100
0002
,
0000
0000
0000
0000
0000
0000
0000
0003
0000
0000
0000
0000
1000
0000
0100
0000
,
1100
0011
1100
0001
,
0001
0100
0101
0000
1000
1000
1010
0000
,
0110
0000
0100
0001
0000
0010
0000
0100
,
1000
0010
0100
0001
0100
0010
1000
0100
,
0010
0000
0100
0000
1000
0000
0001
0000
0010
0000
0000
0000
0001
0000
1000
0100
,
1000
0000
0010
1000
0010
1000
1000
0100
,
0000
0000
0010
0000
0100
0000
0010
0000
0001
0000
1000
0000
0001
0000
0010
0001
,
0010
0000
0001
1000
0001
1000
1000
0100
,
0000
0100
1000
0001
0010
0001
0100
0001
,
1000
0100
0010
0100
1000
0001
0010
0100
,
0010
0001
1000
0100
0010
0100
0010
0001
,
1000
0001
0010
1000
0010
0100
1000
0010
,
0001
0000
1000
0000
0100
0000
0001
0000
1000
0000
0001
0000
0100
0000
0010
0100
,
0010
0000
0010
1000
0010
1000
1000
0001
,
0000
0100
0010
0001
0010
0100
0001
1000
,
0100
0000
0010
0001
0100
0000
0001
1000
,
1001
0110
1001
0011
,
0010
0000
0010
0100
0000
0001
0100
1000
,
0000
0000
0010
0000
1000
0000
0100
0010
0100
0000
0001
0000
0200
0000
0000
0300
,
0010
0000
0010
0001
0000
0100
1000
0100
,
0000
0000
0001
0000
0100
0000
0010
0000
1000
0000
0000
0000
0200
0000
0000
0300
,
1000
0000
0010
1000
0000
0010
0001
0010
,
0000
0000
0100
0000
0001
0000
0010
0001
0010
0000
0100
0000
0002
0000
0000
0003
,
0100
0000
1000
0010
0000
0001
0010
1000
,
0000
0000
0001
0000
0100
0000
1000
0000
0100
0000
0000
0000
0220
0000
0000
0330
;

//--------------- dance-single - Pax_Vesania ----------------
#NOTES:
     dance-single:
     Pax_Vesania:
     Challenge:
     18:
     0,0,0,0,0:
0001
0000
0000
0000
0100
0000
0001
0000
0000
0000
0010
0000
0100
1000
0100
0000
,
0000
0000
0100
0000
1000
0000
0010
0100
0010
0000
0100
0000
0002
0000
0000
0003
,
0010
0000
0000
0000
0100
0000
0010
0000
0000
0000
0100
0000
1000
0100
1000
0000
,
0000
0010
0001
0010
0110
0000
0101
0000
,
0001
0000
0010
0001
0000
1000
0010
0100
,
0000
0000
0001
0000
0010
0000
0001
1000
0100
0000
0010
0000
0200
0000
0300
0000
,
0100
0000
1000
0100
0000
0001
0100
1000
,
0000
0000
0001
0000
0100
0000
0001
0000
1000
0000
0000
0000
0100
0000
0100
0010
,
0001
0000
0100
0010
0000
0001
0010
1000
,
0000
0000
0100
0000
1000
0000
0010
0100
0001
0000
0010
0000
0002
0000
0000
0003
,
1000
0000
0001
0100
0000
0001
0100
1000
,
0000
0000
0100
0000
0010
0000
1000
0000
0001
0000
0000
0000
0100
0010
0100
0001
,
1000
0000
0100
1000
0100
1000
0010
0100
,
0010
0100
0001
0010
0001
0100
0010
0001
,
0010
1000
0100
0010
0100
1000
0001
0010
,
0100
0010
0001
0010
1000
0010
0100
1000
,
0100
0001
0100
0010
0100
1000
0001
0100
,
0010
1000
0100
0010
0100
0001
0100
1000
,
0001
1000
0100
1000
0001
0010
0001
1000
,
0001
1000
0001
1000
0001
1000
0001
1000
0001
0000
0000
0000
1001
0000
0000
0000
,
1100
0000
1000
0010
0000
0001
0010
1000
,
0000
0000
0010
0000
0100
0000
0001
1000
0001
0000
0100
0000
0020
0000
0030
0000
,
0110
0000
0001
0100
0000
1000
0100
0001
,
0000
0000
0010
0000
0100
0000
1000
0100
0010
0000
0000
0000
0010
0001
0100
0010
,
1000
0000
0010
0100
0001
1000
0001
1000
,
0100
0010
0100
1000
0001
0010
0001
0010
,
0100
0000
1000
0000
0010
0000
0100
0000
1000
0000
0100
0000
0010
0100
0001
0000
,
0010
0100
0001
0100
1000
0001
0010
0100
,
0010
0100
1000
0001
0100
0010
1000
0100
,
1000
0001
0010
1000
0001
0100
1000
0010
,
0001
0010
0100
0001
0010
0100
1000
0010
,
0100
0001
0100
0001
0100
0000
0010
0000
1000
0000
0000
0000
0110
0000
0000
0000
,
0001
0000
0100
0000
0001
0100
0001
0000
1000
0000
0010
0000
1000
0010
1000
0000
,
0001
0000
1000
0000
0010
0100
0010
0000
1000
0000
0001
0000
0100
0010
0100
0000
,
0001
0000
0100
0000
1000
0100
1000
0000
0100
0010
0100
0000
0001
1000
0100
0010
,
0100
0000
1000
0000
0001
0100
0001
0000
1000
0100
1000
0000
0001
0100
0001
0010
,
0100
0000
1000
0000
0001
1000
0100
0000
0010
0000
0100
1000
0001
0000
0100
0000
,
0100
0000
0001
0100
0010
0000
0100
0000
0001
0010
0100
0000
1000
0100
0010
0000
,
0100
0000
1000
0001
1000
0100
0010
0100
1000
0001
1000
0001
0010
0100
0010
0001
,
1000
0000
0000
0000
0000
0000
0000
0000
0101
0000
0001
1000
0100
0000
0000
0000
,
0010
0001
0010
0100
1000
0100
0010
0001
0010
0000
0100
0000
1000
0001
1000
0000
,
0010
1000
0010
1000
0100
0010
0001
0010
0100
0000
1000
0000
0001
0010
0001
0000
,
1000
0010
0100
0001
0010
0001
1000
0100
0010
0000
0001
0000
0010
0100
1000
0000
,
0100
0010
0001
0010
0100
1000
0100
0010
0001
0000
0010
0000
0001
1000
0001
1000
,
0001
0000
0001
0001
0010
0010
0100
1100
,
0000
0000
1000
0000
1000
0000
0001
0000
0001
0000
0100
0000
0010
1000
0010
1000
,
0010
0000
0100
0100
0001
0001
0010
0110
,
0000
0000
1000
0000
1000
0000
1000
0000
0100
0000
0010
0000
0010
0000
0001
1000
,
0100
0010
0001
1000
0001
0010
0100
1000
0001
0000
0100
0000
0010
1000
0010
0000
,
1000
0100
0010
0001
0100
0010
0100
0001
1000
0000
0010
0000
0100
0001
0100
0000
,
0001
1000
0001
0100
0010
1000
0010
0100
0001
0000
1000
0000
0001
0010
0100
0000
,
1000
0100
0010
0001
0010
0100
1000
0100
0010
0000
0001
0000
0100
0001
0100
0001
,
1000
0000
0010
0010
0100
0100
1000
1100
,
0000
0100
0100
0001
0001
1000
1000
0100
,
0011
0000
0010
0001
0010
0010
0001
0001
,
0101
1010
0011
1100
,
1000
0100
0010
0001
0010
0100
1000
0100
0010
0001
0010
0100
1000
0000
0001
0000
,
1000
0100
0010
0001
0010
0100
1000
0100
0010
0001
0010
0100
1000
0000
0001
0000
,
1000
0010
0100
0001
0100
0010
1000
0001
0010
0100
1000
0100
0010
0000
0001
0000
,
1000
0010
0100
0001
0100
0010
1000
0001
0010
0100
1000
0100
0010
0000
0001
0000
,
0010
0100
1000
0100
0010
0001
0010
0100
1000
0100
0010
0001
0010
0000
0001
0000
,
0010
0100
1000
0100
0010
0001
0010
0100
1000
0100
0010
0001
0010
0000
0100
0000
,
1000
0001
0100
0001
1000
0010
1000
0001
0100
0001
1000
0010
1000
0000
0001
0000
,
1000
0010
1000
0001
0100
0001
1000
0010
1000
0001
0100
0001
0010
0000
0100
0000
,
1000
0001
1000
0001
0100
0010
0100
0010
1000
0001
1000
0001
0100
0000
0001
0000
,
1000
0001
1000
0001
0100
0010
0100
0010
1000
0001
1000
0001
0100
0000
0001
0000
,
0100
0001
0100
0001
1000
0100
0010
0001
0010
0100
1000
0001
1000
0000
0001
0000
,
0100
0001
0100
0001
1000
0100
0010
0001
0010
0100
1000
0001
1000
0000
0010
0000
,
0100
0001
1000
0010
0100
0001
0100
0010
1000
0001
0100
0010
1000
0000
0010
0000
,
0100
0001
1000
0010
0100
0001
0100
0010
1000
0001
0100
0010
1000
0000
0100
0000
,
0010
0001
0010
0100
1000
0010
1000
0001
1000
0010
1000
0100
0010
0000
0001
0000
,
0010
0001
0010
0100
1000
0010
0100
0010
1000
0100
0010
0001
0100
0010
1000
0001
,
1000
0000
0101
1010
0000
1010
0101
0000
,
0011
0000
0110
0000
0000
0000
1010
0000
1100
0000
1000
0100
0010
0000
0001
0010
,
0100
0000
0011
0101
0000
1100
1010
0000
,
0011
0000
0101
0000
0000
0000
0101
0000
1010
0000
1000
0010
0100
0000
0001
0100
,
0010
0000
0110
1001
0000
0101
0011
0000
,
1010
0000
1100
0000
0000
0000
1010
0000
0101
0000
0001
0010
0100
0000
0010
0100
,
1000
0000
1100
0110
0000
0011
0110
0000
,
1100
0000
0110
0000
0000
0000
0011
0000
0110
0000
0010
0001
0100
0000
0000
0000
,
0000
0000
0000
0000
,
0220
0000
0000
0000
0000
0000
0000
0330
,
0202
0000
0000
0000
0000
0000
0000
0303
,
2200
0000
0000
0000
0000
0000
0000
3300
,
2002
0000
0000
0000
0000
0000
0000
3003
,
0101
0000
0100
0100
0001
0001
0010
0110
,
0000
0100
0100
1000
0010
0010
0100
0100
,
0101
0000
0000
0000
0100
0001
0100
0001
1000
0100
0010
0001
0010
0100
1000
0000
,
0000
0000
0100
0000
0100
0000
0100
0000
0010
0000
0010
0000
0001
1000
0001
0010
,
0100
1000
0100
0010
0001
0010
0100
1000
0100
0000
1000
0000
0001
0100
0001
0000
,
1000
0100
0010
0001
0010
0100
1000
0100
0010
0000
0001
0000
1000
0010
1000
0000
,
0100
0010
0001
0010
0100
1000
0100
0010
0001
0000
0100
0000
0010
1000
0010
0000
,
0100
0001
0010
0100
1000
0010
1000
0100
0010
0100
1000
0100
0010
0001
0010
0100
,
0010
0000
0001
0001
0010
0010
1000
1010
,
0000
0000
0010
0000
0010
0000
0001
0000
0001
0000
0100
0000
0100
0000
0001
0100
,
0010
0000
1000
0100
0001
0100
1000
0010
,
1010
0101
1100
0011
,
0000
0000
0000
0000
0100
0000
0000
0000
0001
0000
0001
1000
0100
0000
0000
0000
,
0010
0001
0010
0100
1000
0100
0010
0001
0010
0100
1000
0100
0010
0000
0001
0000
,
0010
0001
0010
0100
1000
0100
0010
0001
0010
0100
1000
0100
0010
0000
0001
0000
,
1000
0100
0010
0001
1000
0001
0010
0100
1000
0100
0010
0001
1000
0001
0010
0100
,
1000
0000
0010
0010
0010
0010
0010
1010
,
0000
0000
1000
0000
1000
0000
1000
0000
1000
0000
1000
0000
0010
1000
0100
0010
,
0001
0000
0100
0100
0100
0100
0100
0101
,
0000
0000
0001
0000
0001
0000
0001
0000
1000
0000
1000
0000
0100
0000
0100
0010
,
0001
0010
0100
1000
0001
0100
0001
1000
0100
0010
0001
1000
0010
0000
1000
0000
,
0001
1000
0100
0010
0001
1000
0010
1000
0001
0010
0100
1000
0100
0000
0010
0000
,
0001
0010
0100
1000
0001
0100
0001
1000
0100
0010
0001
0010
0100
0000
1000
0000
,
0010
0100
0010
1000
0010
0100
0001
0100
0001
1000
0001
0010
0100
1000
0100
0010
,
0001
0000
1000
0010
0001
0010
0100
1100
,
0000
0000
0100
0000
0010
0000
0100
0000
0001
0000
0100
0000
0010
0000
1000
0100
,
0010
0000
0001
0010
1000
0001
0100
1000
,
1100
0011
1010
0101
,
0101
0000
0110
0101
0000
0011
0101
0110
,
0000
0000
1100
0000
1010
0000
1000
0010
1000
0000
0001
0000
0020
0000
0030
0000
,
0110
0000
0101
0011
0000
0101
0110
1010
,
0000
0000
0101
0000
1010
0000
0101
0000
0110
0000
0000
0000
1000
0000
0001
0100
,
0001
0000
0011
1001
0000
0011
0110
1100
,
0000
0000
1100
0000
1001
0000
1000
0001
1000
0000
0010
0000
0200
0000
0300
0000
,
0110
0000
0101
0011
0000
0101
1010
1100
,
0000
0000
1100
0000
1001
0000
1000
0010
1000
0000
0000
0000
0001
0000
0100
0010
;

//--------------- dance-single - Pax_Vesania ----------------
#NOTES:
     dance-single:
     Pax_Vesania:
     Edit:
     19:
     0,0,0,0,0:
0001
0000
0000
0000
0100
0000
0001
0000
0000
0000
0010
0000
0100
1000
0100
0000
,
0000
0000
0100
0000
1000
0000
0010
0100
0010
0000
0100
0000
0002
0000
0000
0003
,
0010
0000
0000
0000
0100
0000
0010
0000
0000
0000
0100
0000
1000
0100
1000
0000
,
0000
0010
0001
0010
0110
0000
0101
0000
,
0001
0000
0010
0001
0000
1000
0010
0100
,
0000
0000
0001
0000
0010
0000
0001
1000
0100
0000
0010
0000
0200
0000
0300
0000
,
0100
0000
1000
0100
0000
0001
0100
1000
,
0000
0000
0001
0000
0100
0000
0001
0000
1000
0000
0000
0000
0100
0000
0100
0010
,
0001
0000
0100
0010
0000
0001
0010
1000
,
0000
0000
0100
0000
1000
0000
0010
0100
0001
0000
0010
0000
0002
0000
0000
0003
,
1000
0000
0001
0100
0000
0001
0100
1000
,
0000
0000
0100
0000
0010
0000
1000
0000
0001
0000
0000
0000
0100
0010
0100
0001
,
1000
0000
0100
1000
0100
1000
0010
0100
,
0010
0100
0001
0010
0001
0100
0010
0001
,
0010
1000
0100
0010
0100
1000
0001
0010
,
0100
0010
0001
0010
1000
0010
0100
1000
,
0100
0001
0100
0010
0100
1000
0001
0100
,
0010
1000
0100
0010
0100
0001
0100
1000
,
0001
1000
0100
1000
0001
0010
0001
1000
,
0001
1000
0001
1000
0001
1000
0001
1000
0001
0000
0000
0000
1001
0000
0000
0000
,
1100
0000
1000
0010
0000
0001
0010
1000
,
0000
0000
0010
0000
0100
0000
0001
1000
0001
0000
0100
0000
0020
0000
0030
0000
,
0110
0000
0001
0100
0000
1000
0100
0001
,
0000
0000
0010
0000
0100
0000
1000
0100
0010
0000
0000
0000
0010
0001
0100
0010
,
1000
0000
0010
0100
0001
1000
0001
1000
,
0100
0010
0100
1000
0001
0010
0001
0010
,
0100
0000
1000
0000
0010
0000
0100
0000
1000
0000
0100
0000
0010
0100
0001
0000
,
0010
0100
0001
0100
1000
0001
0010
0100
,
0010
0100
1000
0001
0100
0010
1000
0100
,
1000
0001
0010
1000
0001
0100
1000
0010
,
0001
0010
0100
0001
0010
0100
1000
0010
,
0100
0001
0100
0001
0100
0000
0010
0000
1000
0000
0000
0000
0110
0000
0000
0000
,
0001
0000
0100
0000
0001
0100
0001
0000
1000
0000
0010
0000
1000
0010
1000
0000
,
0001
0000
1000
0000
0010
0100
0010
0000
1000
0000
0001
0000
0100
0010
0100
0000
,
0001
0000
0100
0000
1000
0100
1000
0000
0100
0010
0100
0000
0001
1000
0100
0010
,
0100
0000
1000
0000
0001
0100
0001
0000
1000
0100
1000
0000
0001
0100
0001
0010
,
0100
0000
1000
0000
0001
1000
0100
0000
0010
0000
0100
1000
0001
0000
0100
0000
,
0100
0000
0001
0100
0010
0000
0100
0000
0001
0010
0100
0000
1000
0100
0010
0000
,
0100
0000
1000
0001
1000
0100
0010
0100
1000
0001
1000
0001
0010
0100
0010
0001
,
1000
0000
0000
0000
0000
0000
0000
0000
0101
0000
0001
1000
0100
0000
0000
0000
,
0010
0001
0010
0100
1000
0100
0010
0001
0010
0100
1000
0001
1000
0001
0010
0100
,
1000
0100
0010
0001
1000
0001
0010
0100
1000
0100
0010
0001
0010
0100
1000
0010
,
0100
0001
0010
0001
1000
0100
0010
0100
1000
0001
0010
0100
0010
0001
0010
0100
,
1000
0100
0010
0001
0100
0010
1000
0100
1000
0001
0010
0001
1000
0010
1000
0001
,
1000
0000
0001
0001
0010
0010
0100
1100
,
0000
0000
1000
0000
1000
0000
0001
0000
0001
0000
0100
0000
0010
1000
0010
1000
,
0010
0000
0100
0100
0001
0001
0010
0110
,
0000
0000
1000
0000
1000
0000
1000
0000
0100
0000
0010
0000
0010
0000
0001
1000
,
0100
0010
0001
1000
0001
0010
0100
1000
0001
0100
0010
1000
0010
0100
0001
1000
,
0100
0010
0001
1000
0001
0010
0100
1000
0001
0100
0010
1000
0001
0100
0010
1000
,
0010
1000
0001
0100
0001
0010
0100
1000
0100
0010
0001
1000
0100
0010
0100
0010
,
0001
0010
0100
1000
0100
0010
0100
0010
0001
1000
0001
0100
0001
1000
0001
0100
,
0010
0000
0010
0010
0100
0100
1000
1100
,
0000
0100
0100
0001
0001
1000
1000
0100
,
0011
0000
0010
0001
0010
0010
0001
0001
,
0101
1010
0011
1100
,
1000
0100
0010
0001
0010
0100
1000
0100
0010
0001
0010
0100
1000
0001
1000
0001
,
1000
0100
0010
0001
0010
0100
1000
0100
0010
0001
0010
0100
1000
0001
1000
0001
,
1000
0010
0100
0001
0100
0010
1000
0001
0010
0100
1000
0100
0010
0001
1000
0001
,
1000
0010
0100
0001
0100
0010
1000
0001
0010
0100
1000
0100
0010
0001
0010
0001
,
0010
0100
1000
0100
0010
0001
0010
0100
1000
0100
0010
0001
0010
0001
0010
0100
,
0010
0100
1000
0100
0010
0001
0010
0100
1000
0100
0010
0001
0010
0100
1000
0100
,
1000
0001
0100
0001
1000
0010
1000
0001
0100
0001
1000
0010
1000
0001
1000
0010
,
1000
0001
0100
0001
0100
0001
1000
0010
1000
0001
0100
0001
0010
0100
1000
0001
,
1000
0001
1000
0001
0100
0010
0100
0010
1000
0001
1000
0001
0100
0001
0100
0010
,
1000
0001
1000
0001
0100
0010
0100
0010
1000
0001
1000
0001
0100
0001
0100
0001
,
0010
0001
1000
0001
1000
0100
0010
0001
0010
0100
1000
0001
1000
0010
1000
0001
,
0100
0001
0100
0001
1000
0100
0010
0001
0010
0100
1000
0001
1000
0010
1000
0001
,
0100
0001
1000
0010
0100
0001
0100
0010
1000
0001
0100
0010
1000
0010
0100
0001
,
0100
0001
1000
0010
0100
0001
0100
0010
1000
0001
0100
0010
1000
0100
0010
0001
,
0010
0001
0010
0100
1000
0010
1000
0001
1000
0010
1000
0100
0010
0001
0010
0100
,
1000
0001
0010
0100
1000
0010
0100
0010
1000
0100
0010
0001
0100
0010
1000
0001
,
1000
0000
0101
1010
0000
1010
0101
0000
,
0011
0000
0110
0000
0000
0000
1010
0000
1100
0000
1000
0100
0010
0000
0001
0010
,
0100
0000
0011
0101
0000
1100
1010
0000
,
0011
0000
0101
0000
0000
0000
0101
0000
1010
0000
1000
0010
0100
0000
0001
0100
,
0010
0000
0110
1001
0000
0101
0011
0000
,
1010
0000
1100
0000
0000
0000
1010
0000
0101
0000
0001
0010
0100
0000
0010
0100
,
1000
0000
1100
0110
0000
0011
0110
0000
,
1100
0000
0110
0000
0000
0000
0011
0000
0110
0000
0010
0001
0100
0000
0000
0000
,
0000
0000
0000
0000
,
0220
0000
0000
0000
0000
0000
0000
0330
,
0202
0000
0000
0000
0000
0000
0000
0303
,
2200
0000
0000
0000
0000
0000
0000
3300
,
2002
0000
0000
0000
0000
0000
0000
3003
,
0101
0000
0100
0100
0001
0001
0010
0110
,
0000
0100
0100
1000
0010
0010
0100
0100
,
0101
0000
0000
0000
0100
0001
0100
0001
1000
0100
0010
0001
0010
0100
1000
0000
,
0000
0000
0100
0000
0100
0000
0100
0000
0010
0000
0010
0000
0001
1000
0001
0010
,
0100
1000
0100
0010
0001
0010
0100
1000
0100
0010
0001
0100
0001
1000
0001
0100
,
0010
0100
0001
0010
0100
1000
0100
0010
0001
0100
0001
1000
0010
1000
0001
0100
,
0010
1000
0001
0010
0100
1000
0100
0010
0001
0100
0010
0100
0001
0010
0100
1000
,
0001
1000
0100
0010
0100
1000
0100
0010
0001
1000
0001
0010
0100
1000
0100
1000
,
0001
0000
0001
0001
0010
0010
1000
1010
,
0000
0000
0010
0000
0010
0000
0001
0000
0001
0000
0100
0000
0100
0000
0001
0100
,
0010
0000
1000
0100
0001
0100
1000
0010
,
1010
0101
1100
0011
,
0000
0000
0000
0000
0100
0000
0000
0000
0001
0000
0001
1000
0100
0000
0000
0000
,
0010
0001
0010
0100
1000
0100
0010
0001
0010
0100
1000
0100
0010
0001
0010
0100
,
0010
0001
0010
0100
1000
0100
0010
0001
0010
0100
1000
0100
0010
0001
1000
0001
,
1000
0100
0010
0001
1000
0001
0010
0100
1000
0100
0010
0001
1000
0001
0010
0100
,
1000
0000
0010
0010
0010
0010
0010
1010
,
0000
0000
1000
0000
1000
0000
1000
0000
1000
0000
1000
0000
0010
1000
0100
0010
,
0001
0000
0100
0100
0100
0100
0100
0101
,
0000
0000
0001
0000
0001
0000
0001
0000
1000
0000
1000
0000
1000
0000
0100
0010
,
0001
0010
0100
1000
0001
0100
0001
1000
0100
0010
0001
1000
0010
1000
0010
0100
,
0001
1000
0100
0010
0001
1000
0010
1000
0001
0010
0100
1000
0100
0010
0001
0010
,
0001
0010
0100
1000
0001
0100
0001
1000
0100
0010
0001
0010
0100
1000
0010
0100
,
0001
0100
0010
1000
0010
0100
0001
0100
0001
1000
0001
0010
0100
1000
0100
0010
,
0001
0000
1000
0010
0001
0010
0100
1100
,
0000
0000
0100
0000
0010
0000
0100
0000
0001
0000
0100
0000
0010
0000
1000
0100
,
0010
0000
0001
0010
1000
0001
0100
1000
,
1100
0011
1010
0101
,
0101
0000
0110
0101
0000
0011
0101
0110
,
0000
0000
1100
0000
1010
0000
1000
0010
1000
0000
0001
0000
0020
0000
0030
0000
,
0110
0000
0101
0011
0000
0101
0110
1010
,
0000
0000
0101
0000
1010
0000
0101
0000
0110
0000
0000
0000
1000
0000
0001
0100
,
0001
0000
0011
1001
0000
0011
0110
1100
,
0000
0000
1100
0000
1001
0000
1000
0001
1000
0000
0010
0000
0200
0000
0300
0000
,
0110
0000
0101
0011
0000
0101
1010
1100
,
0000
0000
1100
0000
1001
0000
1000
0010
1000
0000
0000
0000
0001
0000
0100
0010
;
