#TITLE:NIGHT OF FIRE;
#SUBTITLE:;
#ARTIST:NIKO;
#TITLETRANSLIT:;
#SUBTITLETRANSLIT:;
#ARTISTTRANSLIT:;
#GENRE:;
#CREDIT:locuuraa;
#BANNER:NIGHT OF FIRE-bn.png;
#BACKGROUND:NIGHT OF FIRE-cd.png;
#LYRICSPATH:;
#CDTITLE:./CDTitles/Para Para Paradise.png;
#MUSIC:NIGHT OF FIRE.MP3;
#OFFSET:-0.000000;
#SAMPLESTART:58.540001;
#SAMPLELENGTH:12.000000;
#SELECTABLE:YES;
#BPMS:0.000000=155.000000
;
#STOPS:
;
#BGCHANGES:0.500=NIGHT OF FIRE.mp4=1.000=0=0=1=====,
99999=-nosongbg-=1.000=0=0=0 // don't automatically add -songbackground-
;
#KEYSOUNDS:;
#ATTACKS:;

//---------------para-single - ParaPara----------------
#NOTES:
     para-single:
     ParaPara:
     Beginner:
     3:
     0.185979,0.330934,0.010940,0.087520,0.000000,119.000000,118.000000,1.000000,8.000000,0.000000,0.000000,0.185979,0.330934,0.010940,0.087520,0.000000,119.000000,118.000000,1.000000,8.000000,0.000000,0.000000:
00000
00000
00000
00000
,
00000
00000
00000
00000
,
00000
00000
00000
00000
,
00000
00000
00000
00000
,
00000
00000
00000
20002
,
00000
00000
00000
00000
,
00000
30003
00000
00000
,
00000
00000
00000
00000
,
00000
00000
00000
00000
00000
00001
00000
00000
,
00000
00000
00000
00000
00000
10000
00000
00000
,
00000
00000
00010
00000
,
01000
00000
00000
00000
00000
00100
00000
00000
,
00000
00100
00000
00000
00000
00002
00000
00003
,
00000
00000
00000
00000
00000
20000
00000
30000
,
00000
00000
00010
00000
,
01000
00000
00000
00000
00000
00100
00000
00000
,
00000
00100
00000
00000
01000
00000
01000
00000
,
00000
00000
00010
00010
,
00000
00000
00000
00000
00010
01000
00010
01000
,
00100
00100
00010
01000
,
00010
01000
01000
01000
,
00000
00000
00010
00010
,
00000
00000
00000
00000
00010
01000
00010
01000
,
00100
00100
00010
01000
,
00010
01000
00010
00000
,
00010
00000
01000
00000
,
01000
00000
00000
00000
,
00100
00100
00000
00000
,
00100
00100
00010
00000
,
00010
00000
01000
00000
,
01000
00000
00000
00000
01000
00100
00010
00001
,
00000
00000
00000
00000
00010
00100
01000
10000
,
00000
00000
00100
00000
,
00100
00000
00010
01000
,
00010
00000
01000
00010
,
01000
00000
00010
00010
,
01000
01000
00100
00000
,
00100
00000
00010
01000
,
00010
00000
01000
00010
,
01000
00000
00010
00010
,
01000
01000
00100
00000
,
00100
00000
00010
01000
,
00010
00000
01000
00010
,
01000
00000
00010
00010
,
01000
01000
00100
00000
,
00100
00000
00010
01000
,
00010
00000
01000
00010
,
01000
00000
01000
00010
,
00000
00000
01000
00000
00000
00002
00000
00003
,
00000
00000
00000
00000
00000
20000
00000
30000
,
00000
00000
00010
00000
,
01000
00000
00000
00000
00000
00100
00000
00000
,
00000
00100
00000
00000
00000
00002
00000
00003
,
00000
00000
00000
00000
00000
20000
00000
30000
,
00000
00000
00010
00000
,
01000
00000
00000
00000
;

//---------------para-single - Normal----------------
#NOTES:
     para-single:
     Normal:
     Easy:
     4:
     0.185979,0.331686,0.010940,0.328199,0.000000,119.000000,118.000000,1.000000,30.000000,0.000000,0.000000,0.185979,0.331686,0.010940,0.328199,0.000000,119.000000,118.000000,1.000000,30.000000,0.000000,0.000000:
00000
00000
00000
00000
,
00000
00000
00000
00000
,
00000
00000
00000
00000
,
00000
00000
00000
00000
,
00000
00000
00000
20002
,
00000
00000
00000
00000
,
00000
00000
00000
30003
,
00000
00000
00000
00000
,
00000
00000
00000
00000
00000
00002
00000
00003
,
00000
00000
00000
00000
00000
20000
00000
30000
,
00000
00000
00000
00000
00020
00030
00000
00000
,
02000
03000
00000
00000
00000
00100
00000
00000
,
00000
00100
00000
00000
00000
00002
00000
00003
,
00000
00000
00000
00000
00000
20000
00000
30000
,
00000
00000
00000
00000
00020
00030
00000
00000
,
02000
03000
00000
00000
00000
00100
00000
00000
,
00000
00100
00000
00000
01000
00000
01000
00000
,
00000
00000
00010
00010
,
00000
00000
00000
00000
00010
01000
00010
01000
,
00100
00100
00010
01000
,
00010
01000
01000
01000
,
00000
00000
00010
00010
,
00000
00000
00000
00000
00010
01000
00010
01000
,
00100
00100
00010
01000
,
00010
01000
00010
00000
,
00010
00000
01000
00000
,
01000
00000
00000
00000
,
00100
00100
00000
00000
,
00100
00100
00010
00000
,
00010
00000
01000
00000
,
01000
00000
00000
00000
01000
00100
00010
00001
,
00000
00000
00000
00000
00010
00100
01000
10000
,
00000
00000
00000
00000
00200
00300
00000
00000
,
00100
00000
00010
01000
,
00020
00030
00000
00000
01000
00000
00010
00000
,
02000
03000
00000
00000
00010
00000
00010
00000
,
01000
00000
01000
00000
00200
00300
00000
00000
,
00100
00000
00010
01000
,
00020
00030
00000
00000
01000
00000
00010
00000
,
02000
03000
00000
00000
00010
00000
00010
00000
,
01000
00000
01000
00000
00200
00300
00000
00000
,
00100
00000
00010
01000
,
00020
00030
00000
00000
01000
00000
00010
00000
,
02000
03000
00000
00000
00010
00000
00010
00000
,
01000
00000
01000
00000
00200
00300
00000
00000
,
00100
00000
00010
01000
,
00020
00030
00000
00000
01000
00000
00010
00000
,
02000
03000
00000
00000
01000
00000
00010
00000
,
00000
00000
01000
00000
00000
00002
00000
00003
,
00000
00000
00000
00000
00000
20000
00000
30000
,
00000
00000
00000
00000
00020
00030
00000
00000
,
02000
03000
00000
00000
00000
00100
00000
00000
,
00000
00100
00000
00000
00000
00002
00000
00003
,
00000
00000
00000
00000
00000
20000
00000
30000
,
00000
00000
00000
00000
00020
00030
00000
00000
,
02000
03000
00000
00000
00000
00000
00000
00000
;

//---------------para-single - Hard----------------
#NOTES:
     para-single:
     Hard:
     Medium:
     6:
     0.315696,0.400585,0.153159,0.021880,0.049230,202.000000,188.000000,14.000000,2.000000,0.000000,0.000000,0.315696,0.400585,0.153159,0.021880,0.049230,202.000000,188.000000,14.000000,2.000000,0.000000,0.000000:
00000
00000
00000
00000
,
00000
00000
00000
00000
,
00000
20000
00000
30000
,
00000
00002
00000
00003
,
00000
10100
00000
00000
,
00000
00101
00000
00000
,
00000
01000
00000
00010
,
00000
00000
00000
00000
10000
00000
00000
00001
00000
00000
01000
00000
00000
00010
00000
00000
,
10000
00001
00000
00000
00010
00001
00000
00000
,
01000
10000
00000
00000
00010
00000
01000
00000
,
00010
00000
00000
00000
01000
10000
00000
00000
,
00010
00001
00000
00000
01000
00000
00010
00000
,
01000
00000
00000
00000
00010
00001
00000
00000
,
01000
10000
00000
00000
00010
00000
01000
00000
,
00010
00000
00000
00000
01000
10000
00000
00000
,
00010
00000
00001
00000
00000
00000
00000
00000
10000
00000
00000
00001
00000
00000
01000
00000
,
00000
00010
00000
00000
10000
00000
00001
00000
00000
00000
00000
00000
00000
00000
00000
00000
,
00010
00010
00000
00000
,
01000
00000
01000
00000
00010
00001
00100
00000
,
01000
10000
00100
00000
00010
00000
01000
00000
,
00100
00000
00000
00000
,
01000
01000
00000
00000
,
00010
00000
00010
00000
01000
10000
00100
00000
,
00010
00000
00001
00000
00100
00000
00000
00000
10000
00000
00000
00001
00000
00000
01000
00000
,
00000
00010
00000
00000
10000
00000
00000
00000
01000
00000
00000
00000
00000
00000
00000
00000
,
01000
00000
00010
00000
,
00010
00000
01000
00001
,
00010
00000
10000
00000
00001
01000
00010
00100
,
00000
00000
00010
00000
,
00010
00000
01000
00000
,
01000
00000
00000
00000
00001
00010
00100
01000
,
10000
00000
00000
00000
,
00000
00000
00101
00010
,
01001
00000
00000
00000
00000
01000
00100
00010
,
00100
01000
10000
00000
00000
00010
00100
01000
,
00100
00010
00001
00000
00000
00000
00000
00000
,
00000
00000
10100
01000
,
10010
00000
00000
00000
00000
00010
00100
01000
,
00100
00010
00001
00000
00000
01000
00100
00010
,
00100
01000
10000
00000
00000
00000
00000
00000
,
00000
00000
00101
00010
,
01001
00000
00000
00000
00000
00100
01000
10000
,
00100
00010
00001
00000
00000
00100
00010
00001
,
00100
01000
10000
00000
00000
00000
00000
00000
,
00000
00000
10100
01000
,
10010
00000
00000
00000
00000
00100
01000
10000
,
00100
00010
00001
00000
00000
00100
00010
00001
,
00100
01000
10000
00000
00000
10000
01000
00100
,
00010
00100
01010
00000
,
00000
00000
00001
00100
,
00001
00000
00100
00000
01000
10000
00000
00000
,
00010
00001
00000
00000
10000
00000
00100
00000
,
10000
00000
00100
00000
00010
00001
00000
00000
,
01000
10000
00000
00000
00010
00000
01000
00000
,
00010
00000
00100
00000
01010
10001
00100
00000
,
00000
01010
00100
00000
00001
00000
00000
00000
,
00000
00010
00100
01000
10000
00000
00000
00000
00000
00000
00000
00000
;

//---------------para-single - Expert----------------
#NOTES:
     para-single:
     Expert:
     Hard:
     6:
     0.404779,0.487558,0.164099,0.043760,0.207859,259.000000,244.000000,15.000000,4.000000,0.000000,0.000000,0.404779,0.487558,0.164099,0.043760,0.207859,259.000000,244.000000,15.000000,4.000000,0.000000,0.000000:
// measure 0
00000
00000
00000
00000
,  // measure 1
00000
10100
00000
00000
,  // measure 2
00000
00101
00000
00000
,  // measure 3
00000
20000
00000
30000
,  // measure 4
00000
00002
00000
00003
,  // measure 5
00000
02000
03000
00020
,  // measure 6
00030
00000
00000
00000
00000
10000
00000
00000
00001
00000
00000
01000
00000
00000
00010
00000
,  // measure 7
00000
00000
10000
00000
00000
00000
00000
00000
00001
00000
00000
00000
00000
00000
00000
00100
00000
00000
00000
00000
00000
00000
00000
00000
00000
00000
00000
00000
00010
00000
00000
00000
,  // measure 8
00001
00100
00000
01000
10000
00100
00000
00001
,  // measure 9
00000
00100
00000
00000
00001
00000
00000
00100
00000
00000
00001
00000
00000
00000
01000
00000
,  // measure 10
10000
00100
00000
00010
00001
00100
00000
10000
,  // measure 11
00000
00100
00000
00000
10000
00000
00000
00100
00000
00000
10000
00000
00000
00000
00010
00000
,  // measure 12
00001
00100
00000
01000
10000
00100
00000
00010
,  // measure 13
00000
01000
00000
00000
00010
00000
00000
01000
00000
00000
00010
00000
00000
00000
01000
00000
,  // measure 14
10000
00100
00000
00010
00001
00100
00000
10000
,  // measure 15
00000
00001
00000
00000
01000
00000
00000
00010
00000
00000
10000
00000
00001
00000
00000
00000
,  // measure 16
00000
00000
00000
00010
00000
00010
00000
00000
,  // measure 17
00000
00000
00000
01000
00000
01000
00000
00010
,  // measure 18
00001
00100
00000
01000
10000
00100
00000
00001
,  // measure 19
00000
10000
00000
00000
00010
00000
00000
01000
00000
00000
00001
00000
00000
00000
00000
00000
,  // measure 20
00000
00000
00000
01000
00000
01000
00000
00000
,  // measure 21
00000
00000
00000
00010
00000
00010
00000
01000
,  // measure 22
10000
00100
00000
00010
00001
00100
00000
10000
,  // measure 23
00000
00001
00000
00000
01000
00000
00000
00010
00000
00000
10000
00000
00000
00000
00100
01000
,  // measure 24
00000
00000
00000
00000
00000
00000
00000
00000
00000
00000
00000
00000
00000
00000
00000
00000
00000
00000
00000
00000
00000
00000
00000
00000
00000
00000
00000
00000
00000
00000
00000
00000
00000
00000
00000
00000
00000
00000
00000
00000
00000
00000
00000
00000
00000
00000
00000
00000
00000
00000
00000
00000
00000
00000
00000
00000
00000
00000
00000
00000
00000
00000
00000
00000
00000
00000
00000
00000
00000
00000
00000
00100
00000
00000
00000
00000
00000
00000
00000
00000
00000
00000
00000
01000
00000
00000
00000
00000
00000
00000
00000
00000
00000
00000
00000
00000
00000
00000
00000
00000
00000
00000
00000
00000
00000
00000
00000
00000
00000
00000
00000
00000
00000
00000
00000
00000
00000
00000
00000
00000
00000
00000
00000
00000
00000
00000
00000
00000
00000
00000
00000
00000
00000
00000
00000
00000
00000
00000
00000
00000
00000
00000
00000
00000
00000
00000
00000
00000
00000
00000
00000
00000
00000
00000
00000
00000
00000
00000
00000
00000
00000
00000
00000
00000
00000
00000
00000
00000
00100
00000
00000
00000
00000
00000
00000
00000
00000
00000
00000
00000
00010
00000
00000
00000
00000
00000
00000
00000
00000
00000
00000
00000
,  // measure 25
00000
00000
00000
00000
00000
00000
00000
00000
00000
00000
00000
00000
00000
00000
00000
00000
00000
00000
00000
00000
00000
00000
00000
00000
00000
00000
00000
00000
00000
00000
00000
00000
00000
00000
00000
00000
00000
00000
00000
00000
00000
00000
00000
00000
00000
00000
00000
00000
00000
00000
00000
00000
00000
00000
00000
00000
00000
00000
00000
00000
00000
00000
00000
00000
00000
00000
00000
00000
00000
00000
00000
00100
00000
00000
00000
00000
00000
00000
00000
00000
00000
00000
00000
00010
00000
00000
00000
00000
00000
00000
00000
00000
00000
00000
00000
00000
00000
00000
00000
00000
00000
00000
00000
00000
00000
00000
00000
00000
00000
00000
00000
00000
00000
00000
00000
00000
00000
00000
00000
00000
00000
00000
00000
00000
00000
00000
00000
00000
00000
00000
00000
00000
00000
00000
00000
00000
00000
00000
00000
00000
00000
00000
00000
00000
00000
00000
00000
00000
00000
00000
00000
00000
00000
00000
00000
00000
00000
00000
00000
00000
00000
00000
00000
00000
00000
00000
00000
00000
00100
00000
00000
00000
00000
00000
00000
00000
00000
00000
00000
00000
00000
00000
00000
00000
00000
00000
00000
00000
00000
00000
00000
00000
,  // measure 26
01000
00001
00000
00100
00010
10000
00000
00001
,  // measure 27
01000
00000
00010
00000
00100
00000
00000
00000
00000
00000
00000
00000
00000
00000
00100
00010
,  // measure 28
00000
00000
00000
00000
00000
00000
00000
00000
00000
00000
00000
00000
00000
00000
00000
00000
00000
00000
00000
00000
00000
00000
00000
00000
00000
00000
00000
00000
00000
00000
00000
00000
00000
00000
00000
00000
00000
00000
00000
00000
00000
00000
00000
00000
00000
00000
00000
00000
00000
00000
00000
00000
00000
00000
00000
00000
00000
00000
00000
00000
00000
00000
00000
00000
00000
00000
00000
00000
00000
00000
00000
00100
00000
00000
00000
00000
00000
00000
00000
00000
00000
00000
00000
00010
00000
00000
00000
00000
00000
00000
00000
00000
00000
00000
00000
00000
00000
00000
00000
00000
00000
00000
00000
00000
00000
00000
00000
00000
00000
00000
00000
00000
00000
00000
00000
00000
00000
00000
00000
00000
00000
00000
00000
00000
00000
00000
00000
00000
00000
00000
00000
00000
00000
00000
00000
00000
00000
00000
00000
00000
00000
00000
00000
00000
00000
00000
00000
00000
00000
00000
00000
00000
00000
00000
00000
00000
00000
00000
00000
00000
00000
00000
00000
00000
00000
00000
00000
00000
00100
00000
00000
00000
00000
00000
00000
00000
00000
00000
00000
00000
01000
00000
00000
00000
00000
00000
00000
00000
00000
00000
00000
00000
,  // measure 29
00000
00000
00000
00000
00000
00000
00000
00000
00000
00000
00000
00000
00000
00000
00000
00000
00000
00000
00000
00000
00000
00000
00000
00000
00000
00000
00000
00000
00000
00000
00000
00000
00000
00000
00000
00000
00000
00000
00000
00000
00000
00000
00000
00000
00000
00000
00000
00000
00000
00000
00000
00000
00000
00000
00000
00000
00000
00000
00000
00000
00000
00000
00000
00000
00000
00000
00000
00000
00000
00000
00000
00100
00000
00000
00000
00000
00000
00000
00000
00000
00000
00000
00000
01000
00000
00000
00000
00000
00000
00000
00000
00000
00000
00000
00000
00000
00000
00000
00000
00000
00000
00000
00000
00000
00000
00000
00000
00000
00000
00000
00000
00000
00000
00000
00000
00000
00000
00000
00000
00000
00000
00000
00000
00000
00000
00000
00000
00000
00000
00000
00000
00000
00000
00000
00000
00000
00000
00000
00000
00000
00000
00000
00000
00000
00000
00000
00000
00000
00000
00000
00000
00000
00000
00000
00000
00000
00000
00000
00000
00000
00000
00000
00000
00000
00000
00000
00000
00000
00001
00000
00000
00000
00000
00000
00000
00000
00000
00000
00000
00000
00000
00000
00000
00000
00000
00000
00000
00000
00000
00000
00000
00000
,  // measure 30
00010
00100
01000
10000
00000
00000
00000
00001
,  // measure 31
00000
00000
00000
00000
00000
00000
01000
00000
00000
00100
00000
00000
00000
00000
00101
00000
,  // measure 32
00000
00010
00000
01001
00000
00000
00000
00000
,  // measure 33
01000
00100
00010
00100
01000
10000
00000
00000
,  // measure 34
00010
00100
01000
00100
00010
00001
10000
00000
,  // measure 35
00001
01000
00010
00100
00000
00100
00000
10100
,  // measure 36
00000
01000
00000
10010
00000
00000
00000
00000
,  // measure 37
00010
00100
01000
00100
00010
00001
00000
00000
,  // measure 38
01000
00100
00010
00100
01000
10000
00001
00000
,  // measure 39
10000
00010
01000
00100
00000
00100
00000
00101
,  // measure 40
00000
00010
00000
01001
00000
00000
00000
00000
,  // measure 41
00010
01000
00010
01000
00010
01000
00000
00000
,  // measure 42
01000
00010
01000
00010
01000
00010
10000
00000
,  // measure 43
00001
01000
00010
00100
00000
00100
00000
10100
,  // measure 44
00000
01000
00000
10010
00000
00000
00000
00000
,  // measure 45
01000
00010
01000
00010
01000
00010
00000
00000
,  // measure 46
00010
01000
00010
01000
00010
01000
00000
00000
,  // measure 47
10000
01000
00100
00010
00000
00100
00000
01010
,  // measure 48
00000
00000
00000
00000
00000
00000
00000
10000
,  // measure 49
00000
00001
00000
00000
01000
00000
00000
00010
00000
00000
00100
00000
00000
00000
01000
00000
,  // measure 50
10000
00001
00000
00010
00001
10000
00000
00100
,  // measure 51
00000
00010
00000
00000
01000
00000
00000
00001
00000
00000
10000
00000
00000
00000
00010
00000
,  // measure 52
00001
10000
00000
01000
10000
00001
00000
10000
,  // measure 53
00000
00001
00000
00000
01000
00000
00000
00010
00000
00000
00100
00000
00000
00000
01010
00000
,  // measure 54
10001
01010
00000
00100
01010
00100
00000
00001
,  // measure 55
00000
00000
00000
00000
00000
00000
00000
00000
00000
00000
00000
00010
00000
00100
00000
01000
00000
10000
00000
00000
00000
00000
00000
00000
;

//---------------para-single - ParaPara (PPP v1.1)----------------
#NOTES:
     para-single:
     ParaPara (PPP v1.1):
     Edit:
     3:
     0.185979,0.331686,0.010940,0.328199,0.000000,119.000000,118.000000,1.000000,30.000000,0.000000,0.000000,0.185979,0.331686,0.010940,0.328199,0.000000,119.000000,118.000000,1.000000,30.000000,0.000000,0.000000:
00000
00000
00000
00000
,
00000
00000
00000
00000
,
00000
00000
00000
00000
,
00000
00000
00000
00000
,
00000
00000
00000
20002
,
00000
00000
00000
00000
,
00000
00000
00000
00000
,
00000
00000
00000
30003
,
00000
00000
00000
00000
00000
00002
00000
00003
,
00000
00000
00000
00000
00000
20000
00000
30000
,
00000
00000
00000
00000
00020
00030
00000
00000
,
02000
03000
00000
00000
00000
00100
00000
00000
,
00000
00100
00000
00000
00000
00002
00000
00003
,
00000
00000
00000
00000
00000
20000
00000
30000
,
00000
00000
00000
00000
00020
00030
00000
00000
,
02000
03000
00000
00000
00000
00100
00000
00000
,
00000
00100
00000
00000
01000
00000
01000
00000
,
00000
00000
00010
00010
,
00000
00000
00000
00000
00010
01000
00010
01000
,
00100
00100
00010
01000
,
00010
01000
01000
01000
,
00000
00000
00010
00010
,
00000
00000
00000
00000
00010
01000
00010
01000
,
00100
00100
00010
01000
,
00010
01000
00010
00000
,
00010
00000
01000
00000
,
01000
00000
00000
00000
,
00100
00100
00000
00000
,
00100
00100
00010
00000
,
00010
00000
01000
00000
,
01000
00000
00000
00000
01000
00100
00010
00001
,
00000
00000
00000
00000
00010
00100
01000
10000
,
00000
00000
00000
00000
00200
00300
00000
00000
,
00100
00000
00010
01000
,
00020
00030
00000
00000
01000
00000
00010
00000
,
02000
03000
00000
00000
00010
00000
00010
00000
,
01000
00000
01000
00000
00200
00300
00000
00000
,
00100
00000
00010
01000
,
00020
00030
00000
00000
01000
00000
00010
00000
,
02000
03000
00000
00000
00010
00000
00010
00000
,
01000
00000
01000
00000
00200
00300
00000
00000
,
00100
00000
00010
01000
,
00020
00030
00000
00000
01000
00000
00010
00000
,
02000
03000
00000
00000
00010
00000
00010
00000
,
01000
00000
01000
00000
00200
00300
00000
00000
,
00100
00000
00010
01000
,
00020
00030
00000
00000
01000
00000
00010
00000
,
02000
03000
00000
00000
01000
00000
00010
00000
,
00000
00000
01000
00000
00000
00002
00000
00003
,
00000
00000
00000
00000
00000
20000
00000
30000
,
00000
00000
00000
00000
00020
00030
00000
00000
,
02000
03000
00000
00000
00000
00100
00000
00000
,
00000
00100
00000
00000
00000
00002
00000
00003
,
00000
00000
00000
00000
00000
20000
00000
30000
,
00000
00000
00000
00000
00020
00030
00000
00000
,
02000
03000
00000
00000
00000
00000
00000
00000
;

//---------------para-single - ParaPara (PPP 1 MP)----------------
#NOTES:
     para-single:
     ParaPara (PPP 1MP):
     Edit:
     3:
     0.193794,0.339207,0.000000,0.317259,0.043760,124.000000,124.000000,0.000000,29.000000,0.000000,0.000000,0.193794,0.339207,0.000000,0.317259,0.043760,124.000000,124.000000,0.000000,29.000000,0.000000,0.000000:
00000
00000
00000
00000
,
00000
00000
00000
00000
,
00000
00000
00000
00000
,
00000
00000
00000
00000
,
00000
00000
00000
00000
00000
00002
00000
00000
,
00000
00000
00000
00000
,
00000
00000
00000
00000
,
00000
00000
00003
00000
,
00000
00000
00000
00000
00000
00000
00000
00000
00000
10000
00000
00000
00000
00000
00000
00000
,
00000
00000
00000
00000
00000
00000
00000
00000
00000
00000
00000
00000
00000
00000
00000
00000
00000
00000
00000
00000
00000
00000
00000
00000
00002
00000
00000
00000
00000
00000
00000
00000
00000
00000
00000
00000
00000
00000
00000
00000
00000
00000
00000
00000
00000
00000
00000
00000
00000
00000
00000
00000
00000
00000
00000
00000
00000
00000
00000
00000
00000
00000
00000
00000
00000
00000
00000
00000
00000
00000
00000
00000
00003
00000
00000
00000
00000
00000
00000
00000
00000
00000
00000
00000
00000
00000
00000
00000
00000
00000
00000
00000
00000
00000
00000
00000
00000
00000
00000
00000
00000
00000
00000
00000
00000
00000
00000
00000
00000
00000
00000
00000
00000
00000
00000
00000
00000
00000
00000
00000
00000
00000
00000
00000
00000
00000
00000
00000
00000
00000
00000
00000
00000
00000
00000
00000
00000
00000
00000
00000
00000
00000
00000
00000
00000
00000
00000
00000
00000
00000
00000
00000
00000
00000
00000
00001
00000
00000
00000
00000
00000
00000
00000
00000
00000
00000
00000
00000
00000
00000
00000
00000
00000
00000
00000
00000
00000
00000
00000
00000
00000
00000
00000
00000
00000
00000
00000
00000
00000
00000
00000
00000
,
00000
20000
00000
30000
00000
00000
00000
00000
,
00020
00030
00000
00000
02000
03000
00000
00000
,
00100
00000
00000
00000
00000
00000
00000
00000
00000
00000
00000
00000
00000
00000
00000
00000
00000
00000
00000
00000
00000
00000
00000
00000
00000
00000
00000
00000
00000
00000
00000
00000
00000
00000
00000
00000
00000
00000
00000
00000
00000
00000
00000
00000
00000
00000
00000
00000
00000
00000
00000
00000
00000
00000
00000
00000
00000
00000
00000
00000
00000
00000
00000
00000
00000
00000
00000
00000
00000
00000
00000
00000
00100
00000
00000
00000
00000
00000
00000
00000
00000
00000
00000
00000
00000
00000
00000
00000
00000
00000
00000
00000
00000
00000
00000
00000
00000
00000
00000
00000
00000
00000
00000
00000
00000
00000
00000
00000
00000
00000
00000
00000
00000
00000
00000
00000
00000
00000
00000
00000
00000
00000
00000
00000
00000
00000
00000
00000
00000
00000
00000
00000
00000
00000
00000
00000
00000
00000
00000
00000
00000
00000
00000
00000
00000
00000
00000
00000
00000
00000
00000
00000
00000
00000
00000
10000
00000
00000
00000
00000
00000
00000
00000
00000
00000
00000
00000
00000
00000
00000
00000
00000
00000
00000
00000
00000
00000
00000
00000
00000
00000
00000
00000
00000
00000
00000
00000
00000
00000
00000
00000
00000
,
00000
00000
00000
00000
00000
00000
00000
00000
00000
00000
00000
00000
00000
00000
00000
00000
00000
00000
00000
00000
00000
00000
00000
00000
00002
00000
00000
00000
00000
00000
00000
00000
00000
00000
00000
00000
00000
00000
00000
00000
00000
00000
00000
00000
00000
00000
00000
00000
00000
00000
00000
00000
00000
00000
00000
00000
00000
00000
00000
00000
00000
00000
00000
00000
00000
00000
00000
00000
00000
00000
00000
00000
00003
00000
00000
00000
00000
00000
00000
00000
00000
00000
00000
00000
00000
00000
00000
00000
00000
00000
00000
00000
00000
00000
00000
00000
00000
00000
00000
00000
00000
00000
00000
00000
00000
00000
00000
00000
00000
00000
00000
00000
00000
00000
00000
00000
00000
00000
00000
00000
00000
00000
00000
00000
00000
00000
00000
00000
00000
00000
00000
00000
00000
00000
00000
00000
00000
00000
00000
00000
00000
00000
00000
00000
00000
00000
00000
00000
00000
00000
00000
00000
00000
00000
00000
00001
00000
00000
00000
00000
00000
00000
00000
00000
00000
00000
00000
00000
00000
00000
00000
00000
00000
00000
00000
00000
00000
00000
00000
00000
00000
00000
00000
00000
00000
00000
00000
00000
00000
00000
00000
00000
,
00000
20000
00000
30000
00000
00000
00000
00000
,
00020
00030
00000
00000
02000
03000
00000
00000
,
00100
00000
00000
00100
00000
00000
00000
00000
,
01000
01000
00000
00000
,
00010
00010
00000
00000
,
00010
01000
00010
01000
00100
00000
00100
00000
,
00010
01000
00010
01000
,
01000
01000
00000
00000
,
00010
00010
00000
00000
,
00010
01000
00010
01000
00100
00000
00100
00000
,
00010
01000
00010
01000
,
00010
00000
00010
00000
,
01000
00000
01000
00000
,
00000
00000
00100
00100
,
00000
00000
00100
00100
,
00010
00000
00010
00000
,
01000
00000
01000
00000
,
01000
00100
00010
00001
00000
00000
00000
00000
,
00010
00100
01000
10000
00000
00000
00000
00000
,
00000
00000
00000
00000
00200
00300
00000
00000
,
00010
00000
01000
00000
00020
00030
00000
00000
,
01000
00000
00010
00000
02000
03000
00000
00000
,
00010
00010
01000
01000
,
00000
00000
00000
00000
00200
00300
00000
00000
,
00010
00000
01000
00000
00020
00030
00000
00000
,
01000
00000
00010
00000
02000
03000
00000
00000
,
00010
00010
01000
01000
,
00000
00000
00000
00000
00200
00300
00000
00000
,
00010
00000
01000
00000
00020
00030
00000
00000
,
01000
00000
00010
00000
02000
03000
00000
00000
,
00010
00010
01000
01000
,
00000
00000
00000
00000
00200
00300
00000
00000
,
00010
00000
01000
00000
00020
00030
00000
00000
,
01000
00000
00010
00000
02000
03000
00000
00000
,
01000
00000
00000
00000
00010
00000
00000
00000
00000
00000
00001
00000
00000
10000
00000
00000
,
00000
00000
00000
00000
00000
00000
00000
00000
00000
00000
00000
00000
00000
00000
00000
00000
00000
00000
00000
00000
00000
00000
00000
00000
00002
00000
00000
00000
00000
00000
00000
00000
00000
00000
00000
00000
00000
00000
00000
00000
00000
00000
00000
00000
00000
00000
00000
00000
00000
00000
00000
00000
00000
00000
00000
00000
00000
00000
00000
00000
00000
00000
00000
00000
00000
00000
00000
00000
00000
00000
00000
00000
00003
00000
00000
00000
00000
00000
00000
00000
00000
00000
00000
00000
00000
00000
00000
00000
00000
00000
00000
00000
00000
00000
00000
00000
00000
00000
00000
00000
00000
00000
00000
00000
00000
00000
00000
00000
00000
00000
00000
00000
00000
00000
00000
00000
00000
00000
00000
00000
00000
00000
00000
00000
00000
00000
00000
00000
00000
00000
00000
00000
00000
00000
00000
00000
00000
00000
00000
00000
00000
00000
00000
00000
00000
00000
00000
00000
00000
00000
00000
00000
00000
00000
00000
00001
00000
00000
00000
00000
00000
00000
00000
00000
00000
00000
00000
00000
00000
00000
00000
00000
00000
00000
00000
00000
00000
00000
00000
00000
00000
00000
00000
00000
00000
00000
00000
00000
00000
00000
00000
00000
,
00000
20000
00000
30000
00000
00000
00000
00000
,
00020
00030
00000
00000
02000
03000
00000
00000
,
00100
00000
00000
00000
00000
00000
00000
00000
00000
00000
00000
00000
00000
00000
00000
00000
00000
00000
00000
00000
00000
00000
00000
00000
00000
00000
00000
00000
00000
00000
00000
00000
00000
00000
00000
00000
00000
00000
00000
00000
00000
00000
00000
00000
00000
00000
00000
00000
00000
00000
00000
00000
00000
00000
00000
00000
00000
00000
00000
00000
00000
00000
00000
00000
00000
00000
00000
00000
00000
00000
00000
00000
00100
00000
00000
00000
00000
00000
00000
00000
00000
00000
00000
00000
00000
00000
00000
00000
00000
00000
00000
00000
00000
00000
00000
00000
00000
00000
00000
00000
00000
00000
00000
00000
00000
00000
00000
00000
00000
00000
00000
00000
00000
00000
00000
00000
00000
00000
00000
00000
00000
00000
00000
00000
00000
00000
00000
00000
00000
00000
00000
00000
00000
00000
00000
00000
00000
00000
00000
00000
00000
00000
00000
00000
00000
00000
00000
00000
00000
00000
00000
00000
00000
00000
00000
10000
00000
00000
00000
00000
00000
00000
00000
00000
00000
00000
00000
00000
00000
00000
00000
00000
00000
00000
00000
00000
00000
00000
00000
00000
00000
00000
00000
00000
00000
00000
00000
00000
00000
00000
00000
00000
,
00000
00000
00000
00000
00000
00000
00000
00000
00000
00000
00000
00000
00000
00000
00000
00000
00000
00000
00000
00000
00000
00000
00000
00000
00002
00000
00000
00000
00000
00000
00000
00000
00000
00000
00000
00000
00000
00000
00000
00000
00000
00000
00000
00000
00000
00000
00000
00000
00000
00000
00000
00000
00000
00000
00000
00000
00000
00000
00000
00000
00000
00000
00000
00000
00000
00000
00000
00000
00000
00000
00000
00000
00003
00000
00000
00000
00000
00000
00000
00000
00000
00000
00000
00000
00000
00000
00000
00000
00000
00000
00000
00000
00000
00000
00000
00000
00000
00000
00000
00000
00000
00000
00000
00000
00000
00000
00000
00000
00000
00000
00000
00000
00000
00000
00000
00000
00000
00000
00000
00000
00000
00000
00000
00000
00000
00000
00000
00000
00000
00000
00000
00000
00000
00000
00000
00000
00000
00000
00000
00000
00000
00000
00000
00000
00000
00000
00000
00000
00000
00000
00000
00000
00000
00000
00000
00001
00000
00000
00000
00000
00000
00000
00000
00000
00000
00000
00000
00000
00000
00000
00000
00000
00000
00000
00000
00000
00000
00000
00000
00000
00000
00000
00000
00000
00000
00000
00000
00000
00000
00000
00000
00000
,
00000
20000
00000
30000
00000
00000
00000
00000
,
00020
00030
00000
00000
02000
03000
00000
00000
,
00100
00000
00000
00100
00000
00000
00000
00000
;

//---------------para-single - locuuraa----------------
#NOTES:
     para-single:
     ParaPara (PPP 2nd):
     Edit:
     3:
     0.000:
// Measure 0
00000
00000
00000
00000
,  // Measure 1
00000
00000
00000
00000
,  // Measure 2
00000
00000
00000
00000
,  // Measure 3
00000
00000
00000
00000
,  // Measure 4
00000
00000
00000
00000
,  // Measure 5
00000
00000
00000
00000
00000
00000
00000
00000
00000
00000
00000
00000
00000
00000
00000
00000
00000
00000
00000
00000
00000
00000
00000
00000
00000
00000
00000
00000
00000
00000
00000
00000
00000
00000
00000
00000
00000
00000
00000
00000
00000
00000
00000
00000
00000
00000
00000
00000
00000
00000
00000
00000
00000
00000
00000
00000
00000
00000
00000
00000
00000
00000
00000
00000
00000
00000
00000
00000
00000
00000
00000
00000
00000
00000
00000
00000
00000
00000
00000
00000
00000
00000
00000
00000
00000
00000
00000
00000
00000
00000
00000
00000
00000
00000
00000
00000
00000
00000
00000
00000
00000
00000
00000
00000
00000
00000
00000
00000
20002
00000
00000
00000
00000
00000
00000
00000
00000
00000
00000
00000
00000
00000
00000
00000
00000
00000
00000
00000
00000
00000
00000
00000
00000
00000
00000
00000
00000
00000
00000
00000
00000
00000
00000
00000
00000
00000
00000
00000
00000
00000
00000
00000
00000
00000
00000
00000
00000
00000
00000
00000
00000
00000
00000
00000
00000
00000
00000
00000
00000
00000
00000
00000
00000
00000
00000
00000
00000
00000
00000
00000
00000
00000
00000
00000
00000
00000
00000
00000
00000
00000
00000
00000
,  // Measure 6
00000
00000
00000
00000
00000
00000
00000
00000
00000
00000
00000
00000
00000
00000
00000
00000
00000
00000
00000
00000
00000
00000
00000
00000
00000
00000
00000
00000
00000
00000
00000
00000
00000
00000
00000
00000
00000
00000
00000
00000
00000
00000
00000
00000
00000
00000
00000
00000
00000
00000
00000
00000
00000
00000
00000
00000
00000
00000
00000
00000
00000
00000
00000
00000
,  // Measure 7
00000
00000
00000
00000
00000
00000
00000
00000
00000
00000
00000
00000
00000
00000
00000
00000
00000
00000
00000
00000
00000
00000
00000
00000
00000
00000
00000
00000
00000
00000
00000
00000
00000
00000
00000
00000
00000
00000
00000
00000
00000
00000
00000
00000
00000
00000
00000
00000
00000
00000
00000
00000
00000
00000
00000
00000
00000
00000
00000
00000
00000
00000
00000
00000
,  // Measure 8
00000
00000
00000
00000
00000
00000
00000
00000
00000
00000
00000
00000
00000
00000
00000
00000
00000
00000
00000
00000
00000
00000
00000
00000
00000
00000
00000
00000
00000
00000
00000
00000
00000
00000
00000
00000
30003
00000
00000
00000
00000
00000
00000
00000
00000
00000
00000
00000
00000
00000
00000
00000
00000
00000
00000
00000
00000
00000
00000
00000
00000
00000
00000
00000
,  // Measure 9
00000
00000
00000
00000
,  // Measure 10
00000
00002
00000
00000
00003
00000
00000
00000
00000
00000
00000
00000
,  // Measure 11
00000
20000
00000
00000
30000
00000
00000
00000
00000
00000
00000
00000
,  // Measure 12
00020
00030
00000
00000
02000
03000
00000
00000
,  // Measure 13
00100
00000
00100
00000
,  // Measure 14
00000
00002
00000
00000
00003
00000
00000
00000
00000
00000
00000
00000
,  // Measure 15
00000
20000
00000
00000
30000
00000
00000
00000
00000
00000
00000
00000
,  // Measure 16
00020
00030
00000
00000
02000
03000
00000
00000
,  // Measure 17
00100
00000
00100
00000
,  // Measure 18
01000
01000
00000
00000
,  // Measure 19
00010
00010
00000
00000
,  // Measure 20
00010
00000
00000
00000
00000
00000
00000
00000
00000
00000
00000
00000
00000
00000
00000
00000
00000
00000
00000
00000
00000
00000
00000
00000
01000
00000
00000
00000
00000
00000
00000
00000
00000
00000
00000
00000
00000
00000
00000
00000
00000
00000
00000
00000
00000
00000
00000
00000
00010
00000
00000
00000
00000
00000
00000
00000
00000
00000
00000
00000
00000
00000
00000
00000
00000
00000
00000
00000
00000
00000
00000
00000
01000
00000
00000
00000
00000
00000
00000
00000
00000
00000
00000
00000
00000
00000
00000
00000
00000
00000
00000
00000
00000
00000
00000
00000
00100
00000
00000
00000
00000
00000
00000
00000
00000
00000
00000
00000
00000
00000
00000
00000
00000
00000
00000
00000
00000
00000
00000
00000
00000
00000
00000
00000
00000
00000
00000
00000
00000
00000
00000
00000
00000
00000
00000
00000
00000
00000
00000
00000
00000
00000
00000
00000
00100
00000
00000
00000
00000
00000
00000
00000
00000
00000
00000
00000
00000
00000
00000
00000
00000
00000
00000
00000
00000
00000
00000
00000
00000
00000
00000
00000
00000
00000
00000
00000
00000
00000
00000
00000
00000
00000
00000
00000
00000
00000
00000
00000
00000
00000
00000
00000
,  // Measure 21
00010
01000
00010
01000
,  // Measure 22
01000
01000
00000
00000
,  // Measure 23
00010
00010
00000
00000
,  // Measure 24
00010
00000
00000
00000
00000
00000
00000
00000
00000
00000
00000
00000
00000
00000
00000
00000
00000
00000
00000
00000
00000
00000
00000
00000
01000
00000
00000
00000
00000
00000
00000
00000
00000
00000
00000
00000
00000
00000
00000
00000
00000
00000
00000
00000
00000
00000
00000
00000
00010
00000
00000
00000
00000
00000
00000
00000
00000
00000
00000
00000
00000
00000
00000
00000
00000
00000
00000
00000
00000
00000
00000
00000
01000
00000
00000
00000
00000
00000
00000
00000
00000
00000
00000
00000
00000
00000
00000
00000
00000
00000
00000
00000
00000
00000
00000
00000
00100
00000
00000
00000
00000
00000
00000
00000
00000
00000
00000
00000
00000
00000
00000
00000
00000
00000
00000
00000
00000
00000
00000
00000
00000
00000
00000
00000
00000
00000
00000
00000
00000
00000
00000
00000
00000
00000
00000
00000
00000
00000
00000
00000
00000
00000
00000
00000
00100
00000
00000
00000
00000
00000
00000
00000
00000
00000
00000
00000
00000
00000
00000
00000
00000
00000
00000
00000
00000
00000
00000
00000
00000
00000
00000
00000
00000
00000
00000
00000
00000
00000
00000
00000
00000
00000
00000
00000
00000
00000
00000
00000
00000
00000
00000
00000
,  // Measure 25
00010
01000
00010
01000
,  // Measure 26
00010
00000
00010
00000
,  // Measure 27
01000
00000
01000
00000
,  // Measure 28
00000
00000
00000
00000
,  // Measure 29
00000
00000
00000
00000
,  // Measure 30
00010
00000
00010
00000
,  // Measure 31
01000
00000
01000
00000
,  // Measure 32
01000
00100
00010
00001
00000
00000
00000
00000
,  // Measure 33
00010
00100
01000
10000
00000
00000
00000
00000
,  // Measure 34
00000
00000
00100
00000
,  // Measure 35
00010
00000
01000
00000
00020
00030
00000
00000
,  // Measure 36
01000
00000
00010
00000
02000
03000
00000
00000
,  // Measure 37
00010
00010
01000
01000
,  // Measure 38
00000
00000
00100
00000
,  // Measure 39
00010
00000
01000
00000
00020
00030
00000
00000
,  // Measure 40
01000
00000
00010
00000
02000
03000
00000
00000
,  // Measure 41
00010
00010
01000
01000
,  // Measure 42
00000
00000
00100
00000
,  // Measure 43
00010
00000
01000
00000
00020
00030
00000
00000
,  // Measure 44
01000
00000
00010
00000
02000
03000
00000
00000
,  // Measure 45
00010
00010
01000
01000
,  // Measure 46
00000
00000
00100
00000
,  // Measure 47
00010
00000
01000
00000
00020
00030
00000
00000
,  // Measure 48
01000
00000
00010
00000
02000
03000
00000
00000
,  // Measure 49
01000
00000
00000
00000
00010
00000
00000
00000
00000
00000
00000
00000
00000
01000
00000
00000
,  // Measure 50
00000
00000
00000
00000
00000
00000
00000
00000
00000
00000
00000
00000
00000
00000
00000
00000
00000
00000
00000
00000
00002
00000
00000
00000
00000
00000
00000
00000
00000
00000
00000
00000
00000
00000
00000
00000
00000
00000
00000
00000
00000
00000
00000
00000
00000
00000
00000
00000
00000
00000
00000
00000
00000
00000
00000
00000
00000
00000
00000
00000
00000
00000
00000
00000
00000
00000
00000
00003
00000
00000
00000
00000
00000
00000
00000
00000
00000
00000
00000
00000
00000
00000
00000
00000
00000
00000
00000
00000
00000
00000
00000
00000
00000
00000
00000
00000
00000
00000
00000
00000
00000
00000
00000
00000
00000
00000
00000
00000
00000
00000
00000
00000
00000
00000
00000
00000
00000
00000
00000
00000
00000
00000
00000
00000
00000
00000
00000
00000
00000
00000
00000
00000
00000
00000
00000
00000
00000
00000
00000
00000
00000
00000
00000
00000
00000
00000
00000
00000
00000
00000
00000
00000
00000
00000
00000
00000
00000
00000
00000
00000
00000
00000
00000
00000
00000
00000
00000
00000
00000
00000
00000
00000
00000
00000
00000
00000
00000
00000
00000
00000
00000
00000
00000
00000
00000
00000
00000
00000
00000
00000
00000
00000
,  // Measure 51
00000
20000
00000
00000
30000
00000
00000
00000
00000
00000
00000
00000
,  // Measure 52
00020
00030
00000
00000
02000
03000
00000
00000
,  // Measure 53
00100
00000
00100
00000
,  // Measure 54
00000
00002
00000
00000
00003
00000
00000
00000
00000
00000
00000
00000
,  // Measure 55
00000
20000
00000
00000
30000
00000
00000
00000
00000
00000
00000
00000
,  // Measure 56
00020
00030
00000
00000
02000
03000
00000
00000
,  // Measure 57
00000
00000
00000
00000
,  // Measure 58
00000
00000
00000
00000
,  // Measure 59
00000
00000
00000
00000
;
