#TITLE:LUV TO ME disco mix;
#SUBTITLE:-super euro version-;
#ARTIST:Tiger YAMATO feat Y&Co.;
#TITLETRANSLIT:;
#SUBTITLETRANSLIT:;
#ARTISTTRANSLIT:;
#GENRE:;
#CREDIT:locuuraa;
#BANNER:LUV TO ME disco mix -super euro version--bn.png;
#BACKGROUND:LUV TO ME disco mix -super euro version--cd.png;
#LYRICSPATH:;
#CDTITLE:./CDTitles/Konami Original Remix.png;
#MUSIC:LUV TO ME disco mix -super euro version-.mp3;
#OFFSET:-0.237000;
#SAMPLESTART:58.560001;
#SAMPLELENGTH:11.980000;
#SELECTABLE:YES;
#BPMS:0.000000=160.000000
;
#STOPS:
;
#BGCHANGES:1.000=LUV TO ME disco mix -super euro version-.mp4=1.000=0=0=1=====,
99999=-nosongbg-=1.000=0=0=0 // don't automatically add -songbackground-
;
#KEYSOUNDS:;
#ATTACKS:;

//---------------para-single - locuuraa----------------
#NOTES:
     para-single:
     ParaPara:
     Beginner:
     4:
     0.000:
// Measure 0
00000
00000
00000
00000
,  // Measure 1
00000
00000
00000
00000
,  // Measure 2
00000
00000
00000
00000
,  // Measure 3
00000
00000
00000
00000
,  // Measure 4
00000
00000
00000
00000
,  // Measure 5
00000
00000
00000
00000
,  // Measure 6
00000
00000
00000
00000
,  // Measure 7
00000
00000
00000
00000
,  // Measure 8
00000
00000
00000
00002
,  // Measure 9
10000
00000
00000
00003
00000
00000
00000
00000
02020
00000
00000
03030
00000
00000
00000
00000
,  // Measure 10
00000
00000
00000
20000
,  // Measure 11
00001
00000
00000
30000
00000
00000
00000
00000
02020
00000
00000
03030
00000
00000
00000
00000
,  // Measure 12
00000
00000
00000
00002
,  // Measure 13
10000
00000
00000
00003
00000
00000
00000
00000
02020
00000
00000
03030
00000
00000
00000
00000
,  // Measure 14
00000
00000
00000
20000
,  // Measure 15
00001
00000
00000
30000
00000
00000
00000
00000
02020
00000
00000
03030
00000
00000
00000
00000
,  // Measure 16
00000
00000
00000
00000
02000
03000
00000
00000
,  // Measure 17
01000
00100
00010
00001
,  // Measure 18
00000
00000
00000
00000
00020
00030
00000
00000
,  // Measure 19
00010
00100
01000
10000
,  // Measure 20
00000
00000
00000
00000
02000
03000
00000
00000
,  // Measure 21
01000
00100
00010
00001
,  // Measure 22
00000
00000
00000
00000
00020
00030
00000
00000
,  // Measure 23
00010
00100
01000
10000
,  // Measure 24
01010
00000
00000
00000
,  // Measure 25
10001
00000
10001
00000
,  // Measure 26
01000
00100
00010
00001
00000
00000
00000
00000
,  // Measure 27
00010
00100
01000
10000
00000
00000
00000
00000
,  // Measure 28
01010
00000
00000
00000
,  // Measure 29
10001
00000
10001
00000
,  // Measure 30
01000
00100
00010
00001
00000
00000
00000
00000
,  // Measure 31
00010
00100
01000
10000
00000
00000
00000
00000
,  // Measure 32
00000
00000
00101
00000
,  // Measure 33
00101
00000
00101
00000
,  // Measure 34
00000
00000
10100
00000
,  // Measure 35
10100
00000
10100
00000
,  // Measure 36
00000
00000
00101
00000
,  // Measure 37
00101
00000
00101
00000
,  // Measure 38
00000
00000
10100
00000
,  // Measure 39
10100
00000
10100
00000
,  // Measure 40
00010
01000
00010
01000
,  // Measure 41
00100
00000
00001
10000
,  // Measure 42
00000
00000
00000
01000
,  // Measure 43
00000
00000
00000
00010
,  // Measure 44
00010
00010
01000
01000
,  // Measure 45
00100
00000
00001
10000
,  // Measure 46
00000
00000
00000
01000
,  // Measure 47
00000
00000
00000
00010
,  // Measure 48
00010
00010
01000
01000
,  // Measure 49
00100
00000
00001
10000
,  // Measure 50
00000
00000
00000
01000
,  // Measure 51
00000
00000
00000
00010
,  // Measure 52
00010
00010
01000
01000
,  // Measure 53
00100
00000
00001
10000
,  // Measure 54
00000
00000
00000
01000
,  // Measure 55
00000
00000
00000
00010
,  // Measure 56
00010
00010
01000
01000
,  // Measure 57
00000
00000
00000
00000
02000
03000
00000
00000
,  // Measure 58
01000
00100
00010
00001
,  // Measure 59
00000
00000
00000
00000
00020
00030
00000
00000
,  // Measure 60
00010
00100
01000
10000
,  // Measure 61
00000
00000
00000
00000
02000
03000
00000
00000
,  // Measure 62
01000
00100
00010
00001
,  // Measure 63
00000
00000
00000
00000
00020
00030
00000
00000
,  // Measure 64
00010
00100
01000
10000
,  // Measure 65
00000
00000
00000
00000
,  // Measure 66
00000
00000
00000
00000
,  // Measure 67
00000
00000
00000
00000
;

//---------------para-single - locuuraa----------------
#NOTES:
     para-single:
     Normal:
     Easy:
     3:
     0.000:
// Measure 0
00000
00000
00000
00000
,  // Measure 1
00000
00000
00000
00000
,  // Measure 2
00000
00000
00000
00000
,  // Measure 3
00000
00000
00000
00000
,  // Measure 4
00010
00000
00010
00000
,  // Measure 5
01000
00000
01000
00000
,  // Measure 6
00010
00000
01000
00000
,  // Measure 7
02020
00000
03030
00000
,  // Measure 8
00010
00000
00010
00000
,  // Measure 9
01000
00000
01000
00000
,  // Measure 10
00100
00000
01001
00000
,  // Measure 11
00100
00000
10010
00000
,  // Measure 12
00010
01000
01000
00000
,  // Measure 13
01000
00010
00010
00000
,  // Measure 14
00100
00000
01010
00000
,  // Measure 15
01000
00100
00010
00001
00000
00000
00000
00000
00000
00000
00000
00000
,  // Measure 16
00100
00000
00010
00000
,  // Measure 17
00100
00000
01000
00000
,  // Measure 18
00100
00010
01000
00000
,  // Measure 19
00100
10000
00001
00000
,  // Measure 20
00010
00000
00101
00000
,  // Measure 21
01000
00000
10100
00000
,  // Measure 22
00100
01000
00010
00000
,  // Measure 23
01000
00000
00000
00000
00000
00000
00000
00000
00000
00000
00000
00000
00000
00000
00000
00000
00000
00000
00000
00000
00000
00000
00000
00000
00100
00000
00000
00000
00000
00000
00000
00000
00000
00000
00000
00000
00000
00000
00000
00000
00000
00000
00000
00000
00000
00000
00000
00000
00010
00000
00000
00000
00000
00000
00000
00000
00000
00000
00000
00000
00000
00000
00000
00000
00000
00000
00000
00000
00000
00000
00000
00000
00001
00000
00000
00000
00000
00000
00000
00000
00000
00000
00000
00000
00000
00000
00000
00000
00000
00000
00000
00000
00000
00000
00000
00000
00000
00000
00000
00000
00000
00000
00000
00000
00000
00000
00000
00000
00000
00000
00000
00000
00000
00000
00000
00000
00000
00000
00000
00000
00000
00000
00000
00000
00000
00000
00000
00000
00000
00000
00000
00000
00000
00000
00000
00000
00000
00000
00000
00000
00000
00000
00000
00000
00000
00000
00000
00000
00000
00000
00000
00000
00000
00000
00000
00000
00000
00000
00000
00000
00000
00000
00000
00000
00000
00000
00000
00000
00000
00000
00000
00000
00000
00000
00000
00000
00000
00000
00000
00000
00000
00000
00000
00000
00000
00000
00000
00000
00000
00000
00000
00000
,  // Measure 24
00100
00000
00001
00000
,  // Measure 25
00100
00000
10000
00000
,  // Measure 26
00000
00000
00000
00000
00000
00000
00000
00000
00100
00000
00000
00000
00000
00000
00000
00000
00100
00010
00000
00000
00000
00000
00000
00000
00000
00000
00000
00000
00000
00000
00000
00000
,  // Measure 27
00000
00000
00000
00000
00000
00000
00000
00000
00100
00000
00000
00000
00000
00000
00000
00000
00100
01000
00000
00000
00000
00000
00000
00000
00000
00000
00000
00000
00000
00000
00000
00000
,  // Measure 28
00100
00001
00001
00000
,  // Measure 29
00100
10000
10000
00000
,  // Measure 30
00100
00000
00000
00000
00000
00000
00000
00000
00100
01000
00000
00000
00000
00000
00000
00000
00100
00010
00000
00000
00000
00000
00000
00000
00000
00000
00000
00000
00000
00000
00000
00000
,  // Measure 31
00010
10000
01001
00000
,  // Measure 32
00000
00010
00010
00000
,  // Measure 33
00000
01000
01000
00000
,  // Measure 34
00000
00010
01000
00000
,  // Measure 35
00100
00010
00000
00000
00000
00000
00000
00000
00100
01000
00000
00000
00000
00000
00000
00000
,  // Measure 36
00010
00010
00001
00000
,  // Measure 37
01000
01000
10000
00000
,  // Measure 38
01000
00100
00010
00001
00000
00000
00000
00000
,  // Measure 39
00010
00100
01000
10000
00000
00000
00000
00000
,  // Measure 40
00010
00010
01000
01000
,  // Measure 41
01000
00100
00000
00000
00000
00000
10000
00000
00000
00000
00000
00000
,  // Measure 42
00010
00100
00000
00000
00000
00000
00001
00000
00000
00000
00000
00000
,  // Measure 43
00100
01000
00000
00000
00000
00000
00100
00010
00000
00000
00000
00000
,  // Measure 44
00100
00100
01010
00000
,  // Measure 45
00100
00010
00000
00000
00000
00000
10100
00000
00000
00000
00000
00000
,  // Measure 46
00100
01000
00000
00000
00000
00000
00101
00000
00000
00000
00000
00000
,  // Measure 47
00100
00010
00000
00000
00000
00000
00100
01000
00000
00000
00000
00000
,  // Measure 48
00100
00000
00000
00000
00000
00000
00000
00000
00100
01010
00000
00000
00000
00000
00000
00000
,  // Measure 49
00010
00010
00101
00000
,  // Measure 50
01000
01000
10100
00000
,  // Measure 51
00100
00010
01000
00000
,  // Measure 52
00100
10000
00001
00000
,  // Measure 53
00010
10000
01001
00000
,  // Measure 54
01000
00001
10010
00000
,  // Measure 55
00100
01000
00010
00000
,  // Measure 56
00100
00000
00000
00000
00000
00000
00000
00000
00000
00000
00000
00000
00000
00000
00000
00000
00010
00000
00100
00000
01000
00000
00000
00000
00000
00000
00000
00000
00000
00000
00000
00000
01000
00000
00000
00000
00000
00100
00000
00000
00000
00000
00010
00000
00000
00000
00000
00001
00000
00000
00000
00000
00000
00000
00000
00000
00000
00000
00000
00000
00000
00000
00000
00000
,  // Measure 57
00100
00000
00010
00010
,  // Measure 58
00100
00000
01000
01000
,  // Measure 59
00010
00010
01000
01000
,  // Measure 60
00001
10000
00001
10000
,  // Measure 61
00000
00010
00101
00000
,  // Measure 62
00000
01000
10100
00000
,  // Measure 63
10000
00100
00001
00100
,  // Measure 64
01000
00000
00000
00000
00000
00000
00000
00000
00000
00000
00000
00000
00000
00000
00000
00000
00000
00000
00000
00000
00000
00000
00000
00000
00100
00000
00000
00000
00000
00000
00000
00000
00000
00000
00000
00000
00000
00000
00000
00000
00000
00000
00000
00000
00000
00000
00000
00000
00010
00000
00000
00000
00000
00000
00000
00000
00000
00000
00000
00000
00000
00000
00000
00000
00000
00000
00000
00000
00000
00000
00000
00000
00001
00000
00000
00000
00000
00000
00000
00000
00000
00000
00000
00000
00000
00000
00000
00000
00000
00000
00000
00000
00000
00000
00000
00000
00000
00000
00000
00000
00000
00000
00000
00000
00000
00000
00000
00000
00000
00000
00000
00000
00000
00000
00000
00000
00000
00000
00000
00000
00000
00000
00000
00000
00000
00000
00000
00000
00000
00000
00000
00000
00000
00000
00000
00000
00000
00000
00000
00000
00000
00000
00000
00000
00000
00000
00000
00000
00000
00000
00000
00000
00000
00000
00000
00000
00000
00000
00000
00000
00000
00000
00000
00000
00000
00000
00000
00000
00000
00000
00000
00000
00000
00000
00000
00000
00000
00000
00000
00000
00000
00000
00000
00000
00000
00000
00000
00000
00000
00000
00000
00000
,  // Measure 65
00000
00000
00000
00000
,  // Measure 66
00000
00000
00000
00000
,  // Measure 67
00000
00000
00000
00000
;

//---------------para-single - locuuraa----------------
#NOTES:
     para-single:
     Expert:
     Hard:
     6:
     0.000:
// Measure 0
00000
00000
00000
00000
,  // Measure 1
00000
00000
00000
00000
,  // Measure 2
00000
00000
00000
00000
,  // Measure 3
00000
00000
00000
00000
,  // Measure 4
00010
00010
01000
01000
,  // Measure 5
00010
00010
01000
01000
,  // Measure 6
00010
00010
01000
01000
,  // Measure 7
01000
00100
00010
00001
00000
00000
00000
00000
00000
00000
00000
00000
00000
00000
00000
00000
00000
00000
00000
00000
00000
00000
00000
00000
00000
00000
00000
00000
00000
00000
00000
00000
,  // Measure 8
00010
00100
01000
00000
00000
00000
00000
00000
00100
00000
00000
00000
00000
00000
00000
00000
00100
01000
10000
00000
00000
00000
00000
00000
00100
00000
00000
00000
00000
00000
00000
00000
,  // Measure 9
01000
00100
00010
00000
00000
00000
00000
00000
00100
00000
00000
00000
00000
00000
00000
00000
00100
00010
00001
00000
00000
00000
00000
00000
00100
00000
00000
00000
00000
00000
00000
00000
,  // Measure 10
01000
00100
00010
00000
00000
00000
00000
00000
00100
00000
00000
00000
00000
00000
00000
00000
00100
01000
00000
00000
00000
00000
00000
00000
01000
00100
00000
00000
00000
00000
00000
00000
,  // Measure 11
00010
00100
01000
00000
00000
00000
00000
00000
00100
00000
00000
00000
00000
00000
00000
00000
00100
01000
00000
00000
00000
00000
00000
00000
01000
00100
00000
00000
00000
00000
00000
00000
,  // Measure 12
00100
00010
00001
00000
00000
00000
00000
00000
00100
00000
00000
00000
00000
00000
00000
00000
01000
00100
00000
00000
00000
00000
00000
00000
00100
00000
00000
00000
00000
00000
00000
00000
,  // Measure 13
00100
01000
10000
00000
00000
00000
00000
00000
00100
00000
00000
00000
00000
00000
00000
00000
00010
00100
00000
00000
00000
00000
00000
00000
00100
00000
00000
00000
00000
00000
00000
00000
,  // Measure 14
01000
00100
00010
00000
00000
00000
00000
00000
00010
00100
01000
00000
00000
00000
00000
00000
00100
00010
00000
00000
00000
00000
00000
00000
00100
01000
00000
00000
00000
00000
00000
00000
,  // Measure 15
01000
00100
00010
00001
00000
00000
00000
00000
00000
00000
00000
00000
,  // Measure 16
00100
00010
00001
00000
00000
00000
00000
00000
00010
00000
00000
00000
00000
00000
00000
00000
00100
00010
00001
00000
00000
00000
00000
00000
00010
00000
00000
00000
00000
00000
00000
00000
,  // Measure 17
00100
11000
00000
00000
00000
00000
00000
00000
01000
00000
00000
00000
00000
00000
00000
00000
00100
01000
10000
00000
00000
00000
00000
00000
01000
00000
00000
00000
00000
00000
00000
00000
,  // Measure 18
00100
00010
00001
00000
00000
00000
00000
00000
00010
00000
00000
00000
00000
00000
00000
00000
00100
01000
10000
00000
00000
00000
00000
00000
01000
00000
00000
00000
00000
00000
00000
00000
,  // Measure 19
00010
00100
01000
00000
00000
00000
00000
00000
01000
00100
00010
00000
00000
00000
00000
00000
01000
00100
00010
00000
00000
00000
00000
00000
00010
00100
01000
00000
00000
00000
00000
00000
,  // Measure 20
00100
00010
00001
00000
00000
00000
00000
00000
00010
00000
00000
00000
00000
00000
00000
00000
00010
00001
00000
00000
00000
00000
00000
00000
00001
00010
00000
00000
00000
00000
00000
00000
,  // Measure 21
00100
01000
10000
00000
00000
00000
00000
00000
01000
00000
00000
00000
00000
00000
00000
00000
01000
10000
00000
00000
00000
00000
00000
00000
10000
01000
00000
00000
00000
00000
00000
00000
,  // Measure 22
00100
00010
00001
00000
00000
00000
00000
00000
00100
00010
00001
00000
00000
00000
00000
00000
00100
01000
10000
00000
00000
00000
00000
00000
00100
11000
00000
00000
00000
00000
00000
00000
,  // Measure 23
01000
00100
00010
00001
00010
00100
01000
00000
00000
00000
00000
00000
,  // Measure 24
00100
00010
00000
00000
00000
00000
00000
00000
00010
00000
00000
00000
00000
00000
00000
00000
00100
00010
00000
00000
00000
00000
00000
00000
00010
00000
00000
00000
00000
00000
00000
00000
,  // Measure 25
00100
01000
00000
00000
00000
00000
00000
00000
01000
00000
00000
00000
00000
00000
00000
00000
00100
01000
00000
00000
00000
00000
00000
00000
01000
00000
00000
00000
00000
00000
00000
00000
,  // Measure 26
01000
00100
00010
00001
00000
00000
01000
00000
00000
00001
00000
00000
,  // Measure 27
00010
00100
01000
10000
00000
00000
00010
00000
00000
10000
00000
00000
,  // Measure 28
00100
00010
00000
00000
00000
00000
00000
00000
01000
00000
00000
00000
00000
00000
00000
00000
00100
00010
00000
00000
00000
00000
00000
00000
01000
00100
00000
00000
00000
00000
00000
00000
,  // Measure 29
00100
00000
00000
00000
00000
00000
01000
00000
00000
00000
00000
00000
00000
00000
00000
00000
00000
00000
00000
00000
00000
00000
00000
00000
00000
00000
00000
00000
00000
00000
00000
00000
00000
00000
00000
00000
00000
00000
00000
00000
00000
00000
00000
00000
00000
00000
00000
00000
00010
00000
00000
00000
00000
00000
00000
00000
00000
00000
00000
00000
00000
00000
00000
00000
00000
00000
00000
00000
00000
00000
00000
00000
00000
00000
00000
00000
00000
00000
00000
00000
00000
00000
00000
00000
00000
00000
00000
00000
00000
00000
00000
00000
00000
00000
00000
00000
00100
00000
00000
00000
00000
00000
01000
00000
00000
00000
00000
00000
00000
00000
00000
00000
00000
00000
00000
00000
00000
00000
00000
00001
00000
00000
00000
00000
00000
00000
00000
00000
00000
00000
00000
00000
00000
00000
00000
00000
00000
00000
00000
00000
00000
00000
00000
10000
00000
00000
00000
00000
00000
00000
00000
00000
00000
00000
00000
00000
00000
00000
00000
00000
00000
00000
00000
00000
00000
00000
00000
00010
00000
00000
00000
00000
00000
00000
00000
00000
00000
00000
00000
00000
00000
00000
00000
00000
00000
00000
00000
00000
00000
00000
00000
00000
,  // Measure 30
00000
00000
00000
00000
00000
00000
00000
00000
00000
00000
00000
00000
00000
00000
00000
00000
00000
00000
00000
00000
00000
00000
00000
00000
00000
00000
00000
00000
00000
00000
00000
00000
00000
00000
00000
00000
00000
00000
00000
00000
00000
00000
00000
00000
00000
00000
00000
00000
01000
00000
00000
00000
00000
00000
00100
00000
00000
00000
00000
00000
00010
00000
00000
00000
00000
00000
00000
00000
00000
00000
00000
00000
00001
00000
00000
00000
00000
00000
00000
00000
00000
00000
00000
00000
00000
00000
00000
00000
00000
00000
00000
00000
00000
00000
00000
00000
01000
00000
00000
00000
00000
00000
10000
00000
00000
00000
00000
00000
00000
00000
00000
00000
00000
00000
00000
00000
00000
00000
00000
00000
00000
00000
00000
00000
00000
00000
00000
00000
00000
00000
00000
00000
00000
00000
00000
00000
00000
00000
00000
00000
00000
00000
00000
00000
01010
00000
00000
00000
00000
00000
00000
00000
00000
00000
00000
00000
00000
00000
00000
00000
00000
00000
00000
00000
00000
00000
00000
00000
00000
00000
00000
00000
00000
00000
00000
00000
00000
00000
00000
00000
00000
00000
00000
00000
00000
00000
00000
00000
00000
00000
00000
00000
,  // Measure 31
01000
00000
00000
00000
00000
00000
00100
00000
00000
00000
00000
00000
00010
00000
00000
00000
00000
00000
00000
00000
00000
00000
00000
00000
00001
00000
00000
00000
00000
00000
00000
00000
00000
00000
00000
00000
00000
00000
00000
00000
00000
00000
00000
00000
00000
00000
00000
00000
01000
00000
00000
00000
00000
00000
00000
00000
00000
00000
00000
00000
00000
00000
00000
00000
00000
00000
00000
00000
00000
00000
00000
00000
00001
00000
00000
00000
00000
00000
00000
00000
00000
00000
00000
00000
00000
00000
00000
00000
00000
00000
00000
00000
00000
00000
00000
00000
00000
00000
00000
00000
00000
00000
00000
00000
00000
00000
00000
00000
00000
00000
00000
00000
00000
00000
00000
00000
00000
00000
00000
00000
00100
00000
00000
00000
00000
00000
00000
00000
00000
00000
00000
00000
00000
00000
00000
00000
00000
00000
00000
00000
00000
00000
00000
00000
00000
00000
00000
00000
00000
00000
00000
00000
00000
00000
00000
00000
00000
00000
00000
00000
00000
00000
00000
00000
00000
00000
00000
00000
00000
00000
00000
00000
00000
00000
00000
00000
00000
00000
00000
00000
00000
00000
00000
00000
00000
00000
00000
00000
00000
00000
00000
00000
,  // Measure 32
00010
00001
00000
00000
00000
00000
00000
00000
00001
00010
00000
00000
00000
00000
00000
00000
00100
00010
00001
00000
00000
00000
00000
00000
00000
00000
00000
00000
00000
00000
00000
00000
,  // Measure 33
01000
10000
00000
00000
00000
00000
00000
00000
10000
01000
00000
00000
00000
00000
00000
00000
00100
11000
00000
00000
00000
00000
00000
00000
00000
00000
00000
00000
00000
00000
00000
00000
,  // Measure 34
10001
00000
00000
00000
00000
00000
01010
00000
00000
00000
00000
00000
00000
00000
00000
00000
00000
00000
00000
00000
00000
00000
00000
00000
00000
00000
00000
00000
00000
00000
00000
00000
00000
00000
00000
00000
00000
00000
00000
00000
00000
00000
00000
00000
00000
00000
00000
00000
01010
00000
00000
00000
00000
00000
10001
00000
00000
00000
00000
00000
00000
00000
00000
00000
00000
00000
00000
00000
00000
00000
00000
00000
00000
00000
00000
00000
00000
00000
00000
00000
00000
00000
00000
00000
00000
00000
00000
00000
00000
00000
00000
00000
00000
00000
00000
00000
10001
00000
00000
00000
00000
00000
01010
00000
00000
00000
00000
00000
00000
00000
00000
00000
00000
00000
00000
00000
00000
00000
00000
00000
00000
00000
00000
00000
00000
00000
00000
00000
00000
00000
00000
00000
00000
00000
00000
00000
00000
00000
00000
00000
00000
00000
00000
00000
00000
00000
00000
00000
00000
00000
00000
00000
00000
00000
00000
00000
00000
00000
00000
00000
00000
00000
00000
00000
00000
00000
00000
01000
00000
00000
00000
00000
00000
00000
00000
00000
00000
00000
00000
00000
00000
00000
00000
00000
00000
00000
00000
00000
00000
00000
00000
00000
,  // Measure 35
00100
00010
00001
00000
01000
10000
00000
00000
00000
00000
00000
00000
01000
00100
00010
00002
00000
00000
00000
00000
00000
00003
00000
00000
00000
00000
00000
00000
00000
00000
00000
00000
,  // Measure 36
00010
00001
00000
00000
00000
00000
00000
00000
00001
00010
00100
00000
00000
00000
00000
00000
00100
00010
00001
00000
00000
00000
00000
00000
00000
00000
00000
00000
00000
00000
00000
00000
,  // Measure 37
01000
10000
00000
00000
00000
00000
00000
00000
10000
01100
00000
00000
00000
00000
00000
00000
00100
11000
00000
00000
00000
00000
00000
00000
00000
00000
00000
00000
00000
00000
00000
00000
,  // Measure 38
01000
00100
00010
10001
01000
00100
00000
00000
,  // Measure 39
00010
00000
00000
00000
00000
00000
00000
00000
00000
00000
00000
00000
00000
00000
00000
00000
00000
00000
00000
00000
00000
00000
00000
00000
00000
00000
00000
00000
00000
00000
00000
00000
00100
00000
00000
00000
00000
00000
00000
00000
00000
00000
00000
00000
00000
00000
00000
00000
00000
00000
00000
00000
00000
00000
00000
00000
00000
00000
00000
00000
00000
00000
00000
00000
01000
00000
00000
00000
00000
00000
00000
00000
00000
00000
00000
00000
00000
00000
00000
00000
00000
00000
00000
00000
00000
00000
00000
00000
00000
00000
00000
00000
00000
00000
00000
00000
10001
00000
00000
00000
00000
00000
00000
00000
00000
00000
00000
00000
00000
00000
00000
00000
00000
00000
00000
00000
00000
00000
00000
00000
00010
00000
00000
00000
00000
00000
00000
00000
00000
00000
00000
00000
00000
00000
00000
00000
00000
00000
00000
00000
00000
00000
00000
00000
00100
00000
00000
00000
00000
00000
00000
00000
00000
00000
00000
00000
00000
00000
00000
00000
00000
00000
00000
00000
00000
00000
00000
00000
00000
00000
00000
00000
00000
00000
00000
00000
00000
00000
00000
00000
00000
00000
00000
00000
00000
00000
00000
00000
00000
00000
00000
00000
,  // Measure 40
00010
00010
01000
01000
,  // Measure 41
01000
00000
00000
00000
00000
00000
00000
00000
00000
00000
00000
00000
00000
00000
00000
00000
00100
00000
00000
00000
00000
00000
00000
00000
00000
00000
00000
00000
00000
00000
00000
00000
00010
00000
00000
00000
00000
00000
00000
00000
00000
00000
00000
00000
00000
00000
00000
00000
00001
00000
00000
00000
00000
00000
00000
00000
00000
00000
00000
00000
00000
00000
00000
00000
00000
00000
00000
00000
00000
00000
00000
00000
00100
00000
00000
00000
00000
00000
00000
00000
00000
00000
00000
00000
00000
00000
00000
00000
00000
00000
00000
00000
00000
00000
00000
00000
00000
00000
00000
00000
00000
00000
00000
00000
00000
00000
00000
00000
00000
00000
00000
00000
00000
00000
00000
00000
00000
00000
00000
00000
01010
00000
00000
00000
00000
00000
00000
00000
00000
00000
00000
00000
00000
00000
00000
00000
00000
00000
00000
00000
00000
00000
00000
00000
00000
00000
00000
00000
00000
00000
00000
00000
00000
00000
00000
00000
00000
00000
00000
00000
00000
00000
00000
00000
00000
00000
00000
00000
00000
00000
00000
00000
00000
00000
00000
00000
00000
00000
00000
00000
00000
00000
00000
00000
00000
00000
00000
00000
00000
00000
00000
00000
,  // Measure 42
00001
00000
00000
00000
00000
00000
00000
00000
00000
00000
00000
00000
00000
00000
00000
00000
00010
00000
00000
00000
00000
00000
00000
00000
00000
00000
00000
00000
00000
00000
00000
00000
00100
00000
00000
00000
00000
00000
00000
00000
00000
00000
00000
00000
00000
00000
00000
00000
01000
00000
00000
00000
00000
00000
00000
00000
00000
00000
00000
00000
00000
00000
00000
00000
00000
00000
00000
00000
00000
00000
00000
00000
00100
00000
00000
00000
00000
00000
00000
00000
00000
00000
00000
00000
00000
00000
00000
00000
00000
00000
00000
00000
00000
00000
00000
00000
00000
00000
00000
00000
00000
00000
00000
00000
00000
00000
00000
00000
00000
00000
00000
00000
00000
00000
00000
00000
00000
00000
00000
00000
01010
00000
00000
00000
00000
00000
00000
00000
00000
00000
00000
00000
00000
00000
00000
00000
00000
00000
00000
00000
00000
00000
00000
00000
00000
00000
00000
00000
00000
00000
00000
00000
00000
00000
00000
00000
00000
00000
00000
00000
00000
00000
00000
00000
00000
00000
00000
00000
00000
00000
00000
00000
00000
00000
00000
00000
00000
00000
00000
00000
00000
00000
00000
00000
00000
00000
00000
00000
00000
00000
00000
00000
,  // Measure 43
01000
00000
00000
00000
00000
00000
00000
00000
00000
00000
00000
00000
00000
00000
00000
00000
00100
00000
00000
00000
00000
00000
00000
00000
00000
00000
00000
00000
00000
00000
00000
00000
00010
00000
00000
00000
00000
00000
00000
00000
00000
00000
00000
00000
00000
00000
00000
00000
00001
00000
00000
00000
00000
00000
00000
00000
00000
00000
00000
00000
00000
00000
00000
00000
00000
00000
00000
00000
00000
00000
00000
00000
01000
00000
00000
00000
00000
00000
10000
00000
00000
00000
00000
00000
00000
00000
00000
00000
00000
00000
00000
00000
00000
00000
00000
00000
00000
00000
00000
00000
00000
00000
00000
00000
00000
00000
00000
00000
00000
00000
00000
00000
00000
00000
00000
00000
00000
00000
00000
00000
00100
00000
00000
00000
00000
00000
00010
00000
00000
00000
00000
00000
00000
00000
00000
00000
00000
00000
00000
00000
00000
00000
00000
00000
00000
00000
00000
00000
00000
00000
00000
00000
00000
00000
00000
00000
00000
00000
00000
00000
00000
00000
00000
00000
00000
00000
00000
00000
10000
00000
00000
00000
00000
00000
00000
00000
00000
00000
00000
00000
00000
00000
00000
00000
00000
00000
00000
00000
00000
00000
00000
00000
,  // Measure 44
00000
00000
00000
00000
00000
00000
00000
00000
00000
00000
00000
00000
00000
00000
00000
00000
00100
00000
00010
00000
00000
00000
00000
00000
00000
00000
00000
00000
00000
00000
00000
00000
00010
00000
00000
00000
00000
00100
00000
00000
00000
00000
01000
00000
00000
00000
00000
10000
00000
00000
00000
00000
00000
00000
00000
00000
00000
00000
00000
00000
00000
00000
00000
00000
,  // Measure 45
01000
00000
00000
00000
00000
00000
00000
00000
00000
00000
00000
00000
00000
00000
00000
00000
00100
00000
00000
00000
00000
00000
00000
00000
00000
00000
00000
00000
00000
00000
00000
00000
00010
00000
00000
00000
00000
00000
00000
00000
00000
00000
00000
00000
00000
00000
00000
00000
01001
00000
00000
00000
00000
00000
00000
00000
00000
00000
00000
00000
00000
00000
00000
00000
00000
00000
00000
00000
00000
00000
00000
00000
00100
00000
00000
00000
00000
00000
00000
00000
00000
00000
00000
00000
00000
00000
00000
00000
00000
00000
00000
00000
00000
00000
00000
00000
00000
00000
00000
00000
00000
00000
00000
00000
00000
00000
00000
00000
00000
00000
00000
00000
00000
00000
00000
00000
00000
00000
00000
00000
01010
00000
00000
00000
00000
00000
00000
00000
00000
00000
00000
00000
00000
00000
00000
00000
00000
00000
00000
00000
00000
00000
00000
00000
00000
00000
00000
00000
00000
00000
00000
00000
00000
00000
00000
00000
00000
00000
00000
00000
00000
00000
00000
00000
00000
00000
00000
00000
00000
00000
00000
00000
00000
00000
00000
00000
00000
00000
00000
00000
00000
00000
00000
00000
00000
00000
00000
00000
00000
00000
00000
00000
,  // Measure 46
00010
00000
00000
00000
00000
00000
00000
00000
00000
00000
00000
00000
00000
00000
00000
00000
00100
00000
00000
00000
00000
00000
00000
00000
00000
00000
00000
00000
00000
00000
00000
00000
01000
00000
00000
00000
00000
00000
00000
00000
00000
00000
00000
00000
00000
00000
00000
00000
10010
00000
00000
00000
00000
00000
00000
00000
00000
00000
00000
00000
00000
00000
00000
00000
00000
00000
00000
00000
00000
00000
00000
00000
00100
00000
00000
00000
00000
00000
00000
00000
00000
00000
00000
00000
00000
00000
00000
00000
00000
00000
00000
00000
00000
00000
00000
00000
00000
00000
00000
00000
00000
00000
00000
00000
00000
00000
00000
00000
00000
00000
00000
00000
00000
00000
00000
00000
00000
00000
00000
00000
01010
00000
00000
00000
00000
00000
00000
00000
00000
00000
00000
00000
00000
00000
00000
00000
00000
00000
00000
00000
00000
00000
00000
00000
00000
00000
00000
00000
00000
00000
00000
00000
00000
00000
00000
00000
00000
00000
00000
00000
00000
00000
00000
00000
00000
00000
00000
00000
00000
00000
00000
00000
00000
00000
00000
00000
00000
00000
00000
00000
00000
00000
00000
00000
00000
00000
00000
00000
00000
00000
00000
00000
,  // Measure 47
01000
00000
00000
00000
00000
00000
00000
00000
00000
00000
00000
00000
00000
00000
00000
00000
00100
00000
00000
00000
00000
00000
00000
00000
00000
00000
00000
00000
00000
00000
00000
00000
00010
00000
00000
00000
00000
00000
00000
00000
00000
00000
00000
00000
00000
00000
00000
00000
01001
00000
00000
00000
00000
00000
10000
00000
00000
00000
00000
00000
00000
00000
00000
00000
00000
00000
00000
00000
00000
00000
00000
10000
00000
00000
00000
00000
00000
01000
00000
00000
00000
00000
00000
00100
00000
00000
00000
00000
00000
00000
00000
00000
00000
00000
00000
00000
00000
00000
00000
00000
00000
00000
00000
00000
00000
00000
00000
00000
00000
00000
00000
00000
00000
00000
00000
00000
00000
00000
00000
00001
00000
00000
00000
00000
00000
00010
00000
00000
00000
00000
00000
00100
00000
00000
00000
00000
00000
00000
00000
00000
00000
00000
00000
00000
00000
00000
00000
00000
00000
00000
00000
00000
00000
00000
00000
00000
00000
00000
00000
00000
00000
00000
00000
00000
00000
00000
00000
00100
00000
00000
00000
00000
00000
00000
00000
00000
00000
00000
00000
01000
00000
00000
00000
00000
00000
00000
00000
00000
00000
00000
00000
00000
,  // Measure 48
10010
00000
00000
00000
00000
00000
00000
00000
00000
00000
00000
00000
00000
00000
00000
00000
01000
00000
00100
00000
00010
00000
00000
00000
00000
00000
00000
00000
00000
00000
00000
00000
00010
00000
00000
00000
00000
00100
00000
00000
00000
00000
01000
00000
00000
00000
00000
10000
00000
00000
00000
00000
00000
00000
00000
00000
00000
00000
00000
00000
00000
00000
00000
00000
,  // Measure 49
00100
00000
00000
00000
00000
00000
00010
00000
00000
00000
00000
00000
00000
00000
00000
00000
00000
00000
00000
00000
00000
00000
00000
00000
00000
00000
00000
00000
00000
00000
00000
00000
00000
00000
00000
00000
00000
00000
00000
00000
00000
00000
00000
00000
00000
00000
00000
00000
01000
00000
00000
00000
00000
00000
00000
00000
00000
00000
00000
00000
00000
00000
00000
00000
00000
00000
00000
00000
00000
00000
00000
00000
00010
00000
00000
00000
00000
00000
00100
00000
00000
00000
00000
00000
01000
00000
00000
00000
00000
00000
00000
00000
00000
00000
00000
00000
00000
00000
00000
00000
00000
00000
00000
00000
00000
00000
00000
00000
00000
00000
00000
00000
00000
00000
00000
00000
00000
00000
00000
00000
01000
00000
00000
00000
00000
00000
00100
00000
00000
00000
00000
00000
00010
00000
00000
00000
00000
00000
00000
00000
00000
00000
00000
00000
00000
00000
00000
00000
00000
00000
00000
00000
00000
00000
00000
00000
00000
00000
00000
00000
00000
00000
00000
00000
00000
00000
00000
00000
00000
00000
00000
00000
00000
00000
00000
00000
00000
00000
00000
00000
00000
00000
00000
00000
00000
00000
00000
00000
00000
00000
00000
00000
,  // Measure 50
00100
00000
00000
00000
00000
00000
01000
00000
00000
00000
00000
00000
00000
00000
00000
00000
00000
00000
00000
00000
00000
00000
00000
00000
00000
00000
00000
00000
00000
00000
00000
00000
00000
00000
00000
00000
00000
00000
00000
00000
00000
00000
00000
00000
00000
00000
00000
00000
00010
00000
00000
00000
00000
00000
00000
00000
00000
00000
00000
00000
00000
00000
00000
00000
00000
00000
00000
00000
00000
00000
00000
00000
01000
00000
00000
00000
00000
00000
00100
00000
00000
00000
00000
00000
00010
00000
00000
00000
00000
00000
00000
00000
00000
00000
00000
00000
00000
00000
00000
00000
00000
00000
00000
00000
00000
00000
00000
00000
00000
00000
00000
00000
00000
00000
00000
00000
00000
00000
00000
00000
00010
00000
00000
00000
00000
00000
00100
00000
00000
00000
00000
00000
01000
00000
00000
00000
00000
00000
00000
00000
00000
00000
00000
00000
00000
00000
00000
00000
00000
00000
00000
00000
00000
00000
00000
00000
00000
00000
00000
00000
00000
00000
00000
00000
00000
00000
00000
00000
00000
00000
00000
00000
00000
00000
00000
00000
00000
00000
00000
00000
00000
00000
00000
00000
00000
00000
00000
00000
00000
00000
00000
00000
,  // Measure 51
00100
00000
00000
00000
00000
00000
00010
00000
00000
00000
00000
00000
00000
00000
00000
00000
00000
00000
00000
00000
00000
00000
00000
00000
00000
00000
00000
00000
00000
00000
00000
00000
00000
00000
00000
00000
00000
00000
00000
00000
00000
00000
00000
00000
00000
00000
00000
00000
01000
00000
00000
00000
00000
00000
00000
00000
00000
00000
00000
00000
00000
00000
00000
00000
00000
00000
00000
00000
00000
00000
00000
00000
00010
00000
00000
00000
00000
00000
00100
00000
00000
00000
00000
00000
01000
00000
00000
00000
00000
00000
00000
00000
00000
00000
00000
00000
00000
00000
00000
00000
00000
00000
00000
00000
00000
00000
00000
00000
00000
00000
00000
00000
00000
00000
00000
00000
00000
00000
00000
00000
01000
00000
00000
00000
00000
00000
00100
00000
00000
00000
00000
00000
00010
00000
00000
00000
00000
00000
00000
00000
00000
00000
00000
00000
00000
00000
00000
00000
00000
00000
00000
00000
00000
00000
00000
00000
00000
00000
00000
00000
00000
00000
00000
00000
00000
00000
00000
00000
00000
00000
00000
00000
00000
00000
00000
00000
00000
00000
00000
00000
00000
00000
00000
00000
00000
00000
00000
00000
00000
00000
00000
00000
,  // Measure 52
00100
00000
00000
00000
00000
00000
00000
00000
00000
00000
00000
00000
00000
00000
00000
00000
00010
00000
00100
00000
01000
00000
00000
00000
00000
00000
00000
00000
00000
00000
00000
00000
01000
00000
00000
00000
00000
00100
00000
00000
00000
00000
00010
00000
00000
00000
00000
00001
00000
00000
00000
00000
00000
00000
00000
00000
00000
00000
00000
00000
00000
00000
00000
00000
,  // Measure 53
01000
00000
00000
00000
00000
00000
00100
00000
00000
00000
00000
00000
00010
00000
00000
00000
00000
00000
00000
00000
00000
00000
00000
00000
01000
00000
00000
00000
00000
00000
00100
00000
00000
00000
00000
00000
00010
00000
00000
00000
00000
00000
00000
00000
00000
00000
00000
00000
00000
00000
00000
00000
00000
00000
00000
00000
00000
00000
00000
00000
00000
00000
00000
00000
00000
00000
00000
00000
00000
00000
00000
00000
00001
00000
00000
00000
00000
00000
00000
00000
00000
00000
00000
00000
00010
00000
00000
00000
00000
00000
00000
00000
00000
00000
00000
00000
00100
00000
00000
00000
00000
00000
00000
00000
00000
00000
00000
00000
01000
00000
00000
00000
00000
00000
00000
00000
00000
00000
00000
00000
10000
00000
00000
00000
00000
00000
00000
00000
00000
00000
00000
00000
01000
00000
00000
00000
00000
00000
00000
00000
00000
00000
00000
00000
00100
00000
00000
00000
00000
00000
00000
00000
00000
00000
00000
00000
00010
00000
00000
00000
00000
00000
00000
00000
00000
00000
00000
00000
00001
00000
00000
00000
00000
00000
00000
00000
00000
00000
00000
00000
00000
00000
00000
00000
00000
00000
00000
00000
00000
00000
00000
00000
,  // Measure 54
00010
00000
00000
00000
00000
00000
00100
00000
00000
00000
00000
00000
01000
00000
00000
00000
00000
00000
00000
00000
00000
00000
00000
00000
00010
00000
00000
00000
00000
00000
00100
00000
00000
00000
00000
00000
01000
00000
00000
00000
00000
00000
00000
00000
00000
00000
00000
00000
00000
00000
00000
00000
00000
00000
00000
00000
00000
00000
00000
00000
00000
00000
00000
00000
00000
00000
00000
00000
00000
00000
00000
00000
10000
00000
00000
00000
00000
00000
00000
00000
00000
00000
00000
00000
01000
00000
00000
00000
00000
00000
00000
00000
00000
00000
00000
00000
00100
00000
00000
00000
00000
00000
00000
00000
00000
00000
00000
00000
00010
00000
00000
00000
00000
00000
00000
00000
00000
00000
00000
00000
00001
00000
00000
00000
00000
00000
00000
00000
00000
00000
00000
00000
00010
00000
00000
00000
00000
00000
00000
00000
00000
00000
00000
00000
00100
00000
00000
00000
00000
00000
00000
00000
00000
00000
00000
00000
01000
00000
00000
00000
00000
00000
00000
00000
00000
00000
00000
00000
10000
00000
00000
00000
00000
00000
00000
00000
00000
00000
00000
00000
00000
00000
00000
00000
00000
00000
00000
00000
00000
00000
00000
00000
,  // Measure 55
00100
00000
00000
00000
00000
00000
00000
00000
00000
00000
00000
00000
01010
00000
00000
00000
00000
00000
00000
00000
00000
00000
00000
00000
10001
00000
00000
00000
00000
00000
00000
00000
00000
00000
00000
00000
00000
00000
00000
00000
00000
00000
00000
00000
00000
00000
00000
00000
00010
00000
00000
00000
00000
00000
00000
00000
00000
00000
00000
00000
00000
00000
00000
00000
00000
00000
00000
00000
00000
00000
00000
00000
01000
00000
00000
00000
00000
00000
00000
00000
00000
00000
00000
00000
00000
00000
00000
00000
00000
00000
00000
00000
00000
00000
00000
00000
00000
00000
00000
00000
00000
00000
00000
00000
00000
00000
00000
00000
00000
00000
00000
00000
00000
00000
00000
00000
00000
00000
00000
00000
00010
00000
00000
00000
00000
00000
00100
00000
00000
00000
00000
00000
01000
00000
00000
00000
00000
00000
00000
00000
00000
00000
00000
00000
00000
00000
00000
00000
00000
00000
00000
00000
00000
00000
00000
00000
00000
00000
00000
00000
00000
00000
00000
00000
00000
00000
00000
00000
20002
00000
00000
00000
00000
00000
00000
00000
00000
00000
00000
00000
00000
00000
00000
00000
00000
00000
00000
00000
00000
00000
00000
00000
,  // Measure 56
00000
00000
00000
00000
00000
00000
00000
00000
00000
00000
00000
00000
30003
00000
00000
00000
00000
00000
00000
00000
00000
00000
00000
00000
00000
00000
00000
00000
00000
00000
00000
00000
00000
00000
00000
00000
00000
00000
00000
00000
00000
00000
00000
00000
00000
00000
00000
00000
00100
00000
00000
00000
00000
00000
00000
00000
00000
00000
00000
00000
00000
00000
00000
00000
00000
00000
00000
00000
00000
00000
00000
00000
00000
00000
00000
00000
00000
00000
00000
00000
00000
00000
00000
00000
00000
00000
00000
00000
00000
00000
00000
00000
00000
00000
00000
00000
11000
00000
00000
00000
00000
00000
00000
00000
00000
00000
00000
00000
01100
00000
00000
00000
00000
00000
00000
00000
00000
00000
00000
00000
00110
00000
00000
00000
00000
00000
00000
00000
00000
00000
00000
00000
00011
00000
00000
00000
00000
00000
00000
00000
00000
00000
00000
00000
00000
00000
00000
00000
00000
00000
00000
00000
00000
00000
00000
00000
00000
00000
00000
00000
00000
00000
00000
00000
00000
00000
00000
00000
00000
00000
00000
00000
00000
00000
00000
00000
00000
00000
00000
00000
00000
00000
00000
00000
00000
00000
00000
00000
00000
00000
00000
00000
,  // Measure 57
00100
00010
00001
00000
00000
00000
00000
00000
00010
00000
00000
00000
00000
00000
00000
00000
00100
00010
00001
00000
00000
00000
00000
00000
00010
00000
00000
00000
00000
00000
00000
00000
,  // Measure 58
00100
01000
10000
00000
00000
00000
00000
00000
01000
00000
00000
00000
00000
00000
00000
00000
00100
01000
10000
00000
00000
00000
00000
00000
01000
00000
00000
00000
00000
00000
00000
00000
,  // Measure 59
00100
00010
00001
00000
00000
00000
00000
00000
00010
00000
00000
00000
00000
00000
00000
00000
00100
01000
10000
00000
00000
00000
00000
00000
01000
00100
00010
00000
00000
00000
00000
00000
,  // Measure 60
00010
00100
01000
00000
00000
00000
00000
00000
01000
00100
00010
00000
00000
00000
00000
00000
00010
00100
01000
00000
00000
00000
00000
00000
01000
00100
00010
00000
00000
00000
00000
00000
,  // Measure 61
00100
00010
00001
00000
00000
00000
00000
00000
00010
00000
00000
00000
00000
00000
00000
00000
00100
00010
00001
00000
00000
00000
00000
00000
00010
00000
00000
00000
00000
00000
00000
00000
,  // Measure 62
00100
01000
10000
00000
00000
00000
00000
00000
01000
00000
00000
00000
00000
00000
00000
00000
00100
01000
10000
00000
00000
00000
00000
00000
01000
00000
00000
00000
00000
00000
00000
00000
,  // Measure 63
00100
00010
00001
00000
00000
00000
00000
00000
00001
00010
00100
00000
00000
00000
00000
00000
00100
01000
10000
00000
00000
00000
00000
00000
10000
01000
00100
00000
00000
00000
00000
00000
,  // Measure 64
01000
00100
00010
00001
00010
00100
01000
00000
00000
00000
00000
00000
,  // Measure 65
00000
00000
00000
00000
,  // Measure 66
00000
00000
00000
00000
,  // Measure 67
00000
00000
00000
00000
;
