#TITLE:SEXY SEXY SEXY;
#SUBTITLE:;
#ARTIST:KEN MARTIN;
#TITLETRANSLIT:;
#SUBTITLETRANSLIT:;
#ARTISTTRANSLIT:;
#GENRE:;
#CREDIT:locuuraa;
#BANNER:SEXY SEXY SEXY-bn.png;
#BACKGROUND:;
#LYRICSPATH:;
#CDTITLE:./CDTitles/Para Para Paradise 2nd Mix.png;
#MUSIC:SEXY SEXY SEXY.MP3;
#OFFSET:-0.500;
#SAMPLESTART:46.959999;
#SAMPLELENGTH:12.000000;
#LASTBEATHINT:1.316667;
#SELECTABLE:YES;
#BPMS:0.000000=158.000000
;
#STOPS:
;
#BGCHANGES:-0.250=SEXY SEXY SEXY.mp4=1.000=0=0=1=====,
99999=-nosongbg-=1.000=0=0=0 // don't automatically add -songbackground-
;
#KEYSOUNDS:;
#ATTACKS:;

//---------------para-single - locuuraa----------------
#NOTES:
     para-single:
     ParaPara:
     Beginner:
     2:
     0.000:
// Measure 0
00000
00000
00000
00000
,  // Measure 1
00000
00000
00000
00000
,  // Measure 2
00100
00010
00001
00000
00100
01000
10000
00000
,  // Measure 3
00100
00000
00000
00000
00000
00000
00000
00000
00000
00000
00000
00000
00000
00000
00000
00000
00010
00000
00000
00000
00000
00000
00000
00000
00000
00000
00000
00000
00000
00000
00000
00000
00000
00000
00000
00000
00000
00000
00000
00000
00000
00000
00000
00000
00000
00000
00000
00000
00100
00000
00000
00000
00000
00000
00000
00000
00000
00000
00000
00000
00000
00000
00000
00000
01000
00000
00000
00000
00000
00000
00000
00000
00000
00000
00000
00000
00000
00000
00000
00000
00000
00000
00000
00000
00000
00000
00000
00000
00000
00000
00000
00000
00000
00000
00000
00000
00100
00000
00000
00000
00000
00000
00000
00000
00000
00000
00000
00000
00000
00000
00000
00000
00000
00000
00000
00000
00000
00000
00000
00000
00010
00000
00000
00000
00000
00000
00000
00000
00000
00000
00000
00000
00000
00000
00000
00000
00000
00000
00000
00000
00000
00000
00000
00000
00001
00000
00000
00000
00000
00000
00000
00000
00000
00000
00000
00000
00000
00000
00000
00000
00000
00000
00000
00000
00000
00000
00000
00000
00000
00000
00000
00000
00000
00000
00000
00000
00000
00000
00000
00000
00000
00000
00000
00000
00000
00000
00000
00000
00000
00000
00000
00000
,  // Measure 4
00100
01000
10000
00000
00100
00010
00001
00000
,  // Measure 5
00100
00000
00000
00000
00000
00000
00000
00000
00000
00000
00000
00000
00000
00000
00000
00000
01000
00000
00000
00000
00000
00000
00000
00000
00000
00000
00000
00000
00000
00000
00000
00000
00000
00000
00000
00000
00000
00000
00000
00000
00000
00000
00000
00000
00000
00000
00000
00000
00100
00000
00000
00000
00000
00000
00000
00000
00000
00000
00000
00000
00000
00000
00000
00000
00010
00000
00000
00000
00000
00000
00000
00000
00000
00000
00000
00000
00000
00000
00000
00000
00000
00000
00000
00000
00000
00000
00000
00000
00000
00000
00000
00000
00000
00000
00000
00000
00100
00000
00000
00000
00000
00000
00000
00000
00000
00000
00000
00000
00000
00000
00000
00000
00000
00000
00000
00000
00000
00000
00000
00000
01000
00000
00000
00000
00000
00000
00000
00000
00000
00000
00000
00000
00000
00000
00000
00000
00000
00000
00000
00000
00000
00000
00000
00000
10000
00000
00000
00000
00000
00000
00000
00000
00000
00000
00000
00000
00000
00000
00000
00000
00000
00000
00000
00000
00000
00000
00000
00000
00000
00000
00000
00000
00000
00000
00000
00000
00000
00000
00000
00000
00000
00000
00000
00000
00000
00000
00000
00000
00000
00000
00000
00000
,  // Measure 6
00100
00010
00001
00000
00100
01000
10000
00000
,  // Measure 7
00100
00000
00000
00000
00000
00000
00000
00000
00000
00000
00000
00000
00000
00000
00000
00000
00010
00000
00000
00000
00000
00000
00000
00000
00000
00000
00000
00000
00000
00000
00000
00000
00000
00000
00000
00000
00000
00000
00000
00000
00000
00000
00000
00000
00000
00000
00000
00000
00100
00000
00000
00000
00000
00000
00000
00000
00000
00000
00000
00000
00000
00000
00000
00000
01000
00000
00000
00000
00000
00000
00000
00000
00000
00000
00000
00000
00000
00000
00000
00000
00000
00000
00000
00000
00000
00000
00000
00000
00000
00000
00000
00000
00000
00000
00000
00000
00100
00000
00000
00000
00000
00000
00000
00000
00000
00000
00000
00000
00000
00000
00000
00000
00000
00000
00000
00000
00000
00000
00000
00000
00010
00000
00000
00000
00000
00000
00000
00000
00000
00000
00000
00000
00000
00000
00000
00000
00000
00000
00000
00000
00000
00000
00000
00000
00001
00000
00000
00000
00000
00000
00000
00000
00000
00000
00000
00000
00000
00000
00000
00000
00000
00000
00000
00000
00000
00000
00000
00000
00000
00000
00000
00000
00000
00000
00000
00000
00000
00000
00000
00000
00000
00000
00000
00000
00000
00000
00000
00000
00000
00000
00000
00000
,  // Measure 8
00100
01000
10000
00000
00100
00010
00001
00000
,  // Measure 9
00100
00000
00000
00000
00000
00000
00000
00000
00000
00000
00000
00000
00000
00000
00000
00000
01000
00000
00000
00000
00000
00000
00000
00000
00000
00000
00000
00000
00000
00000
00000
00000
00000
00000
00000
00000
00000
00000
00000
00000
00000
00000
00000
00000
00000
00000
00000
00000
00100
00000
00000
00000
00000
00000
00000
00000
00000
00000
00000
00000
00000
00000
00000
00000
00010
00000
00000
00000
00000
00000
00000
00000
00000
00000
00000
00000
00000
00000
00000
00000
00000
00000
00000
00000
00000
00000
00000
00000
00000
00000
00000
00000
00000
00000
00000
00000
00100
00000
00000
00000
00000
00000
00000
00000
00000
00000
00000
00000
00000
00000
00000
00000
00000
00000
00000
00000
00000
00000
00000
00000
01000
00000
00000
00000
00000
00000
00000
00000
00000
00000
00000
00000
00000
00000
00000
00000
00000
00000
00000
00000
00000
00000
00000
00000
10000
00000
00000
00000
00000
00000
00000
00000
00000
00000
00000
00000
00000
00000
00000
00000
00000
00000
00000
00000
00000
00000
00000
00000
00000
00000
00000
00000
00000
00000
00000
00000
00000
00000
00000
00000
00000
00000
00000
00000
00000
00000
00000
00000
00000
00000
00000
00000
,  // Measure 10
00000
20002
30003
00000
00000
00000
00000
00000
,  // Measure 11
00001
10000
00001
00000
,  // Measure 12
00001
10000
00001
10000
,  // Measure 13
00000
00000
00000
00000
00000
20002
30003
00000
,  // Measure 14
00000
00000
00000
00000
,  // Measure 15
00000
00000
00000
00000
,  // Measure 16
00000
00000
00000
00000
,  // Measure 17
00000
00000
00000
00000
,  // Measure 18
00000
20002
30003
00000
00000
00000
00000
00000
,  // Measure 19
00001
10000
00001
00000
,  // Measure 20
00001
10000
00001
10000
,  // Measure 21
00000
00000
00000
00000
00000
20002
30003
00000
,  // Measure 22
00000
00000
00000
00000
,  // Measure 23
00000
00000
00000
00000
,  // Measure 24
00000
00000
00000
00000
,  // Measure 25
00000
00000
00000
00000
,  // Measure 26
01000
00000
00010
00000
,  // Measure 27
00000
00000
01000
00000
,  // Measure 28
01000
00100
00010
00000
,  // Measure 29
00010
00100
01000
00000
,  // Measure 30
01000
00000
00010
00000
,  // Measure 31
00000
00000
01000
00000
,  // Measure 32
01000
00100
00010
00000
,  // Measure 33
00010
00100
01000
00000
,  // Measure 34
00000
00000
00010
00000
,  // Measure 35
00000
00000
01000
00000
,  // Measure 36
00100
00100
00000
00000
,  // Measure 37
00100
00100
00000
00000
,  // Measure 38
00000
00000
00010
00000
,  // Measure 39
00000
00000
01000
00000
,  // Measure 40
00100
00100
00000
00000
,  // Measure 41
00100
00100
00000
00000
,  // Measure 42
00000
00000
00000
00000
,  // Measure 43
00000
00000
00000
00000
,  // Measure 44
00000
00000
00000
00000
,  // Measure 45
00200
00300
01010
01010
,  // Measure 46
00000
00000
00000
00000
,  // Measure 47
00000
00000
00000
00000
,  // Measure 48
00000
00000
00000
00000
,  // Measure 49
00200
00300
01010
01010
,  // Measure 50
00100
00010
00001
00000
00100
01000
10000
00000
,  // Measure 51
00100
00000
00000
00000
00000
00000
00000
00000
00000
00000
00000
00000
00000
00000
00000
00000
00010
00000
00000
00000
00000
00000
00000
00000
00000
00000
00000
00000
00000
00000
00000
00000
00000
00000
00000
00000
00000
00000
00000
00000
00000
00000
00000
00000
00000
00000
00000
00000
00100
00000
00000
00000
00000
00000
00000
00000
00000
00000
00000
00000
00000
00000
00000
00000
01000
00000
00000
00000
00000
00000
00000
00000
00000
00000
00000
00000
00000
00000
00000
00000
00000
00000
00000
00000
00000
00000
00000
00000
00000
00000
00000
00000
00000
00000
00000
00000
00100
00000
00000
00000
00000
00000
00000
00000
00000
00000
00000
00000
00000
00000
00000
00000
00000
00000
00000
00000
00000
00000
00000
00000
00010
00000
00000
00000
00000
00000
00000
00000
00000
00000
00000
00000
00000
00000
00000
00000
00000
00000
00000
00000
00000
00000
00000
00000
00001
00000
00000
00000
00000
00000
00000
00000
00000
00000
00000
00000
00000
00000
00000
00000
00000
00000
00000
00000
00000
00000
00000
00000
00000
00000
00000
00000
00000
00000
00000
00000
00000
00000
00000
00000
00000
00000
00000
00000
00000
00000
00000
00000
00000
00000
00000
00000
,  // Measure 52
00100
01000
10000
00000
00100
00010
00001
00000
,  // Measure 53
00100
00000
00000
00000
00000
00000
00000
00000
00000
00000
00000
00000
00000
00000
00000
00000
01000
00000
00000
00000
00000
00000
00000
00000
00000
00000
00000
00000
00000
00000
00000
00000
00000
00000
00000
00000
00000
00000
00000
00000
00000
00000
00000
00000
00000
00000
00000
00000
00100
00000
00000
00000
00000
00000
00000
00000
00000
00000
00000
00000
00000
00000
00000
00000
00010
00000
00000
00000
00000
00000
00000
00000
00000
00000
00000
00000
00000
00000
00000
00000
00000
00000
00000
00000
00000
00000
00000
00000
00000
00000
00000
00000
00000
00000
00000
00000
00100
00000
00000
00000
00000
00000
00000
00000
00000
00000
00000
00000
00000
00000
00000
00000
00000
00000
00000
00000
00000
00000
00000
00000
01000
00000
00000
00000
00000
00000
00000
00000
00000
00000
00000
00000
00000
00000
00000
00000
00000
00000
00000
00000
00000
00000
00000
00000
10000
00000
00000
00000
00000
00000
00000
00000
00000
00000
00000
00000
00000
00000
00000
00000
00000
00000
00000
00000
00000
00000
00000
00000
00000
00000
00000
00000
00000
00000
00000
00000
00000
00000
00000
00000
00000
00000
00000
00000
00000
00000
00000
00000
00000
00000
00000
00000
,  // Measure 54
00100
00010
00001
00000
00100
01000
10000
00000
,  // Measure 55
00100
00000
00000
00000
00000
00000
00000
00000
00000
00000
00000
00000
00000
00000
00000
00000
00010
00000
00000
00000
00000
00000
00000
00000
00000
00000
00000
00000
00000
00000
00000
00000
00000
00000
00000
00000
00000
00000
00000
00000
00000
00000
00000
00000
00000
00000
00000
00000
00100
00000
00000
00000
00000
00000
00000
00000
00000
00000
00000
00000
00000
00000
00000
00000
01000
00000
00000
00000
00000
00000
00000
00000
00000
00000
00000
00000
00000
00000
00000
00000
00000
00000
00000
00000
00000
00000
00000
00000
00000
00000
00000
00000
00000
00000
00000
00000
00100
00000
00000
00000
00000
00000
00000
00000
00000
00000
00000
00000
00000
00000
00000
00000
00000
00000
00000
00000
00000
00000
00000
00000
00010
00000
00000
00000
00000
00000
00000
00000
00000
00000
00000
00000
00000
00000
00000
00000
00000
00000
00000
00000
00000
00000
00000
00000
00001
00000
00000
00000
00000
00000
00000
00000
00000
00000
00000
00000
00000
00000
00000
00000
00000
00000
00000
00000
00000
00000
00000
00000
00000
00000
00000
00000
00000
00000
00000
00000
00000
00000
00000
00000
00000
00000
00000
00000
00000
00000
00000
00000
00000
00000
00000
00000
,  // Measure 56
00100
01000
10000
00000
00100
00010
00001
00000
,  // Measure 57
00100
00000
00000
00000
00000
00000
00000
00000
00000
00000
00000
00000
00000
00000
00000
00000
01000
00000
00000
00000
00000
00000
00000
00000
00000
00000
00000
00000
00000
00000
00000
00000
00000
00000
00000
00000
00000
00000
00000
00000
00000
00000
00000
00000
00000
00000
00000
00000
00100
00000
00000
00000
00000
00000
00000
00000
00000
00000
00000
00000
00000
00000
00000
00000
00010
00000
00000
00000
00000
00000
00000
00000
00000
00000
00000
00000
00000
00000
00000
00000
00000
00000
00000
00000
00000
00000
00000
00000
00000
00000
00000
00000
00000
00000
00000
00000
00100
00000
00000
00000
00000
00000
00000
00000
00000
00000
00000
00000
00000
00000
00000
00000
00000
00000
00000
00000
00000
00000
00000
00000
01000
00000
00000
00000
00000
00000
00000
00000
00000
00000
00000
00000
00000
00000
00000
00000
00000
00000
00000
00000
00000
00000
00000
00000
10000
00000
00000
00000
00000
00000
00000
00000
00000
00000
00000
00000
00000
00000
00000
00000
00000
00000
00000
00000
00000
00000
00000
00000
00000
00000
00000
00000
00000
00000
00000
00000
00000
00000
00000
00000
00000
00000
00000
00000
00000
00000
00000
00000
00000
00000
00000
00000
,  // Measure 58
00000
00000
00000
00000
;

//---------------para-single - locuuraa----------------
#NOTES:
     para-single:
     Normal:
     Easy:
     3:
     0.000:
// Measure 0
00000
00000
00000
00000
,  // Measure 1
00000
00000
00000
00000
,  // Measure 2
00010
00000
00010
00000
,  // Measure 3
01000
00100
00010
00001
00000
00000
00000
00000
,  // Measure 4
00000
01000
01000
01000
,  // Measure 5
00001
00010
00100
01000
00000
00000
00000
00000
,  // Measure 6
00010
00000
00010
00000
,  // Measure 7
01000
00100
00010
00001
00000
00000
00000
00000
,  // Measure 8
00000
01000
01000
01000
,  // Measure 9
00001
00010
00100
01000
00000
00000
00000
00000
,  // Measure 10
00002
00000
00003
00000
,  // Measure 11
00000
01000
01000
01000
,  // Measure 12
00010
00000
00010
00000
,  // Measure 13
01000
00000
01000
00000
,  // Measure 14
00100
00000
00100
01000
,  // Measure 15
01000
01000
01000
01000
,  // Measure 16
00010
00000
00010
00000
,  // Measure 17
00010
00000
00000
00000
00000
00000
00000
00000
00000
00000
00100
01000
00000
00000
00000
00000
,  // Measure 18
00002
00000
00003
00000
,  // Measure 19
00000
01000
01000
01000
,  // Measure 20
00010
00000
00010
00000
,  // Measure 21
01000
00000
01000
00000
,  // Measure 22
00010
01000
00010
00000
,  // Measure 23
01000
01000
00000
01000
,  // Measure 24
00010
00100
01000
10000
00000
00000
00000
00000
,  // Measure 25
00010
00010
01000
01000
,  // Measure 26
00001
00010
00100
01000
,  // Measure 27
10000
00000
10000
00000
,  // Measure 28
10000
01000
00100
00010
,  // Measure 29
00001
00000
00001
00000
,  // Measure 30
00001
00010
00100
01000
,  // Measure 31
10000
00000
10000
00000
,  // Measure 32
00100
00000
00000
01000
00000
00010
00000
00100
,  // Measure 33
00010
01000
00010
01000
,  // Measure 34
01000
00000
00010
00000
01000
00100
00010
00001
,  // Measure 35
00000
00000
00000
00000
,  // Measure 36
00100
00010
00100
01000
,  // Measure 37
00100
00000
00100
00000
,  // Measure 38
01000
00000
00010
00000
01000
00100
00010
00001
,  // Measure 39
00000
00000
00000
00000
,  // Measure 40
00100
00010
00100
01000
,  // Measure 41
00100
00100
00000
00000
,  // Measure 42
00000
00100
00000
00100
,  // Measure 43
00000
00100
00000
00100
,  // Measure 44
00000
00100
00000
00100
,  // Measure 45
00000
00001
00000
00002
00000
00000
00003
00000
,  // Measure 46
00000
01010
00000
01010
,  // Measure 47
00000
01010
00000
01010
,  // Measure 48
00000
01010
00000
01010
,  // Measure 49
00000
00001
00000
00002
00000
00000
00003
00000
,  // Measure 50
00010
00000
00010
00000
,  // Measure 51
01000
00100
00010
00001
00000
00000
00000
00000
,  // Measure 52
00000
01000
01000
01000
,  // Measure 53
00001
00010
00100
01000
00000
00000
00000
00000
,  // Measure 54
00010
00000
00010
00000
,  // Measure 55
01000
00100
00010
00001
00000
00000
00000
00000
,  // Measure 56
00000
01000
01000
01000
,  // Measure 57
00001
00010
00100
01000
00000
00000
00000
00000
,  // Measure 58
00000
00000
00000
00000
;

//---------------para-single - locuuraa----------------
#NOTES:
     para-single:
     Hard:
     Medium:
     6:
     0.000:
// Measure 0
00000
00000
00000
00000
,  // Measure 1
00000
00000
00000
00000
,  // Measure 2
00020
00000
00000
00000
02000
00030
00000
03000
00002
00000
20000
00000
30003
00000
00000
00000
,  // Measure 3
00100
00010
00100
00010
00000
10000
01000
00100
,  // Measure 4
00000
01000
00100
01000
00100
01000
00100
01000
,  // Measure 5
00001
00010
00100
01000
00000
00000
00000
00000
,  // Measure 6
00020
00000
00000
00000
02000
00030
00000
03000
00002
00000
20000
00000
30003
00000
00000
00000
,  // Measure 7
00100
00010
00100
00010
00000
10000
01000
00100
,  // Measure 8
00000
01000
00100
01000
00100
01000
00100
01000
,  // Measure 9
00001
00010
00100
01000
00200
00300
00020
00030
,  // Measure 10
00002
00000
00000
00000
00000
00000
00000
00003
,  // Measure 11
00000
01000
00100
01000
00100
01000
00100
01000
,  // Measure 12
00100
00000
10000
00000
00010
00001
20000
00000
00000
00000
00000
00000
00010
00001
00000
00000
,  // Measure 13
00000
00000
00000
00000
00000
00000
00000
00000
30000
00000
00100
00000
00010
00000
00100
00000
,  // Measure 14
01000
00000
00000
00000
01010
00001
10000
00000
01000
00000
00000
00000
01000
00000
10000
00000
,  // Measure 15
01000
10000
01000
10000
01000
10000
01000
10000
,  // Measure 16
00000
00000
00100
00000
01010
00001
10000
00000
00000
00000
00000
00000
00210
00001
00000
00000
,  // Measure 17
00300
00000
00000
00000
00210
00001
00000
00000
00300
00000
02010
00001
00000
00000
03000
00000
,  // Measure 18
00002
00000
00000
00000
00000
00000
00000
00003
,  // Measure 19
00000
01000
00100
01000
00100
01000
00100
01000
,  // Measure 20
00100
00000
01000
00000
00010
00001
20000
00000
30000
00000
00002
00000
00003
00000
00200
00000
,  // Measure 21
00000
00000
00000
00000
00010
00001
00300
00000
00000
00000
00100
00000
01000
00000
00100
00000
,  // Measure 22
10000
01000
00100
00000
01000
00100
00010
00000
00100
00010
00001
00000
01000
00000
10000
00000
,  // Measure 23
01000
10000
01000
10000
00000
10000
01000
00100
,  // Measure 24
00010
00000
00100
00000
01000
00000
20000
00000
00000
00000
00000
00000
30010
00001
00000
00000
,  // Measure 25
00001
00100
00010
01000
00100
10000
02000
03000
,  // Measure 26
00001
00010
00000
00000
00010
00100
00000
00000
00100
01000
00000
00000
01000
10000
00000
00000
,  // Measure 27
10000
01000
00100
00010
10001
00000
00000
00000
10000
01000
00100
00010
10001
00000
00000
00000
,  // Measure 28
10000
01000
10000
00100
10000
00010
10000
00001
,  // Measure 29
10000
01000
00100
00010
10001
00000
00000
00000
10000
01000
00100
00010
10001
00000
00000
00000
,  // Measure 30
00001
00010
00000
00000
00010
00100
00000
00000
00100
01000
00000
00000
01000
10000
00000
00000
,  // Measure 31
10000
01000
00100
00010
10001
00000
00000
00000
10000
01000
00100
00010
10001
00000
00000
00000
,  // Measure 32
00200
00000
00300
02020
03030
20002
30003
01010
,  // Measure 33
00200
00300
02002
03003
20020
30030
00200
00300
,  // Measure 34
10100
01010
00101
00000
00101
01010
10100
02000
,  // Measure 35
00000
00100
00010
00002
00000
00000
03003
00000
,  // Measure 36
00001
00010
00001
00010
01000
10000
01000
10000
,  // Measure 37
00100
01010
00100
01010
00000
10001
01010
00100
,  // Measure 38
10100
01010
00101
00000
00101
01010
10100
02000
,  // Measure 39
00000
00100
00010
00002
00000
00000
03003
00000
,  // Measure 40
00001
00010
00001
00010
01000
10000
01000
10000
,  // Measure 41
00100
00000
01010
00000
00100
00000
01010
00000
00001
10000
00001
10000
00001
10000
00001
10000
,  // Measure 42
00000
00100
01010
00100
01010
10001
00000
02020
,  // Measure 43
03030
00100
01010
00100
01010
10001
00000
02020
,  // Measure 44
03030
00100
01010
00100
01010
10001
00000
00000
,  // Measure 45
00010
00000
00000
00000
00000
00000
00000
00000
00000
00000
00000
00000
00000
00000
00000
00000
00000
00000
00000
00000
00000
00000
00000
00000
00001
00000
00000
00000
00000
00000
00000
00000
00000
00000
00000
00000
00000
00000
00000
00000
00000
00000
00000
00000
00000
00000
00000
00000
00000
00000
00000
00000
00000
00000
00000
00000
00000
00000
00000
00000
00000
00000
00000
00000
00000
00000
00000
00000
00000
00000
00000
00000
00002
00000
00000
00000
00000
00000
00000
00000
00000
00000
00000
00000
00000
00000
00000
00000
00000
00000
00000
00000
00000
00000
00000
00000
00000
00000
00000
00000
00000
00000
00000
00000
00000
00000
00000
00000
00000
00000
00000
00000
00000
00000
00000
00000
00000
00000
00000
00000
00000
00000
00000
00000
00000
00000
00000
00000
00000
00000
00000
00000
00003
00000
00000
00000
00000
00000
00000
00000
00000
00000
00000
00000
00000
00000
00000
00000
00000
00000
00000
00000
00000
00000
00000
00000
00000
00000
00000
00000
00000
00000
00000
00000
00000
00000
00000
02020
00000
00000
00000
00000
00000
00000
00000
00000
00000
00000
00000
00000
00000
00000
00000
00000
00000
00000
00000
00000
00000
00000
00000
00000
,  // Measure 46
03030
00000
00000
00000
00000
00000
00000
00000
00000
00000
00000
00000
00000
00000
00000
00000
00000
00000
00000
00000
00000
00000
00000
00000
00100
00000
00000
00000
00000
00000
00000
00000
00000
00000
00000
00000
00000
00000
00000
00000
00000
00000
00000
00000
00000
00000
00000
00000
01010
00000
00000
00000
00000
00000
00000
00000
00000
00000
00000
00000
00000
00000
00000
00000
00000
00000
00000
00000
00000
00000
00000
00000
00100
00000
00000
00000
00000
00000
00000
00000
00000
00000
00000
00000
00000
00000
00000
00000
00000
00000
00000
00000
00000
00000
00000
00000
01010
00000
00000
00000
00000
00000
00000
00000
00000
00000
00000
00000
00000
00000
00000
00000
00000
00000
00000
00000
00000
00000
00000
00000
10001
00000
00000
00000
00000
00000
00000
00000
00000
00000
00000
00000
00000
00000
00000
00000
00000
00000
00000
00000
00000
00000
00000
00000
00000
00000
00000
00000
00000
00000
00000
00000
00000
00000
00000
00000
00000
00000
00000
00000
00000
00000
00000
00000
00000
00000
00000
00000
02020
00000
00000
00000
00000
00000
00000
00000
00000
00000
00000
00000
00000
00000
00000
00000
00000
00000
00000
00000
00000
00000
00000
00000
,  // Measure 47
03030
00000
00000
00000
00000
00000
00000
00000
00000
00000
00000
00000
00000
00000
00000
00000
00000
00000
00000
00000
00000
00000
00000
00000
00100
00000
00000
00000
00000
00000
00000
00000
00000
00000
00000
00000
00000
00000
00000
00000
00000
00000
00000
00000
00000
00000
00000
00000
01010
00000
00000
00000
00000
00000
00000
00000
00000
00000
00000
00000
00000
00000
00000
00000
00000
00000
00000
00000
00000
00000
00000
00000
00100
00000
00000
00000
00000
00000
00000
00000
00000
00000
00000
00000
00000
00000
00000
00000
00000
00000
00000
00000
00000
00000
00000
00000
01010
00000
00000
00000
00000
00000
00000
00000
00000
00000
00000
00000
00000
00000
00000
00000
00000
00000
00000
00000
00000
00000
00000
00000
10001
00000
00000
00000
00000
00000
00000
00000
00000
00000
00000
00000
00000
00000
00000
00000
00000
00000
00000
00000
00000
00000
00000
00000
00000
00000
00000
00000
00000
00000
00000
00000
00000
00000
00000
00000
00000
00000
00000
00000
00000
00000
00000
00000
00000
00000
00000
00000
02020
00000
00000
00000
00000
00000
00000
00000
00000
00000
00000
00000
00000
00000
00000
00000
00000
00000
00000
00000
00000
00000
00000
00000
,  // Measure 48
03030
00000
00000
00000
00000
00000
00000
00000
00000
00000
00000
00000
00000
00000
00000
00000
00000
00000
00000
00000
00000
00000
00000
00000
00100
00000
00000
00000
00000
00000
00000
00000
00000
00000
00000
00000
00000
00000
00000
00000
00000
00000
00000
00000
00000
00000
00000
00000
01010
00000
00000
00000
00000
00000
00000
00000
00000
00000
00000
00000
00000
00000
00000
00000
00000
00000
00000
00000
00000
00000
00000
00000
00100
00000
00000
00000
00000
00000
00000
00000
00000
00000
00000
00000
00000
00000
00000
00000
00000
00000
00000
00000
00000
00000
00000
00000
01010
00000
00000
00000
00000
00000
00000
00000
00000
00000
00000
00000
00000
00000
00000
00000
00000
00000
00000
00000
00000
00000
00000
00000
10001
00000
00000
00000
00000
00000
00000
00000
00000
00000
00000
00000
00000
00000
00000
00000
00000
00000
00000
00000
00000
00000
00000
00000
00000
00000
00000
00000
00000
00000
00000
00000
00000
00000
00000
00000
00000
00000
00000
00000
00000
00000
00000
00000
00000
00000
00000
00000
00000
00000
00000
00000
00000
00000
00000
00000
00000
00000
00000
00000
00000
00000
00000
00000
00000
00000
00000
00000
00000
00000
00000
00000
,  // Measure 49
00010
00001
00000
00002
00000
00000
00003
00000
,  // Measure 50
00020
00000
00000
00000
02000
00030
00000
03000
00002
00000
20000
00000
30003
00000
00000
00000
,  // Measure 51
00100
00010
00100
00020
00030
10000
01000
00200
,  // Measure 52
00300
01000
00100
01000
00100
01000
00100
01000
,  // Measure 53
00001
00010
00100
01000
00000
00000
00000
00000
,  // Measure 54
00020
00000
00000
00000
02000
00030
00000
03000
00002
00000
20000
00000
30003
00000
00000
00000
,  // Measure 55
00100
00010
00100
00020
00030
10000
01000
00200
,  // Measure 56
00300
01000
00100
01000
00100
01000
00100
01000
,  // Measure 57
00001
00010
00100
01000
00000
00000
00000
00000
,  // Measure 58
00000
00000
00000
00000
;
