#TITLE:VELFARRE 2000;
#SUBTITLE:;
#ARTIST:BAZOOKA GIRLS;
#TITLETRANSLIT:;
#SUBTITLETRANSLIT:;
#ARTISTTRANSLIT:;
#GENRE:;
#CREDIT:locuuraa;
#BANNER:VELFARRE 2000-bn.png;
#BACKGROUND:VELFARRE 2000-cd.png;
#LYRICSPATH:;
#CDTITLE:./CDTitles/Para Para Paradise 1st Mix Plus.png;
#MUSIC:VELFARRE 2000.mp3;
#OFFSET:0.000000;
#SAMPLESTART:56.700001;
#SAMPLELENGTH:16.000000;
#SELECTABLE:YES;
#BPMS:0.000000=160.000000
;
#STOPS:
;
#BGCHANGES:0.500=VELFARRE 2000.mp4=1.000=0=0=1=====,
99999=-nosongbg-=1.000=0=0=0 // don't automatically add -songbackground-
;
#KEYSOUNDS:;
#ATTACKS:;

//---------------para-single - ParaPara----------------
#NOTES:
     para-single:
     ParaPara:
     Beginner:
     4:
     0.193845,0.318026,0.267812,0.205322,0.013391,152.000000,122.000000,30.000000,23.000000,0.000000,0.000000,0.193845,0.318026,0.267812,0.205322,0.013391,152.000000,122.000000,30.000000,23.000000,0.000000,0.000000:
// measure 0
00000
00000
00000
00000
,  // measure 1
00000
00000
00000
00000
,  // measure 2
00000
00000
00000
00000
,  // measure 3
00000
00000
00000
00000
,  // measure 4
00000
00000
00000
00000
,  // measure 5
10001
00000
00000
00000
10001
00000
00000
00000
20002
00000
00000
30003
00000
00000
00000
00000
,  // measure 6
00000
00000
00010
00000
,  // measure 7
00200
00000
00000
00000
,  // measure 8
00000
00000
00300
00000
,  // measure 9
10001
00000
00000
00000
10001
00000
00000
00000
20002
00000
00000
30003
00000
00000
00000
00000
,  // measure 10
00000
00000
00010
00000
,  // measure 11
00010
00010
00010
00010
,  // measure 12
00010
01000
00010
00010
,  // measure 13
01000
01000
00000
00000
,  // measure 14
00010
01000
00010
00010
,  // measure 15
01000
01000
00010
00000
,  // measure 16
00000
02000
00000
00000
00000
00000
00000
00000
00000
00000
00000
00000
00000
00000
00000
00000
03000
00000
00000
00000
00000
00000
00000
00000
,  // measure 17
01000
00100
00010
00001
,  // measure 18
01010
00000
00000
00000
,  // measure 19
00200
00000
00000
00300
00000
00000
00000
00000
,  // measure 20
00200
00000
00000
00000
,  // measure 21
00000
00000
00300
00000
,  // measure 22
00000
00000
00000
00000
00000
00000
00000
10001
,  // measure 23
00000
00000
10001
00000
00000
00000
20002
00000
00000
30003
00000
00000
00000
00000
00000
00000
,  // measure 24
00000
00000
00000
00010
00000
00000
00000
00200
,  // measure 25
00000
00000
00000
00000
,  // measure 26
00000
00000
00000
00300
00000
00000
00000
10001
,  // measure 27
00000
00000
10001
00000
00000
00000
20002
00000
00000
30003
00000
00000
00000
00000
00000
00000
,  // measure 28
00000
00000
00000
00010
00000
00000
00000
00010
,  // measure 29
00000
00010
00000
00010
00000
00010
00000
00000
,  // measure 30
00000
00000
00000
00000
00000
00010
00000
00000
,  // measure 31
00000
00000
00000
00000
00000
01000
00000
00000
,  // measure 32
00000
00100
00000
01010
00000
01010
00000
01010
,  // measure 33
00000
00000
00000
01010
00000
00000
00000
00000
,  // measure 34
00000
00000
00000
00000
00000
00010
00000
00000
,  // measure 35
00000
00000
00000
00000
00000
01000
00000
00000
,  // measure 36
00100
01010
01010
01010
,  // measure 37
00000
01010
00000
00000
,  // measure 38
00100
00000
00100
00000
,  // measure 39
00000
00000
00000
00000
,  // measure 40
00000
00000
00000
00000
,  // measure 41
00000
00000
00000
00000
,  // measure 42
00100
00000
00100
00000
,  // measure 43
00000
00000
00000
00010
,  // measure 44
00000
00000
00000
00000
,  // measure 45
00000
00000
00000
00010
,  // measure 46
01000
00010
00010
01000
,  // measure 47
01000
00000
00000
00010
,  // measure 48
01000
00010
00010
01000
,  // measure 49
01000
00000
00000
00010
00000
00000
00000
00000
02000
00000
00000
00000
,  // measure 50
00000
00000
00000
00000
00000
00000
00000
03000
00000
00000
00000
00000
00000
00000
00000
01000
00000
00000
00000
00000
00000
00100
00000
00000
,  // measure 51
00000
00010
00000
00001
00000
01010
00000
00000
,  // measure 52
00000
00000
00000
00000
00000
00020
00000
01030
,  // measure 53
00000
00000
00000
01010
00000
00010
00000
01000
,  // measure 54
00000
00010
00000
00010
00000
01000
00000
01000
,  // measure 55
00000
00000
00000
00000
00000
00010
00000
01000
,  // measure 56
00000
00010
00000
00010
00000
01000
00000
01000
,  // measure 57
00000
00000
00000
00010
00000
00000
00000
00000
00000
00000
00000
00000
00000
00000
00000
00000
02000
00000
00000
00000
00000
00000
00000
00000
,  // measure 58
00000
00000
00000
00000
00000
00000
00000
03000
00000
00000
00000
00000
00000
00000
00000
01000
00000
00000
00000
00000
00000
00100
00000
00000
,  // measure 59
00000
00010
00000
00001
00000
01010
00000
00000
,  // measure 60
00000
00000
00000
00000
00000
00200
00000
00000
,  // measure 61
00300
00000
00000
00000
00000
00200
00000
00000
,  // measure 62
00000
00000
00000
00000
,  // measure 63
00000
00300
00000
00000
00000
00000
00000
00000
,  // measure 64
00000
00000
00000
00000
00000
10001
00000
10001
,  // measure 65
00000
00000
20002
00000
00000
30003
00000
00000
00000
00000
00000
00000
00000
00000
00000
00000
,  // measure 66
00000
00010
00000
00000
00000
00200
00000
00000
,  // measure 67
00000
00000
00000
00000
,  // measure 68
00000
00300
00000
00000
10001
00000
10001
00000
,  // measure 69
20002
00000
00000
30003
00000
00000
00000
00000
00000
00000
00000
00000
00000
00000
00000
00000
,  // measure 70
00010
00000
00010
00010
,  // measure 71
00010
00010
00000
00000
;

//---------------para-single - Normal----------------
#NOTES:
     para-single:
     Normal:
     Easy:
     4:
     0.298419,0.288232,0.000000,0.008927,0.000000,234.000000,234.000000,0.000000,1.000000,0.000000,0.000000,0.298419,0.288232,0.000000,0.008927,0.000000,234.000000,234.000000,0.000000,1.000000,0.000000,0.000000:
00000
00000
00000
00000
,
00000
00000
00000
00000
,
00000
00000
00000
00000
,
00000
00000
00000
00000
,
00100
00100
00001
00000
,
00100
00100
10000
00000
,
00100
00100
00001
00000
,
00100
00100
00001
10000
,
00100
00100
00001
00000
,
00100
00100
10000
00000
,
00100
00100
00001
00000
,
00001
10000
00200
00300
,
00100
00001
00100
10000
,
00100
10000
00100
00001
,
00100
00001
00100
10000
,
00100
10000
00001
00100
,
00100
00001
00100
10000
,
00100
10000
00100
00001
,
10000
00000
00000
00010
00000
00000
00000
00000
,
00001
00000
00000
01000
00000
00100
00001
00000
,
00001
00000
00000
00100
00000
10000
00000
00000
,
00001
00000
00000
10000
00000
00000
00000
00000
,
00100
00100
00001
00000
,
00100
00100
10000
00000
,
00100
00100
00001
00000
,
00100
00100
00001
10000
,
00100
00100
00001
00000
,
00100
00100
10000
00000
,
00100
00100
00001
00000
,
00100
00100
00010
01000
,
00100
00100
00010
00010
,
00100
00100
01000
01000
,
00100
00000
00100
00000
00001
10000
00000
00000
,
00010
00000
10000
00000
,
00100
00100
01000
01000
,
00100
00100
00010
00010
,
00100
00000
00100
00000
10000
00001
00000
00000
,
10000
00000
00010
00000
,
00001
01000
00001
01000
,
00000
00010
01000
00000
00001
00000
01000
00000
,
10000
00010
10000
00010
,
00000
01000
00010
00000
10000
00000
00010
00000
,
00001
01000
00001
01000
,
00000
00010
01000
00000
00001
00000
01000
00000
,
00010
00010
01000
01000
,
00100
00000
00100
00000
00000
00001
10000
00000
,
00100
00001
00100
10000
,
00100
10000
00001
00100
,
00100
00001
00100
10000
,
00100
10000
00001
00100
,
00100
00001
00100
10000
,
00100
10000
00100
00001
,
10000
00000
00000
00010
00000
00000
00000
00000
,
00001
00000
00000
01000
00000
00100
00000
00000
,
00100
00001
00100
10000
,
00100
10000
00001
00100
,
00100
00001
00100
10000
,
00001
10000
00100
00001
,
00100
00001
00100
10000
,
00100
10000
00001
00100
,
10000
00000
00000
00010
00000
00000
00000
00000
,
00001
00000
00000
01000
00000
00100
00000
00000
,
00001
00000
00000
00100
00000
10000
00000
00000
,
00001
00000
00000
10000
00000
00000
00000
00000
,
00100
00100
00001
00000
,
00100
00100
10000
00000
,
00100
00100
00001
00000
,
00001
10000
00100
00000
,
00100
00100
00001
00000
,
00100
00100
10000
00000
,
00100
00100
00001
00000
,
00001
10000
00100
00100
,
00000
00000
00000
00000
,
;

//---------------para-single - Hard----------------
#NOTES:
     para-single:
     Hard:
     Medium:
     6:
     0.490988,0.640516,0.241031,0.258885,0.249958,385.000000,358.000000,27.000000,29.000000,0.000000,0.000000,0.490988,0.640516,0.241031,0.258885,0.249958,385.000000,358.000000,27.000000,29.000000,0.000000,0.000000:
00000
00000
00000
00000
,
00000
00000
00000
00000
,
00000
00000
00000
00000
,
00000
00000
00000
00000
,
01000
00000
00000
00010
00000
00000
01000
00000
00001
00000
00000
10000
00000
00000
00001
00000
,
00010
00000
00000
01000
00000
00000
00010
00000
10000
00000
00000
00001
00000
00000
10000
00000
,
01000
00000
00000
00010
00000
00000
01000
00000
00001
00000
00000
10000
00000
00000
00001
00000
,
00010
00000
00000
01000
00000
00000
00010
00000
10100
00000
00000
00101
00000
00000
10100
00000
,
01000
00000
00000
00010
00000
00000
01000
00000
00002
00000
00000
00100
00003
00000
10000
00000
,
00010
00000
00000
01000
00000
00000
00010
00000
20000
00000
00000
00100
30000
00000
00001
00000
,
01000
00000
00000
00010
00000
00000
01000
00000
00002
00000
00000
00100
00003
00000
10000
00000
,
01000
00010
00200
00300
,
00000
00000
00100
00000
00010
01000
00010
01000
,
00100
10000
00000
00001
00000
00100
00000
00000
,
00000
00000
00100
00000
01000
00010
01000
00010
,
00001
00100
00000
10000
00000
00001
00000
00100
,
00000
00000
00100
00000
00010
01000
00010
01000
,
00100
10000
00000
00001
00000
00100
00000
00000
,
10000
00100
10000
00020
00000
00030
00000
00000
,
00001
00100
00001
02000
03000
00100
00002
00003
,
01010
00100
00000
00001
00000
00100
00000
10000
,
01010
00100
00000
10001
00000
00000
00000
00000
,
01000
00000
00000
00010
00000
00000
01000
00000
00001
00000
00000
10000
00000
00000
00001
00000
,
00010
00000
00000
01000
00000
00000
00010
00000
10000
00000
00000
00001
00000
00000
10000
00000
,
01000
00000
00000
00010
00000
00000
01000
00000
00001
00000
00000
10000
00000
00000
00001
00000
,
00010
00000
00000
01000
00000
00000
00010
00000
10100
00000
00000
00101
00000
00000
10100
00000
,
01000
00000
00000
00010
00000
00000
01000
00000
00002
00000
00000
00100
00003
00000
10000
00000
,
00010
00000
00000
01000
00000
00000
00010
00000
20000
00000
00000
00100
30000
00000
00001
00000
,
01000
00000
00000
00010
00000
00000
01000
00000
00002
00000
00000
00100
00003
00000
10000
00000
,
00100
00100
01001
10010
,
00100
00000
00100
00000
00010
01000
00010
00000
,
00100
00000
00100
00000
00010
01000
00010
01000
,
00100
00010
00000
00000
00100
01000
00000
00000
00002
00000
20000
00000
30003
00000
00000
00000
,
00010
00000
00000
01000
00000
00000
00010
00000
10000
00000
00000
00001
00000
00000
10000
00000
,
00100
00000
00100
00000
00010
01000
00010
00000
,
00100
00000
00100
00000
00010
01000
00010
01000
,
00100
00010
00000
00000
00100
01000
00000
00000
00002
00000
20003
00000
30002
00000
00003
00000
,
00010
00000
00000
01000
00000
00000
00010
00000
10000
00000
00000
00001
00000
00000
10000
00000
,
00002
00000
00000
00000
01003
10000
00000
00000
00002
00000
00000
00000
01003
10000
00000
00000
,
00000
00010
01000
00010
00001
00000
01000
00000
,
20000
00000
00000
00000
30010
00001
00000
00000
20000
00000
00000
00000
30010
00001
00000
00000
,
00000
01000
00010
01000
10000
00000
00010
00000
,
00002
00000
00000
00000
01003
10000
00000
00000
00002
00000
00000
00000
01003
10000
00000
00000
,
00000
00010
01000
00010
00001
00000
01000
00000
,
00100
00100
00100
00100
,
10000
00001
10000
00001
00000
00101
10100
00000
,
00000
00000
00100
00000
00010
01000
00010
01000
,
00100
10000
00000
00001
00000
00100
00000
00000
,
00000
00000
00100
00000
01000
00010
01000
00010
,
00001
00100
00000
10000
00000
00001
00000
00100
,
00000
00000
00100
00000
00010
01000
00010
01000
,
00100
10000
00000
00001
00000
00100
00000
00000
,
10000
00100
10000
00020
00000
00030
00000
00000
,
00001
00100
00001
02000
03000
00020
00000
00030
,
00000
00000
00100
00000
00010
01000
00010
01000
,
00100
10000
00000
00001
00000
00100
00000
00000
,
00000
00000
00100
00000
01000
00010
01000
00010
,
00001
00100
00000
10000
00000
00001
00000
00100
,
00000
00000
00100
00000
00010
01000
00010
01000
,
00100
10000
00000
00001
00000
00100
00000
00000
,
10000
00100
10000
00020
00000
00030
00000
00000
,
00001
00100
00001
02000
03000
00010
01000
00000
,
01010
00100
00000
00001
00000
00100
00000
10000
,
01010
00100
00000
10001
00000
00000
00000
00000
,
01000
00000
00000
00010
00000
00000
01000
00000
00001
00000
00000
10000
00000
00000
00001
00000
,
00010
00000
00000
01000
00000
00000
00010
00000
10000
00000
00000
00001
00000
00000
10000
00000
,
01000
00000
00000
00010
00000
00000
01000
00000
00001
00000
00000
10000
00000
00000
00001
00000
,
00010
00000
00000
01000
00000
00000
00010
00000
10100
00000
00000
00101
00000
00000
10100
00000
,
01001
00000
00000
10010
00000
00000
01000
00000
00002
00000
00000
00100
00003
00000
10000
00000
,
10010
00000
00000
01001
00000
00000
00010
00000
20000
00000
00000
00100
30000
00000
00001
00000
,
01001
00000
00000
10010
00000
00000
01000
00000
00002
00000
00000
00100
00003
00000
10000
00000
,
10000
00001
01000
00010
10001
00000
01010
00000
,
00000
00000
00000
00000
,
;

//---------------para-single - Expert----------------
#NOTES:
     para-single:
     Expert:
     Hard:
     7:
     0.818739,0.930367,0.285666,0.499915,1.120346,642.000000,610.000000,32.000000,56.000000,0.000000,0.000000,0.818739,0.930367,0.285666,0.499915,1.120346,642.000000,610.000000,32.000000,56.000000,0.000000,0.000000:
00000
00000
00000
00000
,
00000
00000
00000
00000
,
00000
00000
00000
00000
,
00000
00000
00000
00000
,
10000
00000
00001
10000
00000
00010
01000
00010
00001
00000
00000
00100
00000
00000
10000
00000
,
00001
00000
10000
00001
00000
01000
00010
01000
10000
00000
00000
00100
00000
00000
00001
00000
,
10000
00000
00001
10000
00000
01000
00010
01000
00001
00000
00000
00100
00000
00000
10000
00000
,
00001
00000
10000
00001
00000
00010
01000
00010
10100
00000
00000
00101
00000
00000
10100
00000
,
10000
00000
00001
10000
00000
00010
01000
00010
00002
00000
00000
00100
00003
00000
10000
00000
,
00001
00000
10000
00001
00000
01000
00010
01000
20000
00000
00000
00100
30000
00000
00001
00000
,
10000
00000
00001
10000
00000
01000
00010
01000
00002
00000
00000
00100
00003
00000
10000
00000
,
01000
00010
01000
00010
00200
00000
00300
00000
,
00100
00010
00001
00000
00100
01000
10000
00000
00010
00001
01000
10000
00010
00001
01000
10000
,
00001
00000
00000
00000
00000
00000
00100
00000
00000
00000
00000
00000
01000
00000
00000
00000
00000
00000
00000
00000
00000
00000
00000
00000
10000
00000
00000
00000
00000
00000
00000
00000
00000
00000
00000
00000
00000
00000
00000
00000
00000
00000
00000
00000
00000
00000
00000
00000
00000
00000
00000
00000
00000
00000
00000
00000
00000
00000
00000
00000
00000
00000
00000
00000
00000
00000
00000
00000
00000
00000
00000
00000
00100
00000
00000
00000
00000
00000
00000
00000
00000
00000
00000
00000
00000
00000
00000
00000
00000
00000
00000
00000
00000
00000
00000
00000
00000
00000
00000
00000
00000
00000
00000
00000
00000
00000
00000
00000
00000
00000
00000
00000
00000
00000
00000
00000
00000
00000
00000
00000
00001
00000
00000
00000
00000
00000
00000
00000
00000
00000
00000
00000
00000
00000
00000
00000
00000
00000
00000
00000
00000
00000
00000
00000
00000
00000
00000
00000
00000
00000
00000
00000
00000
00000
00000
00000
00000
00000
00000
00000
00000
00000
00000
00000
00000
00000
00000
00000
00000
00000
00000
00000
00000
00000
00000
00000
00000
00000
00000
00000
00000
00000
00000
00000
00000
00000
00000
00000
00000
00000
00000
00000
,
00100
01000
10000
00000
00100
00010
00001
00000
01000
10000
00010
00001
01000
10000
00010
00001
,
10000
00000
00000
00000
00000
00000
00100
00000
00000
00000
00000
00000
00010
00000
00000
00000
00000
00000
00000
00000
00000
00000
00000
00000
00001
00000
00000
00000
00000
00000
00000
00000
00000
00000
00000
00000
00000
00000
00000
00000
00000
00000
00000
00000
00000
00000
00000
00000
00000
00000
00000
00000
00000
00000
00000
00000
00000
00000
00000
00000
00000
00000
00000
00000
00000
00000
00000
00000
00000
00000
00000
00000
00100
00000
00000
00000
00000
00000
00000
00000
00000
00000
00000
00000
00000
00000
00000
00000
00000
00000
00000
00000
00000
00000
00000
00000
00000
00000
00000
00000
00000
00000
00000
00000
00000
00000
00000
00000
00000
00000
00000
00000
00000
00000
00000
00000
00000
00000
00000
00000
10000
00000
00000
00000
00000
00000
00000
00000
00000
00000
00000
00000
00000
00000
00000
00000
00000
00000
00000
00000
00000
00000
00000
00000
00000
00000
00000
00000
00000
00000
00000
00000
00000
00000
00000
00000
00000
00000
00000
00000
00000
00000
00000
00000
00000
00000
00000
00000
00001
00000
00000
00000
00000
00000
00000
00000
00000
00000
00000
00000
00000
00000
00000
00000
00000
00000
00000
00000
00000
00000
00000
00000
,
00100
00010
00001
00000
00100
01000
10000
00000
00010
00001
01000
10000
00010
00001
01000
10000
,
00001
00000
00000
00000
00000
00000
00100
00000
00000
00000
00000
00000
01000
00000
00000
00000
00000
00000
00000
00000
00000
00000
00000
00000
10000
00000
00000
00000
00000
00000
00000
00000
00000
00000
00000
00000
00000
00000
00000
00000
00000
00000
00000
00000
00000
00000
00000
00000
00000
00000
00000
00000
00000
00000
00000
00000
00000
00000
00000
00000
00000
00000
00000
00000
00000
00000
00000
00000
00000
00000
00000
00000
00100
00000
00000
00000
00000
00000
00000
00000
00000
00000
00000
00000
00000
00000
00000
00000
00000
00000
00000
00000
00000
00000
00000
00000
00000
00000
00000
00000
00000
00000
00000
00000
00000
00000
00000
00000
00000
00000
00000
00000
00000
00000
00000
00000
00000
00000
00000
00000
00001
00000
00000
00000
00000
00000
00000
00000
00000
00000
00000
00000
00000
00000
00000
00000
00000
00000
00000
00000
00000
00000
00000
00000
00000
00000
00000
00000
00000
00000
00000
00000
00000
00000
00000
00000
00000
00000
00000
00000
00000
00000
00000
00000
00000
00000
00000
00000
00000
00000
00000
00000
00000
00000
00000
00000
00000
00000
00000
00000
00000
00000
00000
00000
00000
00000
00000
00000
00000
00000
00000
00000
,
00001
00000
00000
00000
00000
00000
00010
00000
00000
00000
00000
00000
00100
00000
00000
00000
00000
00000
01000
00000
00000
00000
00000
00000
00010
00000
00000
00000
00000
00000
00100
00000
00000
00000
00000
00000
01000
00000
00000
00000
00000
00000
10000
00000
00000
00000
00000
00000
00000
00000
00000
00000
00000
00000
00000
00000
00000
00000
00000
00000
00000
00000
00000
00000
00000
00000
00000
00000
00000
00000
00000
00000
00002
00000
00000
00000
00000
00000
00000
00000
00000
00000
00000
00000
00000
00000
00000
00000
00000
00000
00000
00000
00000
00000
00000
00000
00000
00000
00000
00000
00000
00000
00000
00000
00000
00000
00000
00000
00000
00000
00000
00000
00000
00000
00000
00000
00000
00000
00000
00000
00003
00000
00000
00000
00000
00000
00000
00000
00000
00000
00000
00000
00000
00000
00000
00000
00000
00000
00000
00000
00000
00000
00000
00000
00000
00000
00000
00000
00000
00000
00000
00000
00000
00000
00000
00000
00000
00000
00000
00000
00000
00000
00000
00000
00000
00000
00000
00000
00000
00000
00000
00000
00000
00000
00000
00000
00000
00000
00000
00000
00000
00000
00000
00000
00000
00000
00000
00000
00000
00000
00000
00000
,
10000
00000
00000
00000
00000
00000
01000
00000
00000
00000
00000
00000
00100
00000
00000
00000
00000
00000
00010
00000
00000
00000
00000
00000
01000
00000
00000
00000
00000
00000
00100
00000
00000
00000
00000
00000
00010
00000
00000
00000
00000
00000
00001
00000
00000
00000
00000
00000
10000
00000
00000
00000
00000
00000
01000
00000
00000
00000
00000
00000
00100
00000
00000
00000
00000
00000
00010
00000
00000
00000
00000
00000
00002
00000
00000
00000
00000
00000
00000
00000
00000
00000
00000
00000
00000
00000
00000
00000
00000
00000
00000
00000
00000
00000
00000
00000
00000
00000
00000
00000
00000
00000
00000
00000
00000
00000
00000
00000
00000
00000
00000
00000
00000
00000
00000
00000
00000
00000
00000
00000
00103
00000
00000
00000
00000
00000
00000
00000
00000
00000
00000
00000
00000
00000
00000
00000
00000
00000
00000
00000
00000
00000
00000
00000
20000
00000
00000
00000
00000
00000
00000
00000
00000
00000
00000
00000
00000
00000
00000
00000
00000
00000
00000
00000
00000
00000
00000
00000
30000
00000
00000
00000
00000
00000
00000
00000
00000
00000
00000
00000
00000
00000
00000
00000
00000
00000
00000
00000
00000
00000
00000
00000
,
01001
10010
00000
00001
00000
00100
00000
10000
,
01001
10010
00000
01001
00000
00000
00000
00000
,
10000
00000
00001
10000
00000
00010
01000
00010
00002
00000
00000
00100
00003
00000
10000
00000
,
00001
00000
10000
00001
00000
01000
00010
01000
20000
00000
00000
00100
30000
00000
00001
00000
,
10000
00000
00001
10000
00000
01000
00010
01000
00002
00000
00000
00100
00003
00000
10000
00000
,
00001
00000
10000
00001
00000
00010
01000
00010
10100
00000
00000
00101
00000
00000
10100
00000
,
10000
00000
00001
10000
00000
00010
01000
00010
00002
00000
00000
00100
00003
00000
10000
00000
,
00001
00000
10000
00001
00000
01000
00010
01000
20000
00000
00000
00100
30000
00000
00001
00000
,
10000
00000
00001
10000
00000
01000
00010
01000
00002
00000
00000
00100
00003
00000
10000
00000
,
00001
00000
10000
00001
00000
00010
01000
00010
01001
00000
00000
00000
10010
00000
00000
00000
,
00100
00010
00000
00000
01000
10000
00000
00000
00010
00001
01000
10000
00010
00001
00000
00000
,
00010
00001
00000
00000
00100
01000
00000
00000
00010
00001
01000
10000
00010
00001
01000
10000
,
00100
00010
00001
00000
00100
01000
10000
00000
00002
00000
20000
00000
30003
00000
00000
00000
,
10000
00000
00001
10000
00000
00010
01000
00010
00002
00000
00000
00100
00003
00000
10000
00000
,
00100
00010
00000
00000
01000
10000
00000
00000
00010
00001
01000
10000
00010
00001
00000
00000
,
00010
00001
00000
00000
00100
01000
00000
00000
00010
00001
01000
10000
00010
00001
01000
10000
,
00100
00010
00001
00000
00100
01000
10000
00000
00002
00000
20003
00000
30002
00000
00003
00000
,
10000
00000
00001
10000
00000
00010
01000
00010
00002
00000
00000
00100
00003
00000
10000
00000
,
00002
00000
00000
00000
01003
10000
00000
00000
00002
00000
00000
00000
01003
10000
00000
00000
,
00000
00010
01000
00010
00002
00000
02003
00000
,
20000
03000
00000
00000
30010
00001
00000
00000
20000
00000
00000
00000
30010
00001
00000
00000
,
00000
01000
00010
01000
20000
00000
30020
00000
,
00002
00030
00000
00000
01003
10000
00000
00000
00002
00000
00000
00000
01003
10000
00000
00000
,
00000
00010
01000
00010
00002
00000
02003
00000
,
00100
03010
00001
00000
00100
01000
10000
00000
00100
00010
00001
00000
00100
01000
10000
00000
,
01001
10010
01001
10010
00000
00101
10100
00000
,
00100
00010
00001
00000
00100
01000
10000
00000
00010
00001
01000
10000
00010
00001
01000
10000
,
00001
00000
00000
00000
00000
00000
00100
00000
00000
00000
00000
00000
01000
00000
00000
00000
00000
00000
00000
00000
00000
00000
00000
00000
10000
00000
00000
00000
00000
00000
00000
00000
00000
00000
00000
00000
00000
00000
00000
00000
00000
00000
00000
00000
00000
00000
00000
00000
00000
00000
00000
00000
00000
00000
00000
00000
00000
00000
00000
00000
00000
00000
00000
00000
00000
00000
00000
00000
00000
00000
00000
00000
00100
00000
00000
00000
00000
00000
00000
00000
00000
00000
00000
00000
00000
00000
00000
00000
00000
00000
00000
00000
00000
00000
00000
00000
00000
00000
00000
00000
00000
00000
00000
00000
00000
00000
00000
00000
00000
00000
00000
00000
00000
00000
00000
00000
00000
00000
00000
00000
00001
00000
00000
00000
00000
00000
00000
00000
00000
00000
00000
00000
00000
00000
00000
00000
00000
00000
00000
00000
00000
00000
00000
00000
00000
00000
00000
00000
00000
00000
00000
00000
00000
00000
00000
00000
00000
00000
00000
00000
00000
00000
00000
00000
00000
00000
00000
00000
00000
00000
00000
00000
00000
00000
00000
00000
00000
00000
00000
00000
00000
00000
00000
00000
00000
00000
00000
00000
00000
00000
00000
00000
,
00100
01000
10000
00000
00100
00010
00001
00000
01000
10000
00010
00001
01000
10000
00010
00001
,
10000
00000
00000
00000
00000
00000
00100
00000
00000
00000
00000
00000
00010
00000
00000
00000
00000
00000
00000
00000
00000
00000
00000
00000
00001
00000
00000
00000
00000
00000
00000
00000
00000
00000
00000
00000
00000
00000
00000
00000
00000
00000
00000
00000
00000
00000
00000
00000
00000
00000
00000
00000
00000
00000
00000
00000
00000
00000
00000
00000
00000
00000
00000
00000
00000
00000
00000
00000
00000
00000
00000
00000
00100
00000
00000
00000
00000
00000
00000
00000
00000
00000
00000
00000
00000
00000
00000
00000
00000
00000
00000
00000
00000
00000
00000
00000
00000
00000
00000
00000
00000
00000
00000
00000
00000
00000
00000
00000
00000
00000
00000
00000
00000
00000
00000
00000
00000
00000
00000
00000
10000
00000
00000
00000
00000
00000
00000
00000
00000
00000
00000
00000
00000
00000
00000
00000
00000
00000
00000
00000
00000
00000
00000
00000
00000
00000
00000
00000
00000
00000
00000
00000
00000
00000
00000
00000
00000
00000
00000
00000
00000
00000
00000
00000
00000
00000
00000
00000
00001
00000
00000
00000
00000
00000
00000
00000
00000
00000
00000
00000
00000
00000
00000
00000
00000
00000
00000
00000
00000
00000
00000
00000
,
00100
00010
00001
00000
00100
01000
10000
00000
00010
00001
01000
10000
00010
00001
01000
10000
,
00001
00000
00000
00000
00000
00000
00100
00000
00000
00000
00000
00000
01000
00000
00000
00000
00000
00000
00000
00000
00000
00000
00000
00000
10000
00000
00000
00000
00000
00000
00000
00000
00000
00000
00000
00000
00000
00000
00000
00000
00000
00000
00000
00000
00000
00000
00000
00000
00000
00000
00000
00000
00000
00000
00000
00000
00000
00000
00000
00000
00000
00000
00000
00000
00000
00000
00000
00000
00000
00000
00000
00000
00100
00000
00000
00000
00000
00000
00000
00000
00000
00000
00000
00000
00000
00000
00000
00000
00000
00000
00000
00000
00000
00000
00000
00000
00000
00000
00000
00000
00000
00000
00000
00000
00000
00000
00000
00000
00000
00000
00000
00000
00000
00000
00000
00000
00000
00000
00000
00000
00001
00000
00000
00000
00000
00000
00000
00000
00000
00000
00000
00000
00000
00000
00000
00000
00000
00000
00000
00000
00000
00000
00000
00000
00000
00000
00000
00000
00000
00000
00000
00000
00000
00000
00000
00000
00000
00000
00000
00000
00000
00000
00000
00000
00000
00000
00000
00000
00000
00000
00000
00000
00000
00000
00000
00000
00000
00000
00000
00000
00000
00000
00000
00000
00000
00000
00000
00000
00000
00000
00000
00000
,
00001
00000
00000
00000
00000
00000
00010
00000
00000
00000
00000
00000
00100
00000
00000
00000
00000
00000
01000
00000
00000
00000
00000
00000
00010
00000
00000
00000
00000
00000
00100
00000
00000
00000
00000
00000
01000
00000
00000
00000
00000
00000
10000
00000
00000
00000
00000
00000
00000
00000
00000
00000
00000
00000
00000
00000
00000
00000
00000
00000
00000
00000
00000
00000
00000
00000
00000
00000
00000
00000
00000
00000
00002
00000
00000
00000
00000
00000
00000
00000
00000
00000
00000
00000
00000
00000
00000
00000
00000
00000
00000
00000
00000
00000
00000
00000
00000
00000
00000
00000
00000
00000
00000
00000
00000
00000
00000
00000
00000
00000
00000
00000
00000
00000
00000
00000
00000
00000
00000
00000
00003
00000
00000
00000
00000
00000
00000
00000
00000
00000
00000
00000
00000
00000
00000
00000
00000
00000
00000
00000
00000
00000
00000
00000
00000
00000
00000
00000
00000
00000
00000
00000
00000
00000
00000
00000
00000
00000
00000
00000
00000
00000
00000
00000
00000
00000
00000
00000
00000
00000
00000
00000
00000
00000
00000
00000
00000
00000
00000
00000
00000
00000
00000
00000
00000
00000
00000
00000
00000
00000
00000
00000
,
10000
00000
00000
00000
00000
00000
01000
00000
00000
00000
00000
00000
00100
00000
00000
00000
00000
00000
00010
00000
00000
00000
00000
00000
01000
00000
00000
00000
00000
00000
00100
00000
00000
00000
00000
00000
00010
00000
00000
00000
00000
00000
00001
00000
00000
00000
00000
00000
10000
00000
00000
00000
00000
00000
01000
00000
00000
00000
00000
00000
00100
00000
00000
00000
00000
00000
00010
00000
00000
00000
00000
00000
00002
00000
00000
00000
00000
00000
00000
00000
00000
00000
00000
00000
00000
00000
00000
00000
00000
00000
00000
00000
00000
00000
00000
00000
00000
00000
00000
00000
00000
00000
00000
00000
00000
00000
00000
00000
00000
00000
00000
00000
00000
00000
00000
00000
00000
00000
00000
00000
20003
00000
00000
00000
00000
00000
00000
00000
00000
00000
00000
00000
00000
00000
00000
00000
00000
00000
00000
00000
00000
00000
00000
00000
00000
00000
00000
00000
00000
00000
00000
00000
00000
00000
00000
00000
00000
00000
00000
00000
00000
00000
00000
00000
00000
00000
00000
00000
30000
00000
00000
00000
00000
00000
00000
00000
00000
00000
00000
00000
00000
00000
00000
00000
00000
00000
00000
00000
00000
00000
00000
00000
,
00100
00010
00001
00000
00100
01000
10000
00000
00010
00001
01000
10000
00010
00001
01000
10000
,
00001
00000
00000
00000
00000
00000
00100
00000
00000
00000
00000
00000
01000
00000
00000
00000
00000
00000
00000
00000
00000
00000
00000
00000
20000
00000
00000
00000
00000
00000
00000
00000
00000
00000
00000
00000
00000
00000
00000
00000
00000
00000
00000
00000
00000
00000
00000
00000
00000
00000
00000
00000
00000
00000
00000
00000
00000
00000
00000
00000
00000
00000
00000
00000
00000
00000
00000
00000
00000
00000
00000
00000
30200
00000
00000
00000
00000
00000
00000
00000
00000
00000
00000
00000
00000
00000
00000
00000
00000
00000
00000
00000
00000
00000
00000
00000
00000
00000
00000
00000
00000
00000
00000
00000
00000
00000
00000
00000
00000
00000
00000
00000
00000
00000
00000
00000
00000
00000
00000
00000
00302
00000
00000
00000
00000
00000
00000
00000
00000
00000
00000
00000
00000
00000
00000
00000
00000
00000
00000
00000
00000
00000
00000
00000
00000
00000
00000
00000
00000
00000
00000
00000
00000
00000
00000
00000
00000
00000
00000
00000
00000
00000
00000
00000
00000
00000
00000
00000
00003
00000
00000
00000
00000
00000
00000
00000
00000
00000
00000
00000
00000
00000
00000
00000
00000
00000
00000
00000
00000
00000
00000
00000
,
00100
01000
10000
00000
00100
00010
00001
00000
01000
10000
00010
00001
01000
10000
00010
00001
,
10000
00000
00000
00000
00000
00000
00100
00000
00000
00000
00000
00000
00010
00000
00000
00000
00000
00000
00000
00000
00000
00000
00000
00000
00002
00000
00000
00000
00000
00000
00000
00000
00000
00000
00000
00000
00000
00000
00000
00000
00000
00000
00000
00000
00000
00000
00000
00000
00000
00000
00000
00000
00000
00000
00000
00000
00000
00000
00000
00000
00000
00000
00000
00000
00000
00000
00000
00000
00000
00000
00000
00000
00203
00000
00000
00000
00000
00000
00000
00000
00000
00000
00000
00000
00000
00000
00000
00000
00000
00000
00000
00000
00000
00000
00000
00000
00000
00000
00000
00000
00000
00000
00000
00000
00000
00000
00000
00000
00000
00000
00000
00000
00000
00000
00000
00000
00000
00000
00000
00000
20300
00000
00000
00000
00000
00000
00000
00000
00000
00000
00000
00000
00000
00000
00000
00000
00000
00000
00000
00000
00000
00000
00000
00000
00000
00000
00000
00000
00000
00000
00000
00000
00000
00000
00000
00000
00000
00000
00000
00000
00000
00000
00000
00000
00000
00000
00000
00000
30001
00000
00000
00000
00000
00000
00000
00000
00000
00000
00000
00000
00000
00000
00000
00000
00000
00000
00000
00000
00000
00000
00000
00000
,
00100
00010
00001
00000
00100
01000
10000
00000
00010
00001
01000
10000
00010
00001
01000
10000
,
00001
00000
00000
00000
00000
00000
00100
00000
00000
00000
00000
00000
01000
00000
00000
00000
00000
00000
00000
00000
00000
00000
00000
00000
20000
00000
00000
00000
00000
00000
00000
00000
00000
00000
00000
00000
00000
00000
00000
00000
00000
00000
00000
00000
00000
00000
00000
00000
00000
00000
00000
00000
00000
00000
00000
00000
00000
00000
00000
00000
00000
00000
00000
00000
00000
00000
00000
00000
00000
00000
00000
00000
30200
00000
00000
00000
00000
00000
00000
00000
00000
00000
00000
00000
00000
00000
00000
00000
00000
00000
00000
00000
00000
00000
00000
00000
00000
00000
00000
00000
00000
00000
00000
00000
00000
00000
00000
00000
00000
00000
00000
00000
00000
00000
00000
00000
00000
00000
00000
00000
00302
00000
00000
00000
00000
00000
00000
00000
00000
00000
00000
00000
00000
00000
00000
00000
00000
00000
00000
00000
00000
00000
00000
00000
00000
00000
00000
00000
00000
00000
00000
00000
00000
00000
00000
00000
00000
00000
00000
00000
00000
00000
00000
00000
00000
00000
00000
00000
00003
00000
00000
00000
00000
00000
00000
00000
00000
00000
00000
00000
00000
00000
00000
00000
00000
00000
00000
00000
00000
00000
00000
00000
,
00001
00000
00000
00000
00000
00000
00010
00000
00000
00000
00000
00000
00100
00000
00000
00000
00000
00000
01000
00000
00000
00000
00000
00000
00010
00000
00000
00000
00000
00000
00100
00000
00000
00000
00000
00000
01000
00000
00000
00000
00000
00000
10000
00000
00000
00000
00000
00000
00000
00000
00000
00000
00000
00000
00000
00000
00000
00000
00000
00000
00000
00000
00000
00000
00000
00000
00000
00000
00000
00000
00000
00000
00002
00000
00000
00000
00000
00000
00000
00000
00000
00000
00000
00000
00000
00000
00000
00000
00000
00000
00000
00000
00000
00000
00000
00000
00000
00000
00000
00000
00000
00000
00000
00000
00000
00000
00000
00000
00000
00000
00000
00000
00000
00000
00000
00000
00000
00000
00000
00000
00003
00000
00000
00000
00000
00000
00000
00000
00000
00000
00000
00000
00000
00000
00000
00000
00000
00000
00000
00000
00000
00000
00000
00000
00000
00000
00000
00000
00000
00000
00000
00000
00000
00000
00000
00000
00000
00000
00000
00000
00000
00000
00000
00000
00000
00000
00000
00000
00000
00000
00000
00000
00000
00000
00000
00000
00000
00000
00000
00000
00000
00000
00000
00000
00000
00000
00000
00000
00000
00000
00000
00000
,
10000
00000
00000
00000
00000
00000
01000
00000
00000
00000
00000
00000
00100
00000
00000
00000
00000
00000
00010
00000
00000
00000
00000
00000
01000
00000
00000
00000
00000
00000
00100
00000
00000
00000
00000
00000
00010
00000
00000
00000
00000
00000
00001
00000
00000
00000
00000
00000
10000
00000
00000
00000
00000
00000
01000
00000
00000
00000
00000
00000
00100
00000
00000
00000
00000
00000
00010
00000
00000
00000
00000
00000
00002
00000
00000
00000
00000
00000
00000
00000
00000
00000
00000
00000
00000
00000
00000
00000
00000
00000
00000
00000
00000
00000
00000
00000
00000
00000
00000
00000
00000
00000
00000
00000
00000
00000
00000
00000
00000
00000
00000
00000
00000
00000
00000
00000
00000
00000
00000
00000
00103
00000
00000
00000
00000
00000
00000
00000
00000
00000
00000
00000
00000
00000
00000
00000
00000
00000
00000
00000
00000
00000
00000
00000
20000
00000
00000
00000
00000
00000
00000
00000
00000
00000
00000
00000
00000
00000
00000
00000
00000
00000
00000
00000
00000
00000
00000
00000
30000
00000
00000
00000
00000
00000
00000
00000
00000
00000
00000
00000
00000
00000
00000
00000
00000
00000
00000
00000
00000
00000
00000
00000
,
01001
10010
00000
00001
00000
00100
00000
10000
,
01001
10010
00000
01001
00000
00000
00000
00000
,
10000
00000
00001
10000
00000
00010
01000
00010
00002
00000
00000
00100
00003
00000
10000
00000
,
00001
00000
10000
00001
00000
01000
00010
01000
20000
00000
00000
00100
30000
00000
00001
00000
,
10000
00000
00001
10000
00000
01000
00010
01000
00002
00000
00000
00100
00003
00000
10000
00000
,
00001
00000
10000
00001
00000
00010
01000
00010
10100
00000
00000
00101
00000
00000
10100
00000
,
10000
00000
00001
10000
00000
00010
01000
00010
00002
00000
00000
00100
00003
00000
10000
00000
,
00001
00000
10000
00001
00000
01000
00010
01000
20000
00000
00000
00100
30000
00000
00001
00000
,
10100
00000
00001
10100
00000
01000
00010
01000
00002
00000
00000
00100
00003
00000
10000
00000
,
00101
00000
10000
00101
00000
00010
01000
00010
20002
00000
30003
00000
00200
00000
00300
00000
,
00000
00000
00000
00000
;

//---------------para-single - ParaPara (PPD)----------------
#NOTES:
     para-single:
     ParaPara (PPD):
     Edit:
     1:
     0.198946,0.381632,0.285666,0.205322,0.000000,156.000000,124.000000,32.000000,23.000000,0.000000,0.000000,0.198946,0.381632,0.285666,0.205322,0.000000,156.000000,124.000000,32.000000,23.000000,0.000000,0.000000:
00000
00000
00000
00000
,
00000
00000
00000
00000
,
00000
00000
00000
00000
,
00000
00000
00000
00000
,
00000
00000
00000
00000
,
10001
00000
00000
00000
10001
00000
00000
00000
20002
00000
00000
30003
00000
00000
00000
00000
,
00000
00000
00010
00000
,
00200
00000
00000
00000
,
00000
00000
00300
00000
,
10001
00000
00000
00000
10001
00000
00000
00000
20002
00000
00000
30003
00000
00000
00000
00000
,
00000
00000
00010
00000
,
00010
00010
00010
00010
,
00010
01000
00010
00010
,
01000
01000
00000
00000
,
00010
01000
00010
00010
,
01000
00000
01000
00000
00010
00000
00000
02000
,
00000
00000
00000
00000
00000
03000
00000
01000
,
00000
00100
00000
00010
00000
00001
00000
01010
,
00000
00000
00000
00000
00000
00000
00000
00200
,
00000
00000
00300
00000
00000
00000
00000
00200
,
00000
00000
00000
00000
,
00000
00000
00000
00300
00000
00000
00000
00000
,
00000
00000
00000
10001
,
10001
00000
00000
00000
20002
00000
00000
30003
00000
00000
00000
00000
00000
00000
00000
00000
,
00000
00010
00000
00200
,
00000
00000
00000
00000
,
00000
00300
00000
10001
,
10001
00000
00000
00000
20002
00000
00000
30003
00000
00000
00000
00000
00000
00000
00000
00000
,
00000
00010
00000
00010
,
00010
00010
00010
00000
,
00000
00000
00010
00000
,
00000
00000
00000
00000
01000
00000
00000
00100
,
01010
01010
01010
01010
,
00000
01010
00000
00000
,
00000
00000
00010
00000
,
00000
00000
00000
00000
01000
00000
00000
00100
,
01010
01010
01010
01010
,
00000
01010
00000
00000
,
00100
00000
00100
00000
,
00000
00000
00000
00000
,
00000
00000
00000
00000
,
00000
00000
00000
00000
,
00100
00000
00100
00000
,
00000
00000
00000
00010
,
00000
00000
00000
00000
,
00000
00000
00000
00000
00000
00010
00000
01000
,
00000
00010
00000
00010
00000
01000
00000
01000
,
00000
00000
00000
00000
00000
00010
00000
01000
,
00000
00010
00000
00010
00000
01000
00000
01000
,
00000
00010
00000
00000
00000
02000
00000
00000
,
00000
00000
00000
03000
00000
01000
00000
00100
,
00000
00010
00000
00001
00000
01010
00000
00000
,
00000
00000
00000
00000
00000
00020
00000
01030
,
00000
00000
00000
01010
00000
00010
00000
01000
,
00000
00010
00000
00010
00000
01000
00000
01000
,
00000
00000
00000
00000
00000
00010
00000
01000
,
00000
00010
00000
00010
00000
01000
00000
01000
,
00000
00010
00000
00000
00000
02000
00000
00000
,
00000
00000
00000
03000
00000
01000
00000
00100
,
00000
00010
00000
00001
00000
01010
00000
00000
,
00000
00000
00000
00000
00000
00200
00000
00000
,
00300
00000
00000
00000
00000
00200
00000
00000
,
00000
00000
00000
00000
,
00000
00300
00000
00000
00000
00000
00000
00000
,
00000
00000
10001
10001
,
20002
00000
00000
30003
00000
00000
00000
00000
00000
00000
00000
00000
00000
00000
00000
00000
,
00010
00000
00200
00000
,
00000
00000
00000
00000
,
00300
00000
10001
10001
,
20002
00000
00000
30003
00000
00000
00000
00000
00000
00000
00000
00000
00000
00000
00000
00000
,
00010
00000
00010
00010
,
00010
00010
00000
00000
;

//---------------para-single - ParaPara (PPP 2nd)----------------
#NOTES:
     para-single:
     ParaPara (PPP 2nd):
     Edit:
     4:
     0.198946,0.384310,0.285666,0.205322,0.000000,156.000000,124.000000,32.000000,23.000000,0.000000,0.000000,0.198946,0.384310,0.285666,0.205322,0.000000,156.000000,124.000000,32.000000,23.000000,0.000000,0.000000:
00000
00000
00000
00000
,
00000
00000
00000
00000
,
00000
00000
00000
00000
,
00000
00000
00000
00000
,
00000
00000
00000
00000
,
10001
00000
00000
00000
10001
00000
00000
00000
20002
00000
00000
30003
00000
00000
00000
00000
,
00000
00000
00010
00000
,
00200
00000
00000
00000
00000
00000
00000
00000
,
00000
00000
00300
00000
,
10001
00000
00000
00000
10001
00000
00000
00000
20002
00000
00000
30003
00000
00000
00000
00000
,
00000
00000
00010
00000
,
00010
00010
00010
00010
,
00010
01000
00010
00010
,
01000
01000
00000
00000
,
00010
01000
00010
00010
,
01000
01000
00010
00000
,
02000
00000
00000
03000
,
01000
00100
00010
00001
,
01010
00000
00000
00000
,
00200
00000
00000
00300
00000
00000
00000
00000
,
00200
00000
00000
00000
00000
00000
00000
00000
,
00000
00000
00300
00000
,
00000
00000
00000
00000
,
10001
00000
00000
00000
10001
00000
00000
00000
20002
00000
00000
30003
00000
00000
00000
00000
,
00000
00000
00010
00000
,
00200
00000
00000
00000
00000
00000
00000
00000
,
00000
00000
00300
00000
,
10001
00000
00000
00000
10001
00000
00000
00000
20002
00000
00000
30003
00000
00000
00000
00000
,
00000
00000
00010
00000
,
00010
00010
00010
00010
,
00000
00000
00000
00010
,
00000
00000
00000
01000
,
00000
00100
01010
00000
01010
00000
01010
00000
,
01010
00000
01010
00000
,
00000
00000
00000
00010
,
00000
00000
00000
01000
,
00000
00100
01010
00000
01010
00000
01010
00000
,
01010
00000
01010
00000
,
00000
00100
00000
00100
,
00000
00000
00000
00000
,
00000
00000
00000
00000
,
00000
00000
00000
00000
,
00000
00100
00000
00100
,
00000
00000
00000
00000
,
00010
00000
00000
00000
,
00000
00000
00000
00000
,
00010
01000
00010
00010
,
01000
01000
00000
00000
,
00010
01000
00010
00010
,
01000
01000
00010
00000
,
02000
00000
00000
03000
,
01000
00100
00010
00001
,
01010
00000
00000
00000
,
00020
01030
00000
01010
,
00010
01000
00010
00010
,
01000
01000
00000
00000
,
00010
01000
00010
00010
,
01000
01000
00010
00000
,
02000
00000
00000
03000
,
01000
00100
00010
00001
,
01010
00000
00000
00000
,
00200
00000
00000
00300
00000
00000
00000
00000
,
00200
00000
00000
00000
00000
00000
00000
00000
,
00000
00000
00300
00000
,
00000
00000
00000
00000
,
10001
00000
00000
00000
10001
00000
00000
00000
20002
00000
00000
30003
00000
00000
00000
00000
,
00000
00000
00010
00000
,
00200
00000
00000
00000
00000
00000
00000
00000
,
00000
00000
00300
00000
,
10001
00000
00000
00000
10001
00000
00000
00000
20002
00000
00000
30003
00000
00000
00000
00000
,
00000
00000
00010
00000
,
00010
00010
00010
00010
,
00000
00000
00000
00000
;
