#TITLE:KISS KISS KISS;
#SUBTITLE:-super euro version-;
#ARTIST:NAOKI with B4 ZA BEAT;
#TITLETRANSLIT:;
#SUBTITLETRANSLIT:;
#ARTISTTRANSLIT:;
#GENRE:;
#CREDIT:locuuraa;
#BANNER:KISS KISS KISS -super euro version--bn.png;
#BACKGROUND:KISS KISS KISS -super euro version--cd.png;
#LYRICSPATH:;
#CDTITLE:./CDTitles/Konami original remix.png;
#MUSIC:KISS KISS KISS -super euro version-.mp3;
#OFFSET:1.500000;
#SAMPLESTART:46.959999;
#SAMPLELENGTH:15.000000;
#LASTBEATHINT:1.308333;
#SELECTABLE:YES;
#BPMS:0.000000=157.000000
;
#STOPS:
;
#BGCHANGES:;
#KEYSOUNDS:;
#ATTACKS:;

//---------------para-single - ParaPara----------------
#NOTES:
     para-single:
     ParaPara:
     Beginner:
     3:
     0.153503,0.243790,0.138648,0.092432,0.150202,93.000000,81.000000,12.000000,8.000000,0.000000,0.000000,0.153503,0.243790,0.138648,0.092432,0.150202,93.000000,81.000000,12.000000,8.000000,0.000000,0.000000:
00000
00000
00000
00000
,
00000
00000
00000
00000
,
00000
00000
00000
00000
,
00000
00000
00000
00000
,
00000
00000
00000
00000
,
00000
00010
00000
00000
00000
00010
00000
00000
00000
00000
00100
00000
00000
00000
00000
00000
,
00000
01000
00000
00000
00000
01000
00000
00000
00000
00000
00100
00000
00000
00000
00000
00000
,
00000
00000
00000
00000
,
00000
00000
00000
01010
,
00000
00010
00000
00000
00000
00010
00000
00000
00000
00000
00100
00000
00000
00000
00000
00000
,
00000
01000
00000
00000
00000
01000
00000
00000
00000
00000
00100
00000
00000
00000
00000
00000
,
00000
00000
00000
00000
,
00000
00000
00000
01010
,
02000
00000
03000
00000
,
01000
00000
01000
00000
,
01000
00000
00100
00000
,
00010
00000
00001
00000
,
02000
00000
03000
00000
,
01000
00000
01000
00000
,
01000
00000
00100
00000
,
00010
00000
10001
00000
,
00000
00000
01010
00000
,
00000
00000
00100
00000
,
00000
00000
00100
00000
,
00000
00000
10001
00000
,
00000
00000
01010
00000
,
00000
00000
00100
00000
,
00000
00000
00100
00000
,
00000
00000
00000
00000
,
00010
00010
01000
01000
,
00000
10001
00000
00000
,
00000
00000
02000
00000
00000
03000
00000
00000
,
00000
00001
00000
00000
,
01000
00000
00100
00000
00010
00000
00001
00000
00000
00000
00000
00000
,
00010
00000
00100
00000
01000
00000
10000
00000
00000
00000
00000
00000
,
00000
00000
00000
00000
02020
00000
03030
00000
00000
00000
00000
00000
,
00000
00000
00000
00000
,
00010
00010
01000
01000
,
00000
10001
00000
00000
,
00000
00000
02000
00000
00000
03000
00000
00000
,
00000
00001
00000
00000
,
01000
00000
00100
00000
00010
00000
00001
00000
00000
00000
00000
00000
,
00010
00000
00100
00000
01000
00000
10000
00000
00000
00000
00000
00000
,
00000
00000
00000
00000
02020
00000
03030
00000
00000
00000
00000
00000
,
00000
00000
00000
00000
,
00000
00010
00000
00000
00000
00010
00000
00000
00000
00000
00100
00000
00000
00000
00000
00000
,
00000
01000
00000
00000
00000
01000
00000
00000
00000
00000
00100
00000
00000
00000
00000
00000
,
00000
00000
00000
00000
,
00000
00000
00000
01010
,
00000
00010
00000
00000
00000
00010
00000
00000
00000
00000
00100
00000
00000
00000
00000
00000
,
00000
01000
00000
00000
00000
01000
00000
00000
00000
00000
00100
00000
00000
00000
00000
00000
,
00000
00000
00000
00000
,
00000
00000
00000
01010
;

//---------------para-single - Normal----------------
#NOTES:
     para-single:
     Normal:
     Easy:
     3:
     0.199719,0.303293,0.115540,0.115540,0.000000,121.000000,111.000000,10.000000,10.000000,0.000000,0.000000,0.199719,0.303293,0.115540,0.115540,0.000000,121.000000,111.000000,10.000000,10.000000,0.000000,0.000000:
00000
00000
00000
00000
,
00000
00000
00000
00000
,
00000
00000
00000
00000
,
00000
00000
00000
00000
,
00000
00000
00000
00000
,
00010
00010
00100
00000
,
00100
00000
00100
00000
,
01000
01000
00100
00000
,
00100
00000
00100
00000
,
00010
00010
00100
00000
,
00100
00000
00100
00000
,
01000
01000
00100
00000
,
00100
00000
00100
00000
,
02000
00000
03000
00000
,
01000
00000
01000
00000
,
01000
00000
00100
00000
,
00010
00000
00000
00000
00100
00010
00001
00000
,
02000
00000
03000
00000
,
01000
00000
01000
00000
,
01000
00000
00100
00000
,
00010
00000
10001
00000
,
00000
00000
01010
00000
,
00000
00000
00100
00000
,
00010
01000
00010
01000
,
00000
00000
10001
00000
,
00000
00000
01010
00000
,
00000
00000
00100
00000
,
00010
01000
00010
01000
,
00000
00100
00100
00100
,
00010
00010
01000
01000
,
00000
10001
00000
00000
,
02000
00000
00000
03000
00000
00000
00000
00000
,
00010
00000
00001
00000
,
01000
00100
00010
00000
00010
00100
01000
00000
,
00020
01030
00000
01010
,
00000
00000
00000
00000
02020
00000
00000
00000
00000
03030
00000
00000
00000
00000
00000
00000
,
00000
00100
00100
00100
,
00010
00010
01000
01000
,
00000
10001
00000
00000
,
02000
00000
00000
03000
00000
00000
00000
00000
,
00010
00000
00001
00000
,
01000
00100
00010
00000
00010
00100
01000
00000
,
00020
01030
00000
01010
,
00000
00000
00000
00000
02020
00000
00000
00000
00000
00000
00000
00000
00000
03030
00000
00000
,
00000
00000
00000
00000
,
00010
00010
00100
00000
,
00100
00000
00100
00000
,
01000
01000
00100
00000
,
00100
00000
00100
00000
,
00010
00010
00100
00000
,
00100
00000
00100
00000
,
01000
01000
00100
00000
,
00100
00000
00100
00000
;

//---------------para-single - Hard----------------
#NOTES:
     para-single:
     Hard:
     Medium:
     4:
     0.338368,0.672010,0.207972,0.242634,0.144425,205.000000,187.000000,18.000000,21.000000,0.000000,0.000000,0.338368,0.672010,0.207972,0.242634,0.144425,205.000000,187.000000,18.000000,21.000000,0.000000,0.000000:
00000
00000
00000
00000
,
00000
00000
00000
00000
,
00000
00000
00000
00000
,
00000
00000
00000
00000
,
02000
00000
00000
03000
,
00100
00010
00001
00000
10000
00000
00100
00000
01000
00000
00000
00000
00000
00000
00000
00000
,
00100
01000
10000
00000
00001
00000
00100
00000
00010
00000
00000
00000
00000
00000
00000
00000
,
00020
00030
02000
03000
,
00100
00010
00001
00000
00100
01000
10000
00000
00010
00000
00000
00000
01000
00000
00000
00000
,
00100
00010
00001
00000
10000
00000
00100
00000
01000
00000
00000
00000
00000
00000
00000
00000
,
00100
01000
10000
00000
00001
00000
00100
00000
00010
00000
00000
00000
00000
00000
00000
00000
,
00020
00030
02000
03000
,
00100
00010
00001
00000
00100
01000
10000
00000
00010
00000
00000
00000
01000
00000
00000
00000
,
00020
00000
00000
00030
,
01000
00000
01000
00000
,
01000
00100
00000
00000
00100
00010
00000
00000
,
00010
00001
00000
00000
10000
00010
01000
00020
,
00000
00000
00000
00030
,
01000
00000
01000
00000
,
01000
00010
00000
00000
,
00000
00000
10001
01010
,
00100
00000
00100
01010
,
10001
00000
00100
01010
,
10000
10000
00001
00001
,
00100
00000
10001
01010
,
00100
00000
00100
01010
,
10001
00000
00100
01010
,
00000
00000
00100
00000
00100
00000
00010
01000
,
00000
00100
00100
00100
,
00010
00000
01000
00000
00000
10001
00000
00100
,
00000
00100
00000
10001
00000
00000
00000
00000
,
02000
00000
00000
00000
00000
00100
00010
00001
,
03000
10000
00000
00100
00000
00000
00000
00000
,
00020
00030
02000
03000
,
00020
01030
00000
00100
,
00000
02000
00000
00000
,
00000
03000
00000
00000
00000
00000
00000
00000
00000
00000
00000
00000
00000
00000
00000
00000
00000
00000
00000
00000
00000
00000
00000
00000
00000
00000
00000
00000
00000
00000
00000
00000
00000
00000
00000
00000
00000
00000
00000
00000
00000
00000
00000
00000
00000
00000
00000
00000
00100
00000
00000
00000
00000
00000
00000
00000
00000
00000
00000
00000
00000
00000
00000
00000
00000
00000
00000
00000
00000
00000
00000
00000
00000
00000
00000
00000
00000
00000
00000
00000
00000
00000
00000
00000
00000
00000
00000
00000
00000
00000
00000
00000
00000
00000
00000
00000
00100
00000
00000
00000
00000
00000
00000
00000
00000
00000
00000
00000
00000
00000
00000
00000
00000
00000
00000
00000
00000
00000
00000
00000
00000
00000
00000
00000
00000
00000
00000
00000
00000
00000
00000
00000
00000
00000
00000
00000
00000
00000
00000
00000
00000
00000
00000
00000
00100
00000
00000
00000
00000
00000
00000
00000
00000
00000
00000
00000
00000
00000
00000
00000
00000
00000
00000
00000
00000
00000
00000
00000
00000
00000
00000
00000
00000
00000
00000
00000
00000
00000
00000
00000
00000
00000
00000
00000
00000
00000
00000
00000
00000
00000
00000
00000
,
00010
00000
01000
00000
00000
10001
00000
00100
,
00000
00100
00000
10001
00000
00000
00000
00000
,
02000
00000
00000
00000
00000
00100
00010
00001
,
03000
10000
00000
00100
00000
00000
00000
00000
,
00020
00030
02000
03000
,
00020
01030
00000
00100
,
00000
02000
00000
00000
,
00000
00000
00000
00000
00000
00000
00000
00000
00000
00000
00000
00000
00000
00000
00000
00000
00000
00000
00000
00000
00000
00000
00000
00000
00010
00000
00000
00000
00000
00000
00000
00000
00000
00000
00000
00000
00000
00000
00000
00000
00000
00000
00000
00000
00000
00000
00000
00000
00000
00000
00000
00000
00000
00000
00000
00000
00000
00000
00000
00000
00000
00000
00000
00000
00000
00000
00000
00000
00000
00000
00000
00000
00000
00000
00000
00000
00000
00000
00000
00000
00000
00000
00000
00000
00010
00000
00000
00000
00000
00000
00000
00000
00000
00000
00000
00000
00000
03000
00000
00000
00000
00000
00000
00000
00000
00000
00000
00000
00000
00000
00000
00000
00000
00000
00000
00000
00000
00000
00000
00000
00000
00000
00000
00000
00000
00000
00000
00000
00000
00000
00000
00000
00000
00000
00000
00000
00000
00000
00000
00000
00000
00000
00000
00000
00000
00000
00000
00000
00000
00000
00000
00000
00000
00000
00000
00000
00000
00000
00000
00000
00000
00000
00000
00000
00000
00000
00000
00000
00000
00000
00000
00000
00000
00000
00000
00000
00000
00000
00000
00000
00000
00000
00000
00000
00000
00000
00000
00000
00000
00000
00000
00000
,
00100
00010
00001
00000
10000
01000
00100
00000
01010
00000
00000
00000
00000
00000
00000
00000
,
00100
01000
10000
00000
00001
00010
00100
00000
01010
00000
00000
00000
00000
00000
00000
00000
,
00020
00000
02000
03030
,
00100
00010
00001
00000
00100
01000
10000
00000
00100
00010
00001
00000
00100
01000
10000
00000
,
00100
00010
00001
00000
10000
01000
00100
00000
01010
00000
00000
00000
00000
00000
00000
00000
,
00100
01000
10000
00000
00001
00010
00100
00000
01010
00000
00000
00000
00000
00000
00000
00000
,
00020
00000
02000
03030
,
00100
00010
00001
00000
00100
01000
10000
00000
00100
00010
00001
00000
00100
01000
10000
00000
;

//---------------para-single - Expert----------------
#NOTES:
     para-single:
     Expert:
     Hard:
     7:
     0.696542,0.885832,0.277296,0.808781,0.774119,422.000000,398.000000,24.000000,70.000000,0.000000,0.000000,0.696542,0.885832,0.277296,0.808781,0.774119,422.000000,398.000000,24.000000,70.000000,0.000000,0.000000:
00000
00000
00000
00000
,
00000
00000
00000
00000
,
00000
00000
00000
00000
,
00000
00000
00000
00000
,
00001
00010
00100
01000
10000
00001
00010
00100
01000
10000
00001
00010
00100
00000
10000
00000
,
00001
00010
00100
01000
20000
00000
01000
00100
00010
00000
30002
00000
00010
00100
01000
00000
,
10003
01000
00100
00010
00002
00000
00010
00100
01000
00000
20003
00000
31000
00100
00010
00000
,
10000
01000
00100
00010
00002
10000
01003
00100
00010
00002
00010
00103
01000
10000
01000
00100
,
00001
00000
00000
00000
00000
00000
00000
00000
00100
00000
00000
00000
10000
00000
00000
00000
00000
00000
00000
00000
00100
00000
00000
00000
00001
00000
00000
01000
00000
00000
00000
00000
00000
00001
00000
00000
00100
00000
00000
01000
00000
00000
10000
00000
00000
00000
00000
00000
,
00001
00010
00100
01000
20000
00000
01000
00100
00010
00000
30002
00000
00010
00100
01000
00000
,
10003
01000
00100
00010
00002
00000
00010
00100
01000
00000
20003
00000
31000
00100
00010
00000
,
10000
01000
00100
00010
00002
10000
01003
00100
00010
00002
00010
00103
01000
10000
01000
00100
,
00001
00000
00000
00000
00000
00000
00000
00000
00100
00000
00000
00000
10000
00000
00000
00000
00000
00000
00000
00000
00100
00000
00000
00000
00001
00000
00000
00000
01000
00000
00000
00000
00001
00000
00000
00000
00100
00000
00000
01000
00000
00000
10000
00000
00000
00000
00000
00000
,
00000
00000
00010
00001
00000
00000
01000
10000
00100
00000
00010
00001
00000
00000
01000
10000
,
00000
00000
00010
00001
00000
00000
01000
10000
00102
00000
00003
00000
20100
00000
30000
00000
,
00000
00000
00010
00001
00000
00000
01000
10000
00100
00000
00010
00001
00000
00000
01000
10000
,
00000
00000
00010
00001
00000
00000
01000
10000
00120
00000
00030
00000
02100
00000
03000
00000
,
00000
00000
00010
00001
00000
00000
01000
10000
00100
00000
00010
00001
00000
00000
01000
10000
,
00000
00000
00010
00001
00000
00000
01000
10000
00100
00000
00010
00001
00000
00000
01000
10000
,
00000
00000
00010
00001
00000
00000
01000
10000
00100
00000
00010
00001
00000
00000
01000
10000
,
00002
00003
20000
30000
00020
00030
02000
03000
,
10000
00022
00033
00000
00022
00033
00000
10000
,
00001
22000
33000
00000
22000
33000
00000
00001
,
10000
00022
00033
00000
00022
00033
00000
10000
,
00000
10000
00100
01000
00010
00100
00001
01000
,
10000
00202
00303
00000
00202
00303
00000
10000
,
00001
20200
30300
00000
20200
30300
00000
00001
,
00000
01001
00000
10010
00000
00101
00000
10100
,
00000
00010
01000
00010
,
00100
00010
00001
00000
10000
00000
00000
00000
00100
01000
10000
00000
00001
00000
00000
00000
,
00001
00000
10000
00000
00010
00000
01000
00000
00100
00010
00001
00000
01000
00000
00000
00000
,
00202
00300
01003
00000
20200
00300
30010
00000
,
00100
00010
00001
00000
00100
01000
10000
00000
00010
00001
01000
10000
00010
00001
00000
00000
,
00020
00000
00000
00000
00000
00000
00000
00000
00130
01000
20000
00000
00000
00000
30000
00000
,
02000
00000
00000
00000
00000
00000
00000
00000
03100
00010
00001
00000
00000
00000
00100
00000
,
00000
20002
00000
00000
,
00000
30003
00000
00000
00000
00000
00000
00000
00000
00000
00000
00000
00000
00000
00000
00000
00000
00000
00000
00000
00000
00000
00000
00000
00000
00000
00000
00000
00000
00000
00000
00000
00000
00000
00000
00000
00000
00000
00000
00000
00000
00000
00000
00000
00000
00000
00000
00000
00010
00000
00000
00000
00000
00000
00000
00000
00000
00000
00000
00000
00000
00000
00000
00000
00000
00000
00000
00000
00000
00000
00000
00000
00000
00000
00000
00000
00000
00000
00000
00000
00000
00000
00000
00000
00000
00000
00000
00000
00000
00000
00000
00000
00000
00000
00000
00000
01000
00000
00000
00000
00000
00000
00000
00000
00000
00000
00000
00000
00000
00000
00000
00000
00000
00000
00000
00000
00000
00000
00000
00000
00000
00000
00000
00000
00000
00000
00000
00000
00000
00000
00000
00000
00000
00000
00000
00000
00000
00000
00000
00000
00000
00000
00000
00000
00010
00000
00000
00000
00000
00000
00000
00000
00000
00000
00000
00000
00000
00000
00000
00000
00000
00000
00000
00000
00000
00000
00000
00000
00000
00000
00000
00000
00000
00000
00000
00000
00000
00000
00000
00000
00000
00000
00000
00000
00000
00000
00000
00000
00000
00000
00000
00000
,
00100
00010
00001
00000
10000
00000
00000
00000
00100
01000
10000
00000
00001
00000
00000
00000
,
00001
00000
10000
00000
00010
00000
01000
00000
00100
00010
00001
00000
01000
00000
00000
00000
,
00202
00300
01003
00000
20200
00300
30010
00000
,
00100
00010
00001
00000
00100
01000
10000
00000
00010
00001
01000
10000
00010
00001
00000
00000
,
00020
00000
00000
00000
00000
00000
00000
00000
00130
01000
20000
00000
00000
00000
30000
00000
,
02000
00000
00000
00000
00000
00000
00000
00000
03100
00010
00001
00000
00000
00000
00100
00000
,
00000
20002
00000
00000
,
00000
30003
00000
00000
00000
00000
00000
00000
00000
00000
00000
00000
00000
00000
00000
00000
00000
00000
00000
00000
00000
00000
00000
00000
00010
00000
00000
00000
00000
00000
00000
00000
00000
00000
00000
00000
00000
00000
00000
00000
00000
00000
00000
00000
00000
00000
00000
00000
00000
00000
00000
00000
00000
00000
00000
00000
00000
00000
00000
00000
00000
00000
00000
00000
00000
00000
00000
00000
00000
00000
00000
00000
01000
00000
00000
00000
00000
00000
00000
00000
00000
00000
00000
00000
00000
00000
00000
00000
00000
00000
00000
00000
00000
00000
00000
00000
00000
00000
00000
00000
00000
00000
00000
00000
00000
00000
00000
00000
00000
00000
00000
00000
00000
00000
00000
00000
00000
00000
00000
00000
00000
00000
00000
00000
00000
00000
00000
00000
00000
00000
00000
00000
00000
00000
00000
00000
00000
00000
00000
00000
00000
00000
00000
00000
00000
00000
00000
00000
00000
00000
00000
00000
00000
00000
00000
00000
00000
00000
00000
00000
00000
00000
00000
00000
00000
00000
00000
00000
00000
00000
00000
00000
00000
00000
00000
00000
00000
00000
00000
00000
00000
00000
00000
00000
00000
00000
00000
00000
00000
00000
00000
00000
,
00001
00010
00100
01000
20000
00000
01000
00100
00010
00000
30002
00000
00010
00100
01000
00000
,
10003
01000
00100
00010
00002
00000
00010
00100
01000
00000
20003
00000
31000
00100
00010
00000
,
10000
01000
00100
00010
00002
10000
01003
00100
00010
00002
00010
00103
01000
10000
01000
00100
,
00001
00000
00000
00000
00000
00000
00000
00000
00100
00000
00000
00000
10000
00000
00000
00000
00000
00000
00000
00000
00100
00000
00000
00000
00001
00000
00000
01000
00000
00000
00000
00000
00000
00001
00000
00000
00100
00000
00000
01000
00000
00000
10000
00000
00000
00000
00000
00000
,
00001
00010
00100
01000
20000
00000
01000
00100
00010
00000
30002
00000
00010
00100
01000
00000
,
10003
01000
00100
00010
00002
00000
00010
00100
01000
00000
20003
00000
31000
00100
00010
00000
,
10000
01000
00100
00010
00002
10000
01003
00100
00010
00002
00010
00103
01000
10000
01000
00100
,
00001
00000
00000
00000
00000
00000
00000
00000
00100
00000
00000
00000
10000
00000
00000
00000
00000
00000
00000
00000
00100
00000
00000
00000
00001
00000
00000
00000
01000
00000
00000
00000
00001
00000
00000
00000
00100
00000
00000
01000
00000
00000
10000
00000
00000
00000
00000
00000
;

//---------------para-single - Normal (PPD)----------------
#NOTES:
     para-single:
     Normal (PPD):
     Edit:
     1:
     0.146901,0.282062,0.207972,0.300404,0.000000,89.000000,71.000000,18.000000,26.000000,0.000000,0.000000,0.146901,0.282062,0.207972,0.300404,0.000000,89.000000,71.000000,18.000000,26.000000,0.000000,0.000000:
// measure 0
00000
00000
00000
00000
,  // measure 1
00000
00000
00000
00000
,  // measure 2
00000
00000
00000
00000
,  // measure 3
00000
00000
00000
00000
,  // measure 4
00000
00000
00000
00000
,  // measure 5
00200
00300
00000
00000
,  // measure 6
00000
00000
00000
00000
,  // measure 7
00020
00030
00000
00000
02000
03000
00000
00000
,  // measure 8
00000
00000
00000
00000
,  // measure 9
00200
00300
00000
00000
,  // measure 10
00000
00000
00000
00000
,  // measure 11
02020
03030
00000
00000
00000
00000
01010
00000
,  // measure 12
00000
00000
00001
00000
,  // measure 13
10001
00000
10001
00000
,  // measure 14
10001
00000
10001
00000
,  // measure 15
00020
00030
00000
00000
,  // measure 16
02000
03000
00000
00000
,  // measure 17
00000
00000
10000
00000
,  // measure 18
10001
00000
10001
00000
,  // measure 19
10001
00000
10001
00000
,  // measure 20
00020
00030
00000
00000
,  // measure 21
02000
03000
00000
00000
,  // measure 22
00000
00000
01000
00010
,  // measure 23
00000
00000
00010
01000
,  // measure 24
01000
00010
00010
01000
,  // measure 25
00020
00030
00000
00000
02000
03000
00000
00000
,  // measure 26
00000
00000
01000
00010
,  // measure 27
00000
00000
00010
01000
,  // measure 28
01000
00010
00010
01000
,  // measure 29
00000
00000
00100
00000
,  // measure 30
00002
00000
00000
00003
20000
00000
00000
30000
00000
00000
00000
00000
00000
00000
00000
00000
,  // measure 31
00002
10003
00000
00000
,  // measure 32
00010
00000
01000
00000
,  // measure 33
00000
00001
00000
10000
,  // measure 34
01010
00000
10001
00000
,  // measure 35
00000
10001
00000
00000
,  // measure 36
00000
00000
01000
00000
,  // measure 37
00000
00000
00010
00000
,  // measure 38
00002
00000
00000
00003
20000
00000
00000
30000
00000
00000
00000
00000
00000
00000
00000
00000
,  // measure 39
00002
10003
00000
00000
,  // measure 40
00010
00000
01000
00000
,  // measure 41
00000
00001
00000
10000
,  // measure 42
01010
00000
10001
00000
,  // measure 43
00000
10001
00000
00000
,  // measure 44
00000
00000
01000
00000
,  // measure 45
00000
00000
00010
00000
,  // measure 46
00000
00000
00000
00000
,  // measure 47
00200
00300
00000
00000
,  // measure 48
00000
00000
00000
00000
,  // measure 49
00020
00030
00000
00000
02000
03000
00000
00000
,  // measure 50
00000
00000
00000
00000
,  // measure 51
00200
00300
00000
00000
,  // measure 52
00000
00000
00000
00000
,  // measure 53
02020
03030
00000
00000
00000
00000
02020
00000
,  // measure 54
00000
03030
00000
00000
;

//---------------para-single - Normal (PPP 2nd)----------------
#NOTES:
     para-single:
     Normal (PPP 2nd):
     Edit:
     3:
     0.224478,0.303293,0.000000,0.138648,0.092432,136.000000,136.000000,0.000000,12.000000,0.000000,0.000000,0.224478,0.303293,0.000000,0.138648,0.092432,136.000000,136.000000,0.000000,12.000000,0.000000,0.000000:
00000
00000
00000
00000
,
00000
00000
00000
00000
,
00000
00000
00000
00000
,
00000
00000
00000
00000
,
00000
00000
00000
00000
,
01000
00100
00010
00000
,
00010
00100
01000
00000
,
01000
00100
00010
00000
00000
00000
00010
00100
01000
00000
00000
00000
,
00001
00000
00001
00000
,
01000
00100
00010
00000
,
00010
00100
01000
00000
,
01000
00100
00010
00000
00000
00000
00010
00100
01000
00000
00000
00000
,
00001
00000
00001
00000
,
00200
00000
00000
00300
,
01000
00100
00010
00000
,
00002
00000
00000
00003
,
10000
00000
01000
00000
,
00200
00000
00000
00300
,
01000
00100
00010
00000
,
00002
00000
00000
00003
,
00000
00000
10000
01000
,
00100
00000
01000
00100
,
00010
00000
00100
00010
,
00001
00010
00100
01000
,
10000
00000
10000
01000
,
00100
00000
01000
00100
,
00010
00000
00100
00010
,
00001
00010
00100
01000
,
10000
00100
00100
00100
,
00020
00030
02000
03000
,
01000
00100
00010
00000
,
00002
00000
00000
00003
,
00010
00100
01000
00000
,
01000
00010
00010
01000
,
01000
00010
00010
01000
,
00200
00000
00000
00000
,
00000
00000
00000
00000
00000
00000
00000
00000
00000
00000
00000
00000
00000
00000
00000
00000
00000
00000
00000
00000
00000
00000
00000
00000
00000
00000
00000
00000
00000
00000
00000
00000
00000
00000
00000
00000
00000
00000
00000
00000
00000
00000
00000
00000
00000
00000
00000
00300
00100
00000
00000
00000
00000
00000
00000
00000
00000
00000
00000
00000
00000
00000
00000
00000
00000
00000
00000
00000
00000
00000
00000
00000
00000
00000
00000
00000
00000
00000
00000
00000
00000
00000
00000
00000
00000
00000
00000
00000
00000
00000
00000
00000
00000
00000
00000
00000
00100
00000
00000
00000
00000
00000
00000
00000
00000
00000
00000
00000
00000
00000
00000
00000
00000
00000
00000
00000
00000
00000
00000
00000
00000
00000
00000
00000
00000
00000
00000
00000
00000
00000
00000
00000
00000
00000
00000
00000
00000
00000
00000
00000
00000
00000
00000
00000
00100
00000
00000
00000
00000
00000
00000
00000
00000
00000
00000
00000
00000
00000
00000
00000
00000
00000
00000
00000
00000
00000
00000
00000
00000
00000
00000
00000
00000
00000
00000
00000
00000
00000
00000
00000
00000
00000
00000
00000
00000
00000
00000
00000
00000
00000
00000
00000
,
00020
00030
02000
03000
,
01000
00100
00010
00000
,
00002
00000
00000
00003
,
00010
00100
01000
00000
,
01000
00010
00010
01000
,
01000
00010
00010
01000
,
00200
00000
00000
00000
,
00300
00000
00000
00000
,
01000
00100
00010
00000
,
00010
00100
01000
00000
,
01000
00100
00010
00000
00000
00000
00010
00100
01000
00000
00000
00000
,
00001
00000
00001
00000
,
01000
00100
00010
00000
,
00010
00100
01000
00000
,
01000
00100
00010
00000
00000
00000
00010
00100
01000
00000
00000
00000
,
00001
00000
00001
00000
;
