#TITLE:FEELING OF LOVE;
#SUBTITLE:-super euro version-;
#ARTIST:YOHEI SHIMIZU with VENTURA;
#TITLETRANSLIT:;
#SUBTITLETRANSLIT:;
#ARTISTTRANSLIT:;
#GENRE:;
#CREDIT:locuuraa;
#BANNER:FEELING OF LOVE -super euro version--bn.png;
#BACKGROUND:FEELING OF LOVE -super euro version--cd.png;
#LYRICSPATH:;
#CDTITLE:./CDTitles/Konami original remix.png;
#MUSIC:FEELING OF LOVE -super euro version-.MP3;
#OFFSET:1.500000;
#SAMPLESTART:46.959999;
#SAMPLELENGTH:12.000000;
#LASTBEATHINT:1.308333;
#SELECTABLE:YES;
#BPMS:0.0=150.0;
#STOPS:
;
#BGCHANGES:;
#KEYSOUNDS:;
#ATTACKS:;

//---------------para-single - locuuraa----------------
#NOTES:
     para-single:
     ParaPara:
     Beginner:
     2:
     0.000:
// Measure 0
00000
00000
00000
00000
,  // Measure 1
00000
00000
00000
00000
,  // Measure 2
00000
00000
01010
01010
,  // Measure 3
00000
00000
01010
01010
,  // Measure 4
00000
00000
00000
00000
,  // Measure 5
00000
00000
00000
00000
,  // Measure 6
00000
00000
01010
01010
,  // Measure 7
00000
00000
01010
01010
,  // Measure 8
00000
00000
00000
00000
,  // Measure 9
00000
00000
00000
00000
,  // Measure 10
02020
00000
03030
00000
,  // Measure 11
01000
00100
00010
00000
,  // Measure 12
00010
00100
01000
00000
,  // Measure 13
01000
00000
00000
10100
00000
00000
00010
00000
00000
00000
00000
00000
00000
00000
00000
00000
00000
00000
00000
00000
00000
00000
00000
00000
00000
00000
00000
00000
00000
00000
00000
00000
,  // Measure 14
00010
00000
00000
00101
00000
00000
01000
00000
00000
00000
00000
00000
00000
00000
00000
00000
00000
00000
00000
00000
00000
00000
00000
00000
00000
00000
00000
00000
00000
00000
00000
00000
,  // Measure 15
01000
00100
00010
00000
,  // Measure 16
00010
00100
01000
00000
,  // Measure 17
01010
00000
00000
00000
,  // Measure 18
10001
00000
10001
00000
,  // Measure 19
01000
00100
00010
00000
,  // Measure 20
00010
00100
01000
00000
,  // Measure 21
01000
00000
00000
10100
00000
00000
00010
00000
00000
00000
00000
00000
00000
00000
00000
00000
00000
00000
00000
00000
00000
00000
00000
00000
00000
00000
00000
00000
00000
00000
00000
00000
,  // Measure 22
00010
00000
00000
00101
00000
00000
01000
00000
00000
00000
00000
00000
00000
00000
00000
00000
00000
00000
00000
00000
00000
00000
00000
00000
00000
00000
00000
00000
00000
00000
00000
00000
,  // Measure 23
01000
00100
00010
00000
,  // Measure 24
00010
00100
01000
00000
,  // Measure 25
00000
00020
00000
00000
,  // Measure 26
00000
00030
00000
00000
,  // Measure 27
00001
00010
00000
00000
00000
00000
00000
00000
00010
00100
00000
00000
00000
00000
00000
00000
,  // Measure 28
10000
01000
00000
00000
00000
00000
00000
00000
01000
00100
00000
00000
00000
00000
00000
00000
,  // Measure 29
01000
00010
00010
01000
,  // Measure 30
00000
00000
02020
00000
03030
00000
00000
00000
,  // Measure 31
00001
00010
00000
00000
00000
00000
00000
00000
00010
00100
00000
00000
00000
00000
00000
00000
,  // Measure 32
10000
01000
00000
00000
00000
00000
00000
00000
01000
00100
00000
00000
00000
00000
00000
00000
,  // Measure 33
01000
00010
00010
01000
,  // Measure 34
00000
00000
02020
03030
00000
00000
00000
00000
,  // Measure 35
00000
00000
01010
01010
,  // Measure 36
00000
00000
01010
01010
,  // Measure 37
00000
00000
00000
00000
,  // Measure 38
00000
00000
00000
00000
,  // Measure 39
00000
00000
01010
01010
,  // Measure 40
00000
00000
01010
01010
,  // Measure 41
00000
00000
00000
00000
,  // Measure 42
00000
00000
00000
00000
,  // Measure 43
00000
00000
00000
00000
,  // Measure 44
00000
00000
00000
00000
;

//---------------para-single - locuuraa----------------
#NOTES:
     para-single:
     Normal:
     Easy:
     3:
     0.000:
// Measure 0
00000
00000
00000
00000
,  // Measure 1
00000
00000
00000
00000
,  // Measure 2
01000
00010
01000
00000
,  // Measure 3
00010
01000
00010
00000
,  // Measure 4
00200
00000
00300
00000
,  // Measure 5
00001
10000
00001
10000
,  // Measure 6
01000
00010
01000
00000
,  // Measure 7
00010
01000
00010
00000
,  // Measure 8
00200
00000
00300
00000
,  // Measure 9
00001
10000
00001
10000
,  // Measure 10
00020
00000
00030
00000
,  // Measure 11
01000
00100
00010
00000
,  // Measure 12
00010
00100
01000
00000
,  // Measure 13
01000
00100
00010
00001
00000
00000
00000
00000
,  // Measure 14
00010
00100
01000
10000
00000
00000
00000
00000
,  // Measure 15
01000
00100
00010
00000
,  // Measure 16
00010
00100
01000
00000
,  // Measure 17
01010
00000
00000
00000
,  // Measure 18
10001
00000
10001
00000
,  // Measure 19
01000
00100
00010
00000
,  // Measure 20
00010
00100
01000
00000
,  // Measure 21
01000
00100
00010
00001
00000
00000
00000
00000
,  // Measure 22
00010
00100
01000
10000
00000
00000
00000
00000
,  // Measure 23
01000
00100
00010
00000
,  // Measure 24
00010
00100
01000
00000
,  // Measure 25
00000
00020
00000
00000
00000
00000
00000
00000
,  // Measure 26
00030
00000
00000
00000
,  // Measure 27
00001
00010
00000
00000
00000
00000
00000
00000
00010
00100
00000
00000
00000
00000
00000
00000
,  // Measure 28
10000
01000
00000
00000
00000
00000
00000
00000
01000
00100
00000
00000
00000
00000
00000
00000
,  // Measure 29
01000
00010
00010
01000
,  // Measure 30
00000
02020
00000
03030
00000
00000
00000
00000
,  // Measure 31
00001
00010
00000
00000
00000
00000
00000
00000
00010
00100
00000
00000
00000
00000
00000
00000
,  // Measure 32
10000
01000
00000
00000
00000
00000
00000
00000
01000
00100
00000
00000
00000
00000
00000
00000
,  // Measure 33
01000
00010
00010
01000
,  // Measure 34
00000
02020
00000
03030
00000
00000
00000
00000
,  // Measure 35
01000
00010
01000
00000
,  // Measure 36
00010
01000
00010
00000
,  // Measure 37
00200
00000
00300
00000
,  // Measure 38
00001
10000
00001
10000
,  // Measure 39
01000
00010
01000
00000
,  // Measure 40
00010
01000
00010
00000
,  // Measure 41
00200
00000
00300
00000
,  // Measure 42
00001
10000
00001
10000
,  // Measure 43
01000
00010
01000
00000
,  // Measure 44
00000
00000
00000
00000
,
;

//---------------para-single - locuuraa----------------
#NOTES:
     para-single:
     Hard:
     Medium:
     4:
     0.000:
// Measure 0
00000
00000
00000
00000
,  // Measure 1
00000
00000
00000
00000
,  // Measure 2
02000
00000
03000
00010
00001
00000
00000
00000
,  // Measure 3
02000
00000
03000
00010
00001
00000
00000
00000
,  // Measure 4
00100
00001
00100
10000
,  // Measure 5
01000
00100
00010
00100
,  // Measure 6
02000
00000
03000
00010
00001
00000
00000
00000
,  // Measure 7
02000
00000
03000
00010
00001
00000
00000
00000
,  // Measure 8
00100
00001
00100
10000
,  // Measure 9
00100
00100
00010
00100
,  // Measure 10
02020
03030
00000
00000
,  // Measure 11
00100
00000
00000
00000
00100
00000
00000
00000
00010
00000
00000
00001
00000
00000
00000
00000
,  // Measure 12
00100
00000
00100
00000
00100
00000
00000
01000
,  // Measure 13
00100
00010
00001
10000
01000
00000
00000
00010
,  // Measure 14
00100
01000
10000
00001
00010
00000
00000
00000
,  // Measure 15
00100
00000
00000
00000
00100
00000
00000
00000
00010
00000
00000
00001
00000
00000
00000
00000
,  // Measure 16
00100
00100
00100
00000
,  // Measure 17
00200
00000
00300
10000
00001
00000
01000
00000
,  // Measure 18
00020
00000
00000
00030
00000
00000
00000
00000
,  // Measure 19
00100
00000
00000
00000
00100
00000
00000
00000
01000
00000
00000
10000
00000
00000
00000
00000
,  // Measure 20
00100
00000
00100
00000
00100
00000
00000
00010
,  // Measure 21
00100
01000
10000
00001
00010
00000
00000
01000
,  // Measure 22
00100
00010
00001
10000
01000
00000
00000
00000
,  // Measure 23
00100
00000
00000
00000
00100
00000
00000
00000
01000
00000
00000
10000
00000
00000
00000
00000
,  // Measure 24
00100
00000
00100
00000
10000
00001
01000
00000
,  // Measure 25
00200
00000
00000
00000
00000
00000
00000
00000
,  // Measure 26
00000
00000
00000
00300
,  // Measure 27
00001
00010
00000
00000
00000
00000
00001
00010
00000
00000
10000
00000
00100
00000
00000
00000
,  // Measure 28
10000
01000
00000
00000
00000
00000
10000
01000
00000
00000
00001
00000
00100
00000
00000
00000
,  // Measure 29
00002
10003
00100
01010
,  // Measure 30
00100
00000
01000
00000
00000
00000
00010
00001
00000
00000
01000
10000
00000
00000
00000
00000
,  // Measure 31
00001
00010
00000
00000
00000
00000
00001
00010
00000
00000
10000
00000
00100
00000
00000
00000
,  // Measure 32
10000
01000
00000
00000
00000
00000
10000
01000
00000
00000
00001
00000
00100
00000
00000
00000
,  // Measure 33
00002
10003
00100
01010
,  // Measure 34
00100
00000
00000
01000
00000
00100
00000
00000
,  // Measure 35
01000
00010
01000
00010
00001
00000
00000
00000
,  // Measure 36
01000
00010
01000
00010
00001
00000
00000
00000
,  // Measure 37
00100
10000
00100
00001
00100
10000
00100
00001
,  // Measure 38
01000
00100
00010
00001
,  // Measure 39
01000
00010
01000
00010
00001
00000
00000
00000
,  // Measure 40
01000
00010
01000
00010
00001
00000
00000
00000
,  // Measure 41
00100
10000
00100
00001
00100
10000
00100
00001
,  // Measure 42
00100
00100
00010
00100
,  // Measure 43
01000
00000
00100
00000
00010
00000
10000
00000
00000
00001
00000
00000
01000
00000
00100
00000
,  // Measure 44
00000
00000
00000
00000
,
;

//---------------para-single - locuuraa----------------
#NOTES:
     para-single:
     Expert:
     Hard:
     4:
     0.000:
// Measure 0
00000
00000
00000
00000
,  // Measure 1
00000
00000
00000
00000
,  // Measure 2
00001
00010
00100
01000
10000
00000
00000
00000
00002
00000
00000
00000
00003
00000
00000
00000
,  // Measure 3
10000
01000
00100
00000
01000
00100
00010
00000
00002
00000
00000
00000
00003
00000
00000
00000
,  // Measure 4
00100
01000
10000
00000
00100
00010
00001
00000
00100
01000
10000
00000
00100
00010
00001
00000
,  // Measure 5
20000
30002
20003
30000
,  // Measure 6
00001
00010
00100
01000
10000
00000
00000
00000
00002
00000
00000
00000
00003
00000
00000
00000
,  // Measure 7
10000
01000
00100
00000
01000
00100
00010
00000
00002
00000
00000
00000
00003
00000
00000
00000
,  // Measure 8
00100
01000
10000
00000
00100
00010
00001
00000
00100
01000
10000
00000
00100
00010
00001
00000
,  // Measure 9
00200
00300
10001
00200
00300
10001
00200
10301
,  // Measure 10
02020
00000
03030
00000
,  // Measure 11
00000
00000
00010
00001
00000
00000
01000
10000
00000
00000
00010
00001
00000
00000
01000
10000
,  // Measure 12
00000
00000
00100
00010
00000
00000
00100
01000
00000
00000
00100
00010
00000
00000
00100
01000
,  // Measure 13
00000
00000
00010
00001
00000
00000
01000
10000
00000
00000
00010
00001
00000
00000
01000
10000
,  // Measure 14
00100
00000
01000
00000
10000
00000
00001
00000
00110
00000
00000
01000
00000
10000
00000
00000
,  // Measure 15
00000
00000
00010
00001
00000
00000
01000
10000
00000
00000
00010
00001
00000
00000
01000
10000
,  // Measure 16
00000
00000
00100
00010
00000
00000
00100
01000
00000
00000
00100
00010
00000
00000
00100
01000
,  // Measure 17
00200
00000
00300
10000
00001
00000
01000
00000
,  // Measure 18
10020
00000
01000
00030
00100
00000
00010
00000
,  // Measure 19
00000
00000
00010
00001
00000
00000
01000
10000
00000
00000
00010
00001
00000
00000
01000
10000
,  // Measure 20
00000
00000
00100
00010
00000
00000
00100
01000
00000
00000
00100
00010
00000
00000
00100
01000
,  // Measure 21
00000
00000
00010
00001
00000
00000
01000
10000
00000
00000
00010
00001
00000
00000
01000
10000
,  // Measure 22
00100
00000
00010
00000
00001
00000
10000
00000
01100
00000
00000
00010
00000
00001
00000
00000
,  // Measure 23
00100
00000
00000
00000
00100
00000
00000
00000
01000
00000
00000
10000
00000
00000
00000
00000
,  // Measure 24
02020
03030
20002
30003
,  // Measure 25
00200
00000
00000
00000
00000
00000
00000
00000
00000
00000
00000
00000
00000
00000
00000
00000
,  // Measure 26
00000
00000
00000
00000
00000
00000
00300
00000
,  // Measure 27
00001
00010
00000
00000
00000
00000
00001
00020
00000
00000
10000
00000
00130
00000
00000
00000
,  // Measure 28
10000
01000
00000
00000
00000
00000
10000
02000
00000
00000
00001
00000
03100
00000
00000
00000
,  // Measure 29
00002
10003
00020
01030
,  // Measure 30
00100
00000
00020
00000
00000
00030
10000
00000
00001
00010
00100
01000
10000
00000
00000
00000
,  // Measure 31
00001
00010
00000
00000
00000
00000
00001
00020
00000
00000
10000
00000
00130
00000
00000
00000
,  // Measure 32
10000
01000
00000
00000
00000
00000
10000
02000
00000
00000
00001
00000
03100
00000
00000
00000
,  // Measure 33
00002
10003
00020
01030
,  // Measure 34
00200
00000
00300
00010
00000
00100
00000
00000
,  // Measure 35
01000
00100
00010
00000
00000
00000
00000
00000
00102
01000
10000
00000
00003
00000
00000
00000
,  // Measure 36
01000
00100
00010
00000
00000
00000
00000
00000
00102
01000
10000
00000
00003
00000
00000
00000
,  // Measure 37
00100
01000
20000
00000
00100
00010
30002
00000
01000
00000
00003
00000
00010
00000
00000
00000
,  // Measure 38
00100
00100
01010
00100
,  // Measure 39
01000
00100
00010
00000
00000
00000
00000
00000
00102
01000
10000
00000
00003
00000
00000
00000
,  // Measure 40
01000
00100
00010
00000
00000
00000
00000
00000
00102
01000
10000
00000
00003
00000
00000
00000
,  // Measure 41
00100
01000
20000
00000
00100
00010
30002
00000
01000
00000
00003
00000
00010
00000
00000
00000
,  // Measure 42
01000
00000
00100
00000
00010
00000
10000
00000
00000
00001
00000
00000
00010
00000
00100
00000
,  // Measure 43
00200
00300
01010
00200
00300
10001
00200
01310
,  // Measure 44
00000
00000
00000
00000
;

//---------------para-single - locuuraa----------------
#NOTES:
     para-single:
     ParaPara (PPD):
     Edit:
     1:
     0.000:
// Measure 0
00000
00000
00000
00000
,  // Measure 1
00000
00000
00000
00000
,  // Measure 2
00000
00000
01010
01010
,  // Measure 3
00000
00000
01010
01010
,  // Measure 4
00000
00000
00000
00000
,  // Measure 5
00000
00100
00000
00000
,  // Measure 6
00000
00000
01010
01010
,  // Measure 7
00000
00000
01010
01010
,  // Measure 8
00000
00000
00000
00000
,  // Measure 9
00000
00100
00000
00000
,  // Measure 10
01000
00100
00010
00000
,  // Measure 11
00010
00100
01000
00000
,  // Measure 12
01000
00000
00000
10100
00000
00000
00010
00000
00000
00000
00000
00000
00000
00000
00000
00000
,  // Measure 13
00010
00000
00000
00101
00000
00000
01000
00000
00000
00000
00000
00000
00000
00000
00000
00000
,  // Measure 14
01000
00100
00010
00000
,  // Measure 15
00010
00100
01000
00000
,  // Measure 16
01010
00000
00000
00000
,  // Measure 17
10001
00000
10001
00000
,  // Measure 18
01000
00100
00010
00000
,  // Measure 19
00010
00100
01000
00000
,  // Measure 20
01000
00000
00000
10100
00000
00000
00010
00000
00000
00000
00000
00000
00000
00000
00000
00000
,  // Measure 21
00010
00000
00000
00101
00000
00000
01000
00000
00000
00000
00000
00000
00000
00000
00000
00000
,  // Measure 22
01000
00100
00010
00000
,  // Measure 23
00010
00100
01000
00000
,  // Measure 24
01010
00000
00000
00000
,  // Measure 25
20002
00000
00000
30003
00000
00000
00000
00000
00000
00000
00000
00000
00000
00000
00000
00000
,  // Measure 26
00001
00010
00000
00000
00000
00000
00000
00000
00010
00100
00000
00000
00000
00000
00000
00000
,  // Measure 27
10000
01000
00000
00000
00000
00000
00000
00000
01000
00100
00000
00000
00000
00000
00000
00000
,  // Measure 28
01000
00010
00010
01000
,  // Measure 29
00000
00000
00000
02020
00000
00000
00000
03030
00000
00000
00000
00000
00000
00000
00000
00000
,  // Measure 30
00001
00010
00000
00000
00000
00000
00000
00000
00010
00100
00000
00000
00000
00000
00000
00000
,  // Measure 31
10000
01000
00000
00000
00000
00000
00000
00000
01000
00100
00000
00000
00000
00000
00000
00000
,  // Measure 32
01000
00010
00010
01000
,  // Measure 33
00000
00000
00000
02020
00000
00000
00000
03030
00000
00000
00000
00000
00000
00000
00000
00000
,  // Measure 34
00000
00000
01010
01010
,  // Measure 35
00000
00000
01010
01010
,  // Measure 36
00000
00000
00000
00000
,  // Measure 37
00000
00100
00000
00000
,  // Measure 38
00000
00000
01010
01010
,  // Measure 39
00000
00000
01010
01010
,  // Measure 40
00000
00000
00000
00000
,  // Measure 41
00000
00100
00000
00000
,  // Measure 42
02020
00000
03030
00000
,  // Measure 43
01000
00100
00010
00000
,  // Measure 44
00010
00100
01000
00000
,  // Measure 45
01000
00000
00000
10100
00000
00000
00010
00000
00000
00000
00000
00000
00000
00000
00000
00000
,  // Measure 46
00010
00000
00000
00101
00000
00000
01000
00000
00000
00000
00000
00000
00000
00000
00000
00000
,  // Measure 47
01000
00100
00010
00000
,  // Measure 48
00010
00100
01000
00000
,  // Measure 49
01010
00000
00000
00000
,  // Measure 50
10001
00000
10001
00000
,  // Measure 51
01000
00100
00010
00000
,  // Measure 52
00010
00100
01000
00000
,  // Measure 53
01000
00000
00000
10100
00000
00000
00010
00000
00000
00000
00000
00000
00000
00000
00000
00000
,  // Measure 54
00010
00000
00000
00101
00000
00000
01000
00000
00000
00000
00000
00000
00000
00000
00000
00000
,  // Measure 55
01000
00100
00010
00000
,  // Measure 56
00010
00100
01000
00000
,  // Measure 57
00000
00020
00000
00000
,  // Measure 58
00000
00030
00000
00000
,  // Measure 59
00000
00000
01010
01010
,  // Measure 60
00000
00000
01010
01010
,  // Measure 61
00000
00000
00000
00000
,  // Measure 62
00000
00100
00000
00000
,  // Measure 63
00000
00000
01010
01010
,  // Measure 64
00000
00000
01010
01010
,  // Measure 65
00000
00000
00000
00000
,  // Measure 66
00000
00100
00000
00000
,  // Measure 67
00000
00000
00000
00000
,  // Measure 68
00000
00000
00000
00000
;

//---------------para-single - locuuraa----------------
#NOTES:
     para-single:
     Normal (PPP 2nd):
     Edit:
     3:
     0.000:
// Measure 0
00000
00000
00000
00000
,  // Measure 1
00000
00000
00000
00000
,  // Measure 2
00010
01000
00010
00000
,  // Measure 3
01000
00010
01000
00000
,  // Measure 4
00200
00000
00300
00000
,  // Measure 5
00001
10000
00001
10000
,  // Measure 6
00010
01000
00010
00000
,  // Measure 7
01000
00010
01000
00000
,  // Measure 8
00200
00000
00300
00000
,  // Measure 9
00001
10000
00001
10000
,  // Measure 10
00020
00000
00030
00000
,  // Measure 11
01000
00000
00010
00000
,  // Measure 12
00010
00000
01000
00000
,  // Measure 13
01000
00100
00010
00001
00000
00000
00000
00000
,  // Measure 14
00010
00100
01000
10000
00000
00000
00000
00000
,  // Measure 15
01000
00000
00010
00000
,  // Measure 16
00010
00000
01000
00000
,  // Measure 17
01000
00100
00010
00001
00000
00000
00000
00000
,  // Measure 18
00010
00100
01000
10000
00000
00000
00000
00000
,  // Measure 19
01000
00000
00010
00000
,  // Measure 20
00010
00000
01000
00000
,  // Measure 21
01000
00100
00010
00001
00000
00000
00000
00000
,  // Measure 22
00010
00100
01000
10000
00000
00000
00000
00000
,  // Measure 23
01000
00000
00010
00000
,  // Measure 24
00010
00000
01000
00000
,  // Measure 25
00020
00000
00000
00000
,  // Measure 26
00030
00000
00000
00000
,  // Measure 27
00010
00100
00010
00000
,  // Measure 28
01000
00100
01000
00000
,  // Measure 29
00010
00000
01000
00000
,  // Measure 30
02020
03030
00000
00000
,  // Measure 31
00010
00100
00010
00000
,  // Measure 32
01000
00100
01000
00000
,  // Measure 33
00010
00000
01000
00000
,  // Measure 34
02020
03030
00000
00000
,  // Measure 35
00010
01000
00010
00000
,  // Measure 36
01000
00010
01000
00000
,  // Measure 37
00200
00000
00300
00000
,  // Measure 38
00001
10000
00001
10000
,  // Measure 39
00010
01000
00010
00000
,  // Measure 40
01000
00010
01000
00000
,  // Measure 41
00200
00000
00300
00000
,  // Measure 42
00001
10000
00001
10000
,  // Measure 43
00010
01000
00010
01000
,  // Measure 44
00000
00000
00000
00000
;
