#TITLE:BURNING DESIRE;
#SUBTITLE:;
#ARTIST:MEGA NRG MAN;
#TITLETRANSLIT:;
#SUBTITLETRANSLIT:;
#ARTISTTRANSLIT:;
#GENRE:;
#CREDIT:locuuraa;
#BANNER:BURNING DESIRE-bn.png;
#BACKGROUND:BURNING DESIRE-cd.png;
#LYRICSPATH:;
#CDTITLE:./CDTitles/Para Para Paradise 1st Mix Plus.png;
#MUSIC:BURNING DESIRE.MP3;
#OFFSET:-0.260000;
#SAMPLESTART:45.199974;
#SAMPLELENGTH:12.000000;
#SELECTABLE:YES;
#BPMS:0.000000=148.000000
;
#STOPS:
;
#BGCHANGES:0.000=BURNING DESIRE.mp4=1.000=0=0=1=====,
99999=-nosongbg-=1.000=0=0=0 // don't automatically add -songbackground-
;
#KEYSOUNDS:;
#ATTACKS:;

//---------------para-single - ParaPara----------------
#NOTES:
     para-single:
     ParaPara:
     Beginner:
     5:
     0.192267,0.322773,0.187795,0.323425,0.198228,129.000000,111.000000,18.000000,31.000000,0.000000,0.000000,0.192267,0.322773,0.187795,0.323425,0.198228,129.000000,111.000000,18.000000,31.000000,0.000000,0.000000:
00000
00000
00000
00000
,
00000
00000
00000
00000
,
00000
00000
00000
00000
,
00000
00000
00000
00000
,
00000
00000
00000
00000
,
00000
00000
00000
00000
00000
00000
00000
00000
00000
00002
00000
00003
00000
00000
00000
00000
,
00000
20000
00000
30000
00000
00000
00000
00000
00000
00000
00000
00000
00000
00000
00000
00000
,
00000
20002
00000
30003
00000
00000
00000
00000
00000
00002
00000
00003
00000
00000
00000
00000
,
00000
20000
00000
30000
00000
00000
00000
00000
00000
00000
00000
00000
00000
00000
00000
00000
,
00000
20002
00000
30003
00000
00000
00000
00000
00000
00002
00000
00003
00000
00000
00000
00000
,
00000
20000
00000
30000
00000
00000
00000
00000
00000
00000
00000
00000
00000
00000
00000
00000
,
00000
20002
00000
30003
00000
00000
00000
00000
00000
00002
00000
00003
00000
00000
00000
00000
,
00000
20000
00000
30000
00000
00000
00000
00000
00000
00000
00000
00000
00000
00000
00000
00000
,
00000
20002
00000
30003
00000
00000
00000
00000
00000
00000
00000
00000
00000
00000
00000
00000
,
00000
00010
00000
00000
,
00000
01000
01000
00010
,
00010
01000
01000
00010
,
00010
00000
00000
00000
00000
00000
01000
00000
00000
00000
00000
00000
00000
00000
00000
00100
00000
00000
00000
00010
00000
00000
00000
00001
,
00000
00000
00000
00001
00010
00000
00000
00000
,
01000
00200
00000
00000
,
00000
00000
00000
00300
00000
00000
00000
00000
00000
02020
00000
00000
03030
00000
00000
00000
,
00000
00000
00000
00000
,
00000
00010
00000
00000
,
00000
01000
01000
00010
,
00010
01000
01000
00010
,
00010
00000
00000
00000
01000
00000
00000
00000
00000
00000
00000
00000
02000
00000
00000
03000
,
00000
00010
00000
00000
00000
00000
00000
00000
,
01000
00200
00000
00000
,
00000
00000
00000
00300
00000
00000
00000
00000
00000
02020
00000
00000
03030
00000
00000
00000
,
00000
00000
02020
00000
,
00000
03030
00000
00000
,
00100
00000
00010
00010
,
01000
00000
00000
00000
01000
00000
00000
00000
00000
02020
00000
00000
03030
00000
00000
00000
,
00000
00000
02020
00000
,
00000
03030
00000
00000
,
00100
00000
00010
00010
,
01000
00000
00000
00000
01000
00000
00000
00000
00000
02020
00000
00000
03030
00000
00000
00000
,
00000
00000
00000
01010
,
00000
01000
01000
00000
,
00010
00000
00000
00100
00000
00000
01000
00100
00010
00000
00000
00000
,
00010
00000
00000
00000
00100
00000
00000
00000
01000
00000
00000
00000
00000
00000
00000
00000
00000
00000
00000
00000
00000
00000
00000
00000
00000
00000
00000
00000
00000
00000
00000
00000
00000
01010
00000
00000
00000
00000
00000
00000
00000
00000
00000
00000
00000
00000
00000
00000
,
00000
01010
00000
01010
,
00000
01000
01000
00000
,
00000
00000
00000
00000
00000
00000
01000
00000
00100
00000
00010
00000
,
00001
00000
00000
00000
00000
00000
00001
00000
00010
00000
00100
00000
,
01000
00000
00000
00000
00000
00000
00000
00000
00000
00000
00000
00000
00000
00000
00000
00001
,
00000
00000
00000
00001
00000
00000
00000
00000
00000
00000
00000
00000
01010
00000
00000
00000
,
00000
01000
01000
00000
,
00010
00000
00000
00100
00000
00000
01000
00100
00010
00000
00000
00000
,
00010
00000
00000
00000
00100
00000
00000
00000
01000
00000
00000
00000
00000
00000
00000
00000
00000
00000
00000
00000
00000
00000
00000
00000
00000
00000
00000
00000
00000
00000
00000
00000
00000
01010
00000
00000
00000
00000
00000
00000
00000
00000
00000
00000
00000
00000
00000
00000
,
00000
01010
00000
01010
,
00000
01000
01000
00000
,
00000
00000
00000
00000
00000
00000
01000
00000
00100
00000
00010
00000
,
00001
00000
00000
00000
,
00000
00000
00000
00000
00000
00000
01000
00000
00100
00000
00010
00000
,
00001
00000
00000
00000
,
00100
00100
00000
00000
;

//---------------para-single - Normal----------------
#NOTES:
     para-single:
     Normal:
     Easy:
     3:
     0.278712,0.322773,0.135630,0.052165,0.067815,187.000000,174.000000,13.000000,5.000000,0.000000,0.000000,0.278712,0.322773,0.135630,0.052165,0.067815,187.000000,174.000000,13.000000,5.000000,0.000000,0.000000:
00000
00000
00000
00000
,
00000
00000
00000
00000
,
00000
00000
00000
00000
,
00000
00000
00000
00000
,
00000
00000
00100
01000
,
00100
00000
00010
00000
00010
00100
01000
00000
,
01000
00100
00010
00000
01000
00000
00010
00000
,
00100
01000
00000
00000
00000
00000
00000
00000
01000
00000
00100
00000
00010
00000
00000
00000
,
00010
00100
01000
00000
00010
00000
01000
00000
,
00100
00010
00000
00000
00000
00000
00000
00000
00010
00000
00100
00000
01000
00000
00000
00000
,
01000
00100
00010
00000
01000
00000
00010
00000
,
00100
01000
00000
00000
00000
00000
00000
00000
01000
00000
00100
00000
00010
00000
00000
00000
,
00010
00100
01000
00000
00010
00000
01000
00000
,
00100
00010
00000
00000
00000
00000
00000
00000
00010
00000
00000
00000
01000
00000
00000
00000
,
10000
00000
01000
00010
,
00001
00000
00010
01000
,
10000
00000
01000
00010
,
00100
00000
00200
00000
,
00000
00300
01010
00000
,
00001
10000
00010
01000
,
00100
00000
00010
01000
,
00100
00000
00010
01000
,
10000
00000
01000
00010
,
00001
00000
00010
01000
,
10000
00000
01000
00010
,
00100
00000
00010
02000
,
00000
03010
00000
00010
00000
00000
00000
00000
,
00001
10000
00010
01000
,
00100
00000
00010
01000
,
00100
00000
10001
00000
,
00100
00001
10000
00010
,
01000
00000
00100
00100
,
01010
00000
00000
00000
00200
00000
00000
00300
,
00000
00000
10001
00000
,
00100
00001
10000
00010
,
00100
00000
01010
00100
,
01010
00000
00000
00000
01000
00010
01000
00010
,
00100
00000
01000
00010
,
01000
00010
10001
00000
,
00001
00100
10000
00100
,
00010
01000
10001
00000
,
00100
00100
01000
00010
,
01000
00010
10001
00000
,
00000
00000
00000
00000
00000
00000
00000
00000
00000
00000
00000
00000
00000
00000
00000
00000
00000
00000
00000
00000
00000
00000
00000
00010
00000
00000
00000
00000
00000
00000
00000
00000
00000
00000
00000
00000
00000
00000
00000
00000
00000
00000
00000
00000
00000
00000
00000
00100
00000
00000
00000
00000
00000
00000
00000
00000
00000
00000
00000
00000
00000
00000
00000
00000
00000
00000
00000
00000
00000
00000
00000
01000
00000
00000
00000
00000
00000
00000
00000
00000
00000
00000
00000
00000
00000
00000
00000
00000
00000
00000
00000
00000
00000
00000
00000
00000
00020
00000
00000
00000
00000
00000
00000
00000
00000
00000
00000
00000
00000
00000
00000
00000
00000
00000
00000
00000
00000
00000
00000
00000
00000
00000
00000
00000
00000
00000
00000
00000
00000
00000
00000
00000
00000
00000
00000
00000
00000
00000
00000
00000
00000
00000
00000
00000
00000
00000
00000
00000
00000
00000
00000
00000
00000
00000
00000
00000
00000
00000
00000
00000
00000
00000
00000
00000
00000
00000
00000
00000
00000
00000
00000
00000
00000
00000
00000
00000
00000
00000
00000
00000
00000
00000
00000
00000
00000
00000
00000
00000
00000
00000
00000
00000
,
00000
00030
01000
00000
,
00000
00000
00000
00000
00000
00000
00000
00000
00000
00000
00000
00000
00000
00000
00000
00000
00000
00000
00000
00000
00000
00000
00000
01000
00000
00000
00000
00000
00000
00000
00000
00000
00000
00000
00000
00000
00000
00000
00000
00000
00000
00000
00000
00000
00000
00000
00000
00010
00000
00000
00000
00000
00000
00000
00000
00000
00000
00000
00000
00000
00000
00000
00000
00000
00000
00000
00000
00000
00000
00000
00000
00100
00000
00000
00000
00000
00000
00000
00000
00000
00000
00000
00000
00000
00000
00000
00000
00000
00000
00000
00000
00000
00000
00000
00000
00000
00000
00000
00000
00000
00000
00000
00000
00000
00000
00000
00000
00000
00000
00000
00000
00000
00000
00000
00000
00000
00000
00000
00000
00000
01010
00000
00000
00000
00000
00000
00000
00000
00000
00000
00000
00000
00000
00000
00000
00000
00000
00000
00000
00000
00000
00000
00000
00000
00000
00000
00000
00000
00000
00000
00000
00000
00000
00000
00000
00000
00000
00000
00000
00000
00000
00000
00000
00000
00000
00000
00000
00000
00100
00000
00000
00000
00000
00000
00000
00000
00000
00000
00000
00000
00000
00000
00000
00000
00000
00000
00000
00000
00000
00000
00000
00000
,
00000
00100
00000
00000
01000
00000
00010
00000
,
01000
00010
10001
00000
,
00001
00100
10000
00100
,
00001
00100
10001
00000
,
00100
00100
01000
00010
,
01000
00010
10001
00000
,
00000
00000
00000
00000
00000
00000
00000
00000
00000
00000
00000
00000
00000
00000
00000
00000
00000
00000
00000
00000
00000
00000
00000
00010
00000
00000
00000
00000
00000
00000
00000
00000
00000
00000
00000
00000
00000
00000
00000
00000
00000
00000
00000
00000
00000
00000
00000
00100
00000
00000
00000
00000
00000
00000
00000
00000
00000
00000
00000
00000
00000
00000
00000
00000
00000
00000
00000
00000
00000
00000
00000
01000
00000
00000
00000
00000
00000
00000
00000
00000
00000
00000
00000
00000
00000
00000
00000
00000
00000
00000
00000
00000
00000
00000
00000
00000
00020
00000
00000
00000
00000
00000
00000
00000
00000
00000
00000
00000
00000
00000
00000
00000
00000
00000
00000
00000
00000
00000
00000
00000
00000
00000
00000
00000
00000
00000
00000
00000
00000
00000
00000
00000
00000
00000
00000
00000
00000
00000
00000
00000
00000
00000
00000
00000
00000
00000
00000
00000
00000
00000
00000
00000
00000
00000
00000
00000
00000
00000
00000
00000
00000
00000
00000
00000
00000
00000
00000
00000
00000
00000
00000
00000
00000
00000
00000
00000
00000
00000
00000
00000
00000
00000
00000
00000
00000
00000
00000
00000
00000
00000
00000
00000
,
00000
00030
00000
00000
01000
00000
00000
00000
,
00000
00000
00000
00000
00000
01000
00000
00010
,
00000
01000
00000
00010
00000
00000
00000
00000
,
01000
00010
00000
00000
;

//---------------para-single - Hard----------------
#NOTES:
     para-single:
     Hard:
     Medium:
     4:
     0.417323,0.528175,0.438189,0.073032,0.078248,280.000000,238.000000,42.000000,7.000000,0.000000,0.000000,0.417323,0.528175,0.438189,0.073032,0.078248,280.000000,238.000000,42.000000,7.000000,0.000000,0.000000:
00000
00000
00000
00000
,
00000
00000
00000
00000
,
00000
00000
00000
00000
,
00000
00000
00000
00000
,
00000
00000
10100
01000
,
00101
00000
00010
00000
00101
01010
10100
00000
,
01000
00000
00100
00000
00010
00000
00000
00000
01000
10000
00000
00000
00010
00001
00000
00000
,
00100
01000
10000
00000
00000
00000
00000
00000
10100
00000
01010
00000
00101
00000
00000
00000
,
00010
00000
00100
00000
01000
00000
00000
00000
00010
00001
00000
00000
01000
10000
00000
00000
,
00100
00010
00001
00000
00000
00000
00000
00000
00101
00000
01010
00000
10100
00000
00000
00000
,
01000
00000
00100
00000
00010
00000
00000
00000
01000
10000
00000
00000
00010
00001
00000
00000
,
00100
01000
10000
00000
00000
00000
00000
00000
10100
00000
01010
00000
00101
00000
00000
00000
,
00010
00000
00100
00000
01000
00000
00000
00000
00010
00001
00000
00000
01000
10000
00000
00000
,
00100
00010
00001
00000
00000
00000
00000
00000
00010
00000
00000
00000
01000
00000
00000
00000
,
10000
00000
00100
00010
01000
00000
00010
00000
,
00001
00000
00100
01000
00010
00000
01000
00000
,
10000
00000
00100
00010
01000
00000
00010
00000
,
00100
00000
00000
00000
00001
00010
00100
01000
,
00100
00010
00001
00000
01010
00000
00000
00000
,
01001
00000
10010
00000
01000
00100
00010
00001
,
00000
10000
00000
00001
00000
00000
00000
00001
,
00000
00100
01000
10000
00010
00000
01000
00000
,
10000
00000
00100
00010
01000
00000
00010
00000
,
00001
00000
00100
01000
00010
00000
01000
00000
,
10000
00000
00100
00010
01000
00000
00010
00000
,
00100
00000
00010
02000
,
00000
00010
00000
03010
00000
00000
00000
00000
,
01001
00000
10010
00000
01000
00100
00010
00001
,
00000
10000
00000
00001
00000
00000
00000
00001
,
00000
00100
00010
00000
10001
00000
00000
01000
,
00100
00010
00001
10000
00000
00010
00000
01000
,
00000
00100
00010
00001
01000
00000
00100
00000
,
01010
00000
10001
00000
00000
00000
00200
00000
00000
00000
00000
00000
00000
00000
00000
00300
,
00000
00000
00000
00000
10001
00000
00000
01000
,
00100
00010
00001
10000
00000
00010
00000
01000
,
00000
00100
00010
00001
01000
00000
00100
00000
,
01010
10001
00000
00000
00200
00000
00000
00000
,
00300
00000
01001
10010
,
01000
00100
00010
00001
00000
01010
00000
00000
,
00001
00010
00100
01000
10000
00000
00001
00000
,
00010
00100
01000
10000
00000
00000
00000
00000
,
00100
00100
01001
10010
,
01000
00100
00010
00001
00000
01010
00000
00000
,
00000
00010
00100
01000
10020
00000
00000
00000
,
00000
00000
00000
00000
00000
00000
00000
00000
00000
00000
00000
00000
00000
00000
00000
00000
00000
00000
00000
00000
00000
00000
00000
00000
00000
00000
00000
00000
00000
00000
00000
00000
00000
00000
00000
00000
00000
00000
00000
00000
00000
00000
00000
00000
00000
00000
00000
00000
00000
00000
00000
00000
00000
00000
00000
00000
00000
00000
00000
00000
00000
00000
00000
00000
00000
00000
00000
00000
00000
00000
00000
00000
00000
00000
00000
00000
00000
00000
00000
00000
00000
00000
00000
00000
00000
00000
00000
00000
00000
00000
00000
00000
00000
00000
00000
00000
02000
00030
00000
00000
00000
00000
00000
00000
00000
00000
00000
00000
00000
00000
00000
00000
00000
00000
00000
00000
00000
00000
00000
00000
00000
00000
00000
00000
00000
00000
00000
00000
00000
00000
00000
00000
00000
00000
00000
00000
00000
00000
00000
00000
00000
00000
00000
00000
00000
00000
00000
00000
00000
00000
00000
00000
00000
00000
00000
00000
00000
00000
00000
00000
00000
00000
00000
00000
00000
00000
00000
00000
03000
00000
00000
00000
00000
00000
00000
00000
00000
00000
00000
00000
00000
00000
00000
00000
00000
00000
00000
00000
00000
00000
00000
00000
,
00000
00000
00000
00000
00000
00000
00000
00000
00000
00000
00000
00000
00000
00000
00000
00000
00000
00000
00000
00000
00000
00000
00000
01010
00000
00000
00000
00000
00000
00000
00000
00000
00000
00000
00000
00000
00000
00000
00000
00000
00000
00000
00000
00000
00000
00000
00000
00100
00000
00000
00000
00000
00000
00000
00000
00000
00000
00000
00000
00000
00000
00000
00000
00000
00000
00000
00000
00000
00000
00000
00000
01010
00000
00000
00000
00000
00000
00000
00000
00000
00000
00000
00000
00000
00000
00000
00000
00000
00000
00000
00000
00000
00000
00000
00000
00000
00000
00000
00000
00000
00000
00000
00000
00000
00000
00000
00000
00000
00000
00000
00000
00000
00000
00000
00000
00000
00000
00000
00000
00000
01010
00000
00000
00000
00000
00000
00000
00000
00000
00000
00000
00000
00000
00000
00000
00000
00000
00000
00000
00000
00000
00000
00000
00000
00000
00000
00000
00000
00000
00000
00000
00000
00000
00000
00000
00000
00000
00000
00000
00000
00000
00000
00000
00000
00000
00000
00000
00000
00100
00000
00000
00000
00000
00000
00000
00000
00000
00000
00000
00000
00000
00000
00000
00000
00000
00000
00000
00000
00000
00000
00000
00000
,
00000
00100
00000
00000
01001
00000
10010
00000
,
01000
00100
00010
00001
00000
01010
00000
00000
,
00001
00010
00100
01000
10000
00000
00001
00000
,
00010
00100
01000
10000
00000
00000
00000
00000
,
00100
00100
01001
10010
,
01000
00100
00010
00001
00000
01010
00000
00000
,
00000
00010
00100
01000
10020
00000
00000
00000
,
00000
00030
00000
00000
02000
00000
00000
00000
,
00000
03000
00000
00000
00000
00100
00010
00001
,
00000
00100
01000
10000
00000
00100
00010
00001
,
01000
00010
00000
00000
;

//---------------para-single - Expert----------------
#NOTES:
     para-single:
     Expert:
     Hard:
     6:
     0.529106,0.704233,0.938977,0.239961,0.099114,355.000000,265.000000,90.000000,23.000000,0.000000,0.000000,0.529106,0.704233,0.938977,0.239961,0.099114,355.000000,265.000000,90.000000,23.000000,0.000000,0.000000:
00000
00000
00000
00000
,
00000
00000
00020
00000
,
00000
00000
00000
00000
00000
00000
00000
00000
00000
00000
00000
00000
00000
00000
00000
00000
00000
00000
00000
00000
00000
00000
00000
00000
00000
00000
00000
00000
00000
00000
00000
00000
00000
00000
00000
00000
00000
00000
00000
00000
00000
00000
00000
00000
00000
00000
00000
00000
00000
00000
00000
00000
00000
00000
00000
00000
00000
00000
00000
00000
00000
00000
00000
00000
00000
00000
00000
00000
00000
00000
00000
00000
00000
00000
00000
00000
00000
00000
00000
00000
00000
00000
00000
00000
00000
00000
00000
00000
00000
00000
00000
00000
00000
00000
00000
00000
02000
00030
00000
00000
00000
00000
00000
00000
00000
00000
00000
00000
00000
00000
00000
00000
00000
00000
00000
00000
00000
00000
00000
00000
00000
00000
00000
00000
00000
00000
00000
00000
00000
00000
00000
00000
00000
00000
00000
00000
00000
00000
00000
00000
00000
00000
00000
00000
00000
00000
00000
00000
00000
00000
00000
00000
00000
00000
00000
00000
00000
00000
00000
00000
00000
00000
00000
00000
00000
00000
00000
00000
00000
00000
00000
00000
00000
00000
00000
00000
00000
00000
00000
00000
00000
00000
00000
00000
00000
00000
00000
00000
00000
00000
00000
00000
,
00000
00000
00000
00000
00000
00000
00000
00000
00000
00000
00000
00000
00000
00000
00000
00000
00000
00000
00000
00000
00000
00000
00000
00000
00000
00000
00000
00000
00000
00000
00000
00000
00000
00000
00000
00000
00000
00000
00000
00000
00000
00000
00000
00000
00000
00000
00000
00000
00000
00000
00000
00000
00000
00000
00000
00000
00000
00000
00000
00000
00000
00000
00000
00000
00000
00000
00000
00000
00000
00000
00000
00000
00000
00000
00000
00000
00000
00000
00000
00000
00000
00000
00000
00000
00000
00000
00000
00000
00000
00000
00000
00000
00000
00000
00000
00000
00200
03000
00000
00000
00000
00000
00000
00000
00000
00000
00000
00000
00000
00000
00000
00000
00000
00000
00000
00000
00000
00000
00000
00000
00000
00000
00000
00000
00000
00000
00000
00000
00000
00000
00000
00000
00000
00000
00000
00000
00000
00000
00000
00000
00000
00000
00000
00000
00000
00000
00000
00000
00000
00000
00000
00000
00000
00000
00000
00000
00000
00000
00000
00000
00000
00000
00000
00000
00000
00000
00000
00000
00000
00000
00000
00000
00000
00000
00000
00000
00000
00000
00000
00000
00000
00000
00000
00000
00000
00000
00000
00000
00000
00000
00000
00000
,
00000
00000
00000
00000
00000
00000
00000
00000
00000
00000
00000
00000
00000
00000
00000
00000
00000
00000
00000
00000
00000
00000
00000
00000
00000
00000
00000
00000
00000
00000
00000
00000
00000
00000
00000
00000
00000
00000
00000
00000
00000
00000
00000
00000
00000
00000
00000
00000
00000
00000
00000
00000
00000
00000
00000
00000
00000
00000
00000
00000
00000
00000
00000
00000
00000
00000
00000
00000
00000
00000
00000
00000
00000
00000
00000
00000
00000
00000
00000
00000
00000
00000
00000
00000
00000
00000
00000
00000
00000
00000
00000
00000
00000
00000
00000
00000
10000
00300
00000
00000
00000
00000
00000
00000
00000
00000
00000
00000
00000
00000
00000
00000
00000
00000
00000
00000
00000
00000
00000
00000
00000
00000
00000
00000
00000
00000
00000
00000
00000
00000
00000
00000
00000
00000
00000
00000
00000
00000
00000
00000
00000
00000
00000
00000
01010
00000
00000
00000
00000
00000
00000
00000
00000
00000
00000
00000
00000
00000
00000
00000
00000
00000
00000
00000
00000
00000
00000
00000
00000
00000
00000
00000
00000
00000
00000
00000
00000
00000
00000
00000
00000
00000
00000
00000
00000
00000
00000
00000
00000
00000
00000
00000
,
00101
00000
01010
00000
00101
01010
10100
00000
,
10100
00000
01010
00000
00101
00000
00000
00000
00100
01000
10000
00000
00100
00010
00001
00000
,
00010
00100
01000
10000
00000
00000
00000
00000
10100
00000
01010
00000
00101
00000
00000
00000
,
00101
00000
01010
00000
10100
00000
00000
00000
00100
00010
00001
00000
00100
01000
10000
00000
,
01000
00100
00010
00001
00000
00000
00000
00000
00101
00000
01010
00000
10100
00000
00000
00000
,
10100
00000
01010
00000
00101
00000
00000
00000
00100
01000
10000
00000
00100
00010
00001
00000
,
00010
00100
01000
10000
00000
00000
00000
00000
10100
00000
01010
00000
00101
00000
00000
00000
,
00101
00000
01010
00000
10100
00000
00000
00000
00100
00010
00001
00000
00100
01000
10000
00000
,
01000
00100
00010
00001
00000
00000
00000
00000
00010
00000
02000
00000
00000
00000
03010
00000
,
00000
01000
00100
00010
01000
00020
00000
01030
,
00000
00010
00100
01000
00010
02000
00000
03010
,
00000
01000
00100
00010
01000
00020
00000
01030
,
00000
00010
00000
00000
20001
00010
00100
01000
,
00100
00010
30001
00000
01010
00000
00000
00000
,
01001
00000
10010
00000
01000
00100
00010
00101
,
00000
10100
00000
00101
00000
00000
00000
00001
,
00000
00100
01000
10000
00010
02000
00000
03010
,
00000
01000
00100
00010
01000
00020
00000
01030
,
00000
00010
00100
01000
00010
02000
00000
03010
,
00000
01000
00100
00010
01000
00020
00000
01030
,
00000
00010
00000
00000
00020
00000
02030
00000
,
00000
00010
00000
03020
00000
00000
00030
00000
,
01001
00000
10010
00000
01000
00100
00010
00101
,
00000
10100
00000
00101
00000
00000
00000
00001
,
00000
00100
00010
00000
20001
00000
00000
01000
,
30100
00010
00001
10000
00000
00010
00000
01000
,
00000
00100
01010
10001
01010
00000
01010
00000
,
01010
00000
10001
00000
00000
00000
00200
00000
00000
00000
00000
00000
00000
00000
00000
00300
,
00000
00000
00000
00000
20001
00000
00000
01000
,
30100
00010
00001
10000
00000
00010
00000
01000
,
00000
00100
01010
10001
01010
00000
01010
00000
,
01010
10001
00000
00000
02010
00001
00010
00001
,
03010
00000
01001
10010
,
01001
00100
00010
10001
00000
01010
00000
00000
,
00001
00010
00100
01000
10010
00000
01001
00000
,
10010
00100
01000
10001
00000
00000
00000
00000
,
00100
00100
01001
10010
,
01001
00100
00010
10001
00000
01010
00000
00000
,
00000
00010
00100
01000
10020
00000
00000
00000
,
00000
00000
00000
00000
00000
00000
00000
00000
00000
00000
00000
00000
00000
00000
00000
00000
00000
00000
00000
00000
00000
00000
00000
00000
00000
00000
00000
00000
00000
00000
00000
00000
00000
00000
00000
00000
00000
00000
00000
00000
00000
00000
00000
00000
00000
00000
00000
00000
00000
00000
00000
00000
00000
00000
00000
00000
00000
00000
00000
00000
00000
00000
00000
00000
00000
00000
00000
00000
00000
00000
00000
00000
00000
00000
00000
00000
00000
00000
00000
00000
00000
00000
00000
00000
00000
00000
00000
00000
00000
00000
00000
00000
00000
00000
00000
00000
02000
00030
00000
00000
00000
00000
00000
00000
00000
00000
00000
00000
00000
00000
00000
00000
00000
00000
00000
00000
00000
00000
00000
00000
00000
00000
00000
00000
00000
00000
00000
00000
00000
00000
00000
00000
00000
00000
00000
00000
00000
00000
00000
00000
00000
00000
00000
00000
00000
00000
00000
00000
00000
00000
00000
00000
00000
00000
00000
00000
00000
00000
00000
00000
00000
00000
00000
00000
00000
00000
00000
00000
03000
00000
00000
00000
00000
00000
00000
00000
00000
00000
00000
00000
00000
00000
00000
00000
00000
00000
00000
00000
00000
00000
00000
00000
,
00000
00000
00000
00000
00000
00000
00000
00000
00000
00000
00000
00000
00000
00000
00000
00000
00000
00000
00000
00000
00000
00000
00000
10001
00000
00000
00000
00000
00000
00000
00000
00000
00000
00000
00000
00000
00000
00000
00000
00000
00000
00000
00000
00000
00000
00000
00000
01010
00000
00000
00000
00000
00000
00000
00000
00000
00000
00000
00000
00000
00000
00000
00000
00000
00000
00000
00000
00000
00000
00000
00000
10001
00000
00000
00000
00000
00000
00000
00000
00000
00000
00000
00000
00000
00000
00000
00000
00000
00000
00000
00000
00000
00000
00000
00000
00000
00000
00000
00000
00000
00000
00000
00000
00000
00000
00000
00000
00000
00000
00000
00000
00000
00000
00000
00000
00000
00000
00000
00000
00000
01010
00000
00000
00000
00000
00000
00000
00000
00000
00000
00000
00000
00000
00000
00000
00000
00000
00000
00000
00000
00000
00000
00000
00000
00000
00000
00000
00000
00000
00000
00000
00000
00000
00000
00000
00000
00000
00000
00000
00000
00000
00000
00000
00000
00000
00000
00000
00000
00100
00000
00000
00000
00000
00000
00000
00000
00000
00000
00000
00000
00000
00000
00000
00000
00000
00000
00000
00000
00000
00000
00000
00000
,
00000
00100
00000
00000
01001
00000
10010
00000
,
01001
00100
00010
10001
00000
01010
00000
00000
,
00001
00010
00100
01000
10010
00000
01001
00000
,
10010
00100
01000
10001
00000
00000
00000
00000
,
00100
00100
01001
10010
,
01001
00100
00010
10001
00000
01010
00000
00000
,
00000
00010
00100
01000
10020
00000
00000
00000
,
00000
00000
00000
00000
00000
00000
00000
00000
00000
00000
00000
00000
00000
00000
00000
00000
00000
00000
00000
00000
00000
00000
00000
00000
00000
00000
00000
00000
00000
00000
00000
00000
00000
00000
00000
00000
00000
00000
00000
00000
00000
00000
00000
00000
00000
00000
00000
00000
00000
00000
00000
00000
00000
00000
00000
00000
00000
00000
00000
00000
00000
00000
00000
00000
00000
00000
00000
00000
00000
00000
00000
00000
00000
00000
00000
00000
00000
00000
00000
00000
00000
00000
00000
00000
00000
00000
00000
00000
00000
00000
00000
00000
00000
00000
00000
00000
02000
00030
00000
00000
00000
00000
00000
00000
00000
00000
00000
00000
00000
00000
00000
00000
00000
00000
00000
00000
00000
00000
00000
00000
00000
00000
00000
00000
00000
00000
00000
00000
00000
00000
00000
00000
00000
00000
00000
00000
00000
00000
00000
00000
00000
00000
00000
00000
00000
00000
00000
00000
00000
00000
00000
00000
00000
00000
00000
00000
00000
00000
00000
00000
00000
00000
00000
00000
00000
00000
00000
00000
00000
00000
00000
00000
00000
00000
00000
00000
00000
00000
00000
00000
00000
00000
00000
00000
00000
00000
00000
00000
00000
00000
00000
00000
,
00000
00000
00000
00000
00000
00000
00000
00000
00000
00000
00000
00000
00000
00000
00000
00000
00000
00000
00000
00000
00000
00000
00000
00000
00000
00000
00000
00000
00000
00000
00000
00000
00000
00000
00000
00000
00000
00000
00000
00000
00000
00000
00000
00000
00000
00000
00000
00000
00000
00000
00000
00000
00000
00000
00000
00000
00000
00000
00000
00000
00000
00000
00000
00000
00000
00000
00000
00000
00000
00000
00000
00000
00000
00000
00000
00000
00000
00000
00000
00000
00000
00000
00000
00000
00000
00000
00000
00000
00000
00000
00000
00000
00000
00000
00000
00000
00000
03000
00000
00000
00000
00000
00000
00000
00000
00000
00000
00000
00000
00000
00000
00000
00000
00000
00000
00000
00000
00000
00000
00000
00100
00000
00000
00000
00000
00000
00000
00000
00000
00000
00000
00000
00000
00000
00000
00000
00000
00000
00000
00000
00000
00000
00000
00000
00010
00000
00000
00000
00000
00000
00000
00000
00000
00000
00000
00000
00000
00000
00000
00000
00000
00000
00000
00000
00000
00000
00000
00000
00001
00000
00000
00000
00000
00000
00000
00000
00000
00000
00000
00000
00000
00000
00000
00000
00000
00000
00000
00000
00000
00000
00000
00000
,
00000
01000
00100
00010
00000
10000
01000
00100
,
01010
01010
00000
00000
;

//---------------para-single - ParaPara (PPD)----------------
#NOTES:
     para-single:
     ParaPara (PPD):
     Edit:
     1:
     0.198228,0.322773,0.187795,0.323425,0.140847,133.000000,115.000000,18.000000,31.000000,0.000000,0.000000,0.198228,0.322773,0.187795,0.323425,0.140847,133.000000,115.000000,18.000000,31.000000,0.000000,0.000000:
00000
00000
00000
00000
,
00000
00000
00000
00000
,
00000
00000
00000
00000
,
00000
00000
00000
00000
,
00000
00000
00000
00000
,
00000
00000
00000
00000
00000
00000
00000
00000
00000
00002
00000
00000
00003
00000
00000
00000
,
00000
20000
00000
00000
30000
00000
00000
00000
00000
00000
00000
00000
00000
00000
00000
00000
,
00000
20002
00000
00000
30003
00000
00000
00000
00000
00002
00000
00000
00003
00000
00000
00000
,
00000
20000
00000
00000
30000
00000
00000
00000
00000
00000
00000
00000
00000
00000
00000
00000
,
00000
20002
00000
00000
30003
00000
00000
00000
00000
00002
00000
00000
00003
00000
00000
00000
,
00000
20000
00000
00000
30000
00000
00000
00000
00000
00000
00000
00000
00000
00000
00000
00000
,
00000
20002
00000
00000
30003
00000
00000
00000
00000
00002
00000
00000
00003
00000
00000
00000
,
00000
20000
00000
00000
30000
00000
00000
00000
00000
00000
00000
00000
00000
00000
00000
00000
,
00000
20002
00000
00000
30003
00000
00000
00000
00000
00000
00000
00000
00000
00000
00000
00000
,
00000
00010
00000
00000
,
00000
01000
01000
00010
,
00010
01000
01000
00010
,
00010
00000
01000
00000
00100
00010
00001
00000
,
00000
00000
00000
00000
00000
00000
00000
00000
00001
00010
00000
00000
00000
00000
00000
00000
,
01000
02000
00000
00000
,
00000
00000
00000
03000
00000
00000
00000
00000
00000
02020
00000
00000
03030
00000
00000
00000
,
00000
00000
00000
00000
,
00000
00010
00000
00000
,
00000
01000
01000
00010
,
00010
01000
01000
00010
,
00010
01000
00000
02000
,
03000
00010
00000
00000
00000
00000
00000
00000
,
01000
02000
00000
00000
,
00000
00000
00000
03000
00000
00000
00000
00000
00000
02020
00000
00000
03030
00000
00000
00000
,
00000
00000
02020
00000
,
00000
03030
00000
00000
,
00010
00000
00010
00010
,
01000
00000
00000
00000
01000
00000
00000
00000
00000
02020
00000
00000
03030
00000
00000
00000
,
00000
00000
02020
00000
,
00000
03030
00000
00000
,
00010
00000
00010
00010
,
01000
00000
00000
00000
01000
00000
00000
00000
00000
02020
00000
00000
03030
00000
00000
00000
,
00000
00000
00000
00000
00000
00100
01010
00000
,
00000
01000
01000
00000
,
00010
00000
00100
00000
01000
00100
00010
00000
,
00010
00100
01000
00000
00000
01010
00000
00000
,
00000
00000
00000
00000
00000
00000
00000
00000
00000
00000
00000
00000
00000
00000
00000
00000
00000
00000
00000
00000
00000
00000
00000
00000
00000
00000
00000
00000
00000
00000
00000
00000
00000
00000
00000
00000
00000
00000
00000
00000
00000
00000
00000
00000
00000
00000
00000
01010
00000
00000
00000
00000
00000
00000
00000
00000
00000
00000
00000
00000
00000
00000
00000
00000
00000
00000
00000
00000
00000
00000
00000
00000
00000
00000
00000
00000
00000
00000
00000
00000
00000
00000
00000
00000
00000
00000
00000
00000
00000
00000
00000
00000
00000
00000
00000
00000
00000
00000
00000
00000
00000
00000
00000
00000
00000
00000
00000
00000
00000
00000
00000
00000
00000
00000
00000
00000
00000
00000
00000
00000
00100
00000
00000
00000
00000
00000
00000
00000
00000
00000
00000
00000
00000
00000
00000
00000
00000
00000
00000
00000
00000
00000
00000
00000
01010
00000
00000
00000
00000
00000
00000
00000
00000
00000
00000
00000
00000
00000
00000
00000
00000
00000
00000
00000
00000
00000
00000
00000
00000
00000
00000
00000
00000
00000
00000
00000
00000
00000
00000
00000
00000
00000
00000
00000
00000
00000
00000
00000
00000
00000
00000
00000
,
00000
01000
01000
00000
,
00000
00000
00000
00000
00000
00000
00000
00000
01000
00000
00000
00100
00000
00000
00010
00000
,
00000
00001
00000
00000
00000
00000
00000
00000
00001
00000
00000
00010
00000
00000
00100
00000
,
00000
01000
00000
00000
00000
00000
00000
00000
00000
00000
00000
00000
00000
00000
00000
00000
,
00001
00000
00001
00000
00000
00100
01010
00000
,
00000
01000
01000
00000
,
00010
00000
00100
00000
01000
00100
00010
00000
,
00010
00100
01000
00000
00000
01010
00000
00000
,
00000
00000
00000
00000
00000
00000
00000
00000
00000
00000
00000
00000
00000
00000
00000
00000
00000
00000
00000
00000
00000
00000
00000
00000
00000
00000
00000
00000
00000
00000
00000
00000
00000
00000
00000
00000
00000
00000
00000
00000
00000
00000
00000
00000
00000
00000
00000
01010
00000
00000
00000
00000
00000
00000
00000
00000
00000
00000
00000
00000
00000
00000
00000
00000
00000
00000
00000
00000
00000
00000
00000
00000
00000
00000
00000
00000
00000
00000
00000
00000
00000
00000
00000
00000
00000
00000
00000
00000
00000
00000
00000
00000
00000
00000
00000
00000
00000
00000
00000
00000
00000
00000
00000
00000
00000
00000
00000
00000
00000
00000
00000
00000
00000
00000
00000
00000
00000
00000
00000
00000
00100
00000
00000
00000
00000
00000
00000
00000
00000
00000
00000
00000
00000
00000
00000
00000
00000
00000
00000
00000
00000
00000
00000
00000
01010
00000
00000
00000
00000
00000
00000
00000
00000
00000
00000
00000
00000
00000
00000
00000
00000
00000
00000
00000
00000
00000
00000
00000
00000
00000
00000
00000
00000
00000
00000
00000
00000
00000
00000
00000
00000
00000
00000
00000
00000
00000
00000
00000
00000
00000
00000
00000
,
00000
01000
01000
00000
,
00000
00000
00000
00000
00000
00000
00000
00000
01000
00000
00000
00100
00000
00000
00010
00000
,
00000
00001
00000
00000
00000
00000
00000
00000
00000
00000
00000
00000
00000
00000
00000
00000
,
00000
00000
00000
00000
00000
00000
00000
00000
01000
00000
00000
00100
00000
00000
00010
00000
,
00000
00001
00000
00000
00000
00000
00000
00000
00000
00000
00000
00000
00000
00000
00000
00000
,
00100
00100
00000
00000
;

//---------------para-single - ParaPara (PPP 2nd)----------------
#NOTES:
     para-single:
     ParaPara (PPP 2nd):
     Edit:
     5:
     0.192267,0.322773,0.187795,0.323425,0.198228,129.000000,111.000000,18.000000,31.000000,0.000000,0.000000,0.192267,0.322773,0.187795,0.323425,0.198228,129.000000,111.000000,18.000000,31.000000,0.000000,0.000000:
// measure 0
00000
00000
00000
00000
,  // measure 1
00000
00000
00000
00000
,  // measure 2
00000
00000
00000
00000
,  // measure 3
00000
00000
00000
00000
,  // measure 4
00000
00000
00000
00000
,  // measure 5
00000
00000
00000
00000
00000
00000
00000
00000
00000
00002
00000
00003
00000
00000
00000
00000
,  // measure 6
00000
20000
00000
30000
00000
00000
00000
00000
00000
00000
00000
00000
00000
00000
00000
00000
,  // measure 7
00000
20002
00000
30003
00000
00000
00000
00000
00000
00002
00000
00003
00000
00000
00000
00000
,  // measure 8
00000
20000
00000
30000
00000
00000
00000
00000
00000
00000
00000
00000
00000
00000
00000
00000
,  // measure 9
00000
20002
00000
30003
00000
00000
00000
00000
00000
00002
00000
00003
00000
00000
00000
00000
,  // measure 10
00000
20000
00000
30000
00000
00000
00000
00000
00000
00000
00000
00000
00000
00000
00000
00000
,  // measure 11
00000
20002
00000
30003
00000
00000
00000
00000
00000
00002
00000
00003
00000
00000
00000
00000
,  // measure 12
00000
20000
00000
30000
00000
00000
00000
00000
00000
00000
00000
00000
00000
00000
00000
00000
,  // measure 13
00000
20002
00000
30003
00000
00000
00000
00000
00000
00000
00000
00000
00000
00000
00000
00000
,  // measure 14
00000
00010
00000
00000
,  // measure 15
00000
01000
01000
00010
,  // measure 16
00010
01000
01000
00010
,  // measure 17
00010
00000
00000
00000
00000
00000
01000
00000
00000
00000
00000
00000
00000
00000
00000
00100
00000
00000
00000
00010
00000
00000
00000
00001
,  // measure 18
00000
00000
00000
00001
00010
00000
00000
00000
,  // measure 19
01000
00200
00000
00000
,  // measure 20
00000
00000
00000
00300
00000
00000
00000
00000
00000
02020
00000
00000
03030
00000
00000
00000
,  // measure 21
00000
00000
00000
00000
,  // measure 22
00000
00010
00000
00000
,  // measure 23
00000
01000
01000
00010
,  // measure 24
00010
01000
01000
00010
,  // measure 25
00010
00000
00000
00000
01000
00000
00000
00000
00000
00000
00000
00000
02000
00000
00000
03000
,  // measure 26
00000
00010
00000
00000
00000
00000
00000
00000
,  // measure 27
01000
00200
00000
00000
,  // measure 28
00000
00000
00000
00300
00000
00000
00000
00000
00000
02020
00000
00000
03030
00000
00000
00000
,  // measure 29
00000
00000
02020
00000
,  // measure 30
00000
03030
00000
00000
,  // measure 31
00100
00000
00010
00010
,  // measure 32
01000
00000
00000
00000
01000
00000
00000
00000
00000
02020
00000
00000
03030
00000
00000
00000
,  // measure 33
00000
00000
02020
00000
,  // measure 34
00000
03030
00000
00000
,  // measure 35
00100
00000
00010
00010
,  // measure 36
01000
00000
00000
00000
01000
00000
00000
00000
00000
02020
00000
00000
03030
00000
00000
00000
,  // measure 37
00000
00000
00000
01010
,  // measure 38
00000
01000
01000
00000
,  // measure 39
00010
00000
00000
00100
00000
00000
01000
00100
00010
00000
00000
00000
,  // measure 40
00010
00000
00000
00000
00100
00000
00000
00000
01000
00000
00000
00000
00000
00000
00000
00000
00000
00000
00000
00000
00000
00000
00000
00000
00000
00000
00000
00000
00000
00000
00000
00000
00000
01010
00000
00000
00000
00000
00000
00000
00000
00000
00000
00000
00000
00000
00000
00000
,  // measure 41
00000
01010
00000
01010
,  // measure 42
00000
01000
01000
00000
,  // measure 43
00000
00000
00000
00000
00000
00000
01000
00000
00100
00000
00010
00000
,  // measure 44
00001
00000
00000
00000
00000
00000
00001
00000
00010
00000
00100
00000
,  // measure 45
01000
00000
00000
00000
00000
00000
00000
00000
00000
00000
00000
00000
00000
00000
00000
00001
,  // measure 46
00000
00000
00000
00001
00000
00000
00000
00000
00000
00000
00000
00000
01010
00000
00000
00000
,  // measure 47
00000
01000
01000
00000
,  // measure 48
00010
00000
00000
00100
00000
00000
01000
00100
00010
00000
00000
00000
,  // measure 49
00010
00000
00000
00000
00100
00000
00000
00000
01000
00000
00000
00000
00000
00000
00000
00000
00000
00000
00000
00000
00000
00000
00000
00000
00000
00000
00000
00000
00000
00000
00000
00000
00000
01010
00000
00000
00000
00000
00000
00000
00000
00000
00000
00000
00000
00000
00000
00000
,  // measure 50
00000
01010
00000
01010
,  // measure 51
00000
01000
01000
00000
,  // measure 52
00000
00000
00000
00000
00000
00000
01000
00000
00100
00000
00010
00000
,  // measure 53
00001
00000
00000
00000
,  // measure 54
00000
00000
00000
00000
00000
00000
01000
00000
00100
00000
00010
00000
,  // measure 55
00001
00000
00000
00000
,  // measure 56
00100
00100
00000
00000
;
