#TITLE:Oh My Love;
#SUBTITLE:-super euro version-;
#ARTIST:S.E.S.;
#TITLETRANSLIT:;
#SUBTITLETRANSLIT:;
#ARTISTTRANSLIT:;
#GENRE:;
#CREDIT:locuuraa;
#BANNER:Oh My Love -super euro version--bn.png;
#BACKGROUND:Oh My Love -super euro version--bg.png;
#LYRICSPATH:;
#CDTITLE:./CDTitles/Para Para Dancing.png;
#MUSIC:Oh My Love -super euro version-.mp3;
#OFFSET:-0.000;
#SAMPLESTART:60.000;
#SAMPLELENGTH:15.000;
#SELECTABLE:YES;
#BPMS:0.0=150.0;
#STOPS:;
#BGCHANGES:;
#KEYSOUNDS:;
#ATTACKS:;

//---------------para-single - locuuraa----------------
#NOTES:
     para-single:
     Normal:
     Easy:
     2:
     0.000:
// Measure 0
00000
00000
00000
00000
,  // Measure 1
00000
00000
00000
00000
,  // Measure 2
00000
00000
00000
00000
,  // Measure 3
00000
00000
00000
00010
,  // Measure 4
01000
00000
00000
01000
,  // Measure 5
00010
00000
00000
00010
,  // Measure 6
01000
00000
00000
00000
,  // Measure 7
00100
00000
01010
00000
,  // Measure 8
01000
00000
00000
01000
,  // Measure 9
00010
00000
00000
00010
,  // Measure 10
01000
00000
00000
00000
,  // Measure 11
00000
00000
00000
00000
,  // Measure 12
00010
00000
01000
00000
,  // Measure 13
00200
00300
00000
00000
,  // Measure 14
01010
00000
01010
00000
,  // Measure 15
00100
00000
00000
00000
,  // Measure 16
00010
00000
01000
00000
,  // Measure 17
00001
00000
10000
00000
,  // Measure 18
01001
00000
10010
00000
,  // Measure 19
01010
00000
01010
00000
,  // Measure 20
00100
00000
01010
00100
,  // Measure 21
00000
00000
00000
00000
,  // Measure 22
00100
00000
00000
00000
,  // Measure 23
00000
01010
01010
00000
,  // Measure 24
00100
00000
00000
00000
,  // Measure 25
00100
01010
00000
00000
,  // Measure 26
00010
00000
00010
00000
,  // Measure 27
01000
00000
01000
00000
,  // Measure 28
00100
00000
00000
00000
01000
00100
00010
00000
,  // Measure 29
00100
00000
00000
00000
01000
00100
00010
00000
,  // Measure 30
00100
00000
10001
00000
,  // Measure 31
00010
01000
00001
10000
,  // Measure 32
00100
00000
00000
00000
01000
00100
00010
00000
,  // Measure 33
00100
00000
00000
00000
01000
00100
00010
00000
,  // Measure 34
10001
00000
10001
00000
,  // Measure 35
00010
01000
00001
10000
,  // Measure 36
00010
00000
01000
00000
,  // Measure 37
10001
00000
10001
00000
,  // Measure 38
00010
00000
01000
00000
,  // Measure 39
00100
00000
00000
00010
,  // Measure 40
02000
03000
00000
01000
,  // Measure 41
00020
00030
00000
00010
,  // Measure 42
02000
03000
00000
00000
,  // Measure 43
00100
00000
01010
00000
,  // Measure 44
02000
03000
00000
01000
,  // Measure 45
00020
00030
00000
00010
,  // Measure 46
02000
00000
00000
03000
00000
00000
00000
00000
,  // Measure 47
00100
00000
10010
00000
,  // Measure 48
00100
00000
01000
00010
,  // Measure 49
00100
00000
00001
01000
,  // Measure 50
00100
00000
10000
00010
,  // Measure 51
00100
00000
00001
01000
,  // Measure 52
00010
00000
00000
00000
00010
00000
00000
00000
20000
00000
00000
30000
00000
00000
00000
00000
,  // Measure 53
01000
00000
00000
00000
01000
00000
00000
00000
00002
00000
00000
00003
00000
00000
00000
00000
,  // Measure 54
00010
00000
00000
00000
00010
00000
00000
00000
20000
00000
00000
30000
00000
00000
00000
00000
,  // Measure 55
01000
00000
00000
00000
01000
00000
00000
00000
00002
00000
00000
00003
00000
00000
00000
00000
,  // Measure 56
00000
00000
00000
00000
;

//---------------para-single - locuuraa----------------
#NOTES:
     para-single:
     Hard:
     Medium:
     3:
     0.000:
// Measure 0
00000
00000
00000
00000
,  // Measure 1
00000
00000
00000
00000
,  // Measure 2
00000
00000
00000
00000
,  // Measure 3
00001
10000
00010
01000
00100
00000
00010
02000
,  // Measure 4
00000
00000
03000
00000
00000
10000
00100
00020
,  // Measure 5
00000
00000
00030
00000
00000
00001
00100
02000
,  // Measure 6
00000
00000
03100
00020
00000
00000
00000
00000
,  // Measure 7
00030
00000
00100
01000
10000
00001
00100
00010
,  // Measure 8
02000
00000
00000
03000
00000
10000
00100
00020
,  // Measure 9
00000
00000
00030
00000
00000
00001
00100
02000
,  // Measure 10
00000
00000
03100
00020
00000
00000
00000
00000
,  // Measure 11
00000
00000
00030
00000
,  // Measure 12
00100
00000
01010
00000
00100
10010
00000
01001
,  // Measure 13
00000
00000
00000
00000
00000
00100
00010
00001
,  // Measure 14
00000
00100
01000
10000
00100
00010
00001
02000
,  // Measure 15
00000
00000
00000
03000
00000
00100
00010
00001
,  // Measure 16
00000
00100
01000
10000
00000
00001
00010
00100
,  // Measure 17
00000
10000
01000
00100
00000
00100
00010
00001
,  // Measure 18
00000
00100
01000
10000
00000
00001
00010
00100
,  // Measure 19
00000
10000
01000
00100
00010
00001
00100
00000
,  // Measure 20
01010
00000
10001
01010
,  // Measure 21
00000
00000
00000
00000
00000
00100
00010
00001
,  // Measure 22
00000
00100
01000
10000
01000
00100
00010
00001
,  // Measure 23
00000
00000
01010
00000
01010
00100
00010
00001
,  // Measure 24
00000
00000
00100
00000
01000
00100
00010
00001
,  // Measure 25
00000
00010
00100
01000
00000
00000
00000
00000
,  // Measure 26
01010
00001
00001
00001
,  // Measure 27
01010
10000
10000
10000
,  // Measure 28
00000
00010
01000
00010
10000
00001
00100
00000
,  // Measure 29
00000
00100
00001
10000
00010
01000
00010
00000
,  // Measure 30
01010
00000
10001
00000
,  // Measure 31
01000
00100
00010
00000
00010
00100
01000
00000
00001
00000
10000
00000
00100
00000
00000
00000
,  // Measure 32
00000
00010
01000
00010
10000
00001
00100
00000
,  // Measure 33
00000
00100
00001
10000
00010
01000
00010
00000
,  // Measure 34
01010
00000
10001
00000
,  // Measure 35
01000
00100
00010
00000
00010
00100
01000
00000
00001
00000
10000
00000
00100
00000
00000
00000
,  // Measure 36
01010
00000
01010
00000
,  // Measure 37
10001
00000
10001
00000
,  // Measure 38
01010
00000
01010
00000
,  // Measure 39
00100
00000
00000
00000
00000
00001
00100
02000
,  // Measure 40
00000
00000
03000
00000
00000
10000
00100
00020
,  // Measure 41
00000
00000
00030
00000
00000
00001
00100
02000
,  // Measure 42
00000
00000
03100
00020
00000
00000
00000
00000
,  // Measure 43
00030
00000
00100
01000
10000
00001
00010
00100
,  // Measure 44
02000
00000
00000
03000
00000
10000
00100
00020
,  // Measure 45
00000
00000
00030
00000
00000
00001
00100
02000
,  // Measure 46
00000
00000
03100
00020
00000
00000
00000
00000
,  // Measure 47
00000
00000
00030
00000
,  // Measure 48
00100
00000
00100
00000
10000
00100
00010
00001
,  // Measure 49
00100
00000
00100
00000
00001
00100
01000
10000
,  // Measure 50
00100
00000
00100
00000
10000
00100
00010
00001
,  // Measure 51
00100
00000
00100
00000
00001
00100
01000
10000
,  // Measure 52
01000
00000
00010
00000
01000
00000
00010
00000
10000
00000
00200
00000
00000
00300
00000
00000
,  // Measure 53
00010
00000
01000
00000
00010
00000
01000
00000
00001
00000
00200
00000
00000
00300
00000
00000
,  // Measure 54
01000
00000
00010
00000
01000
00000
00010
00000
10000
00000
00200
00000
00000
00300
00000
00000
,  // Measure 55
00010
00000
01000
00000
00010
00000
01000
00000
00001
00000
00200
00000
00000
00300
00000
00000
,  // Measure 56
00000
00000
00000
00000
;

//---------------para-single - locuuraa----------------
#NOTES:
     para-single:
     Expert:
     Hard:
     5:
     0.000:
// Measure 0
00000
00000
00000
00000
,  // Measure 1
00000
00000
00000
00000
,  // Measure 2
00000
00000
00000
00000
,  // Measure 3
00001
00000
10000
00000
00010
00001
01000
10000
00200
00000
00300
00000
00001
00000
02000
00000
,  // Measure 4
00000
00000
00000
00000
03000
00000
00000
00000
00000
00000
10000
01000
00100
00000
00002
00000
,  // Measure 5
00000
00000
00000
00000
00003
00000
00000
00000
00000
00000
00010
00100
01000
00000
20000
00000
,  // Measure 6
00000
00000
00000
00000
30100
00000
00020
00000
00000
00000
00000
00000
00000
00000
00000
00000
,  // Measure 7
00030
00000
00000
00000
00100
00000
10000
00000
00001
00000
01000
00000
00100
00000
00001
00000
,  // Measure 8
20000
00000
00000
00000
00000
00000
30000
00000
00000
00000
01000
00100
00010
00000
00002
00000
,  // Measure 9
00000
00000
00000
00000
00003
00000
00000
00000
00000
00000
00010
00100
01000
00000
20000
00000
,  // Measure 10
00000
00000
00000
00000
30100
00000
00020
00000
00000
00000
00000
00000
00000
00000
00000
00000
,  // Measure 11
00000
00000
00000
00000
00000
00000
00000
00000
00000
00000
00030
00000
00000
00000
00000
00000
,  // Measure 12
00001
00000
00000
00000
10000
00000
00000
00000
00100
00010
00001
00000
00100
01000
10000
00000
,  // Measure 13
00001
00000
00000
00000
10000
00000
00000
00000
00001
00010
00100
00000
10000
01000
00100
00000
,  // Measure 14
00001
00000
00000
00000
10000
00000
00000
00000
00100
00010
00001
00000
00100
01000
10000
00000
,  // Measure 15
00001
00000
10000
00000
00000
00100
10000
00002
,  // Measure 16
00003
00100
00001
20000
30000
00010
01000
00002
,  // Measure 17
00003
00100
00001
20000
30000
00010
01000
00002
,  // Measure 18
00003
00100
00001
20000
30000
00010
01000
00002
,  // Measure 19
00003
01000
00010
10000
00100
00002
00200
00003
,  // Measure 20
10300
00000
00100
00000
00001
00000
00100
00000
,  // Measure 21
01000
10000
00000
00000
00010
00001
00000
00000
01000
10000
00000
00000
00010
00001
00000
00000
,  // Measure 22
10000
00100
00001
00100
,  // Measure 23
01000
10000
00000
00000
00010
00001
00000
00000
01000
10000
00000
00000
00010
00001
00000
00000
,  // Measure 24
10000
00100
00001
00100
,  // Measure 25
01000
10000
00000
00000
00010
00001
00000
00000
01000
10000
00000
00000
00010
00001
00000
00000
,  // Measure 26
20000
30002
02003
03020
,  // Measure 27
10000
00000
00000
00030
00001
00000
00000
00000
01000
10000
00010
00001
01000
10000
00000
00000
,  // Measure 28
00000
00010
01000
00010
10000
00001
00100
00000
,  // Measure 29
00000
00100
00001
10000
00010
01000
00010
00000
,  // Measure 30
02020
03030
20002
30003
,  // Measure 31
10000
01000
00100
00000
00001
00010
00100
00000
10000
00000
00001
00000
00100
00000
00000
00000
,  // Measure 32
00000
00010
01000
00010
10000
00001
00100
00000
,  // Measure 33
00000
00100
00001
10000
00010
01000
00010
00000
,  // Measure 34
02020
03030
20002
30003
,  // Measure 35
10000
01000
00100
00000
00001
00010
00100
00000
10000
00000
00001
00000
00100
00000
00000
00000
,  // Measure 36
20010
01000
00010
31000
,  // Measure 37
01002
00010
01000
00013
,  // Measure 38
20010
01000
00010
31000
,  // Measure 39
01002
00000
00013
00000
00201
00300
00000
02000
,  // Measure 40
00000
00000
00000
00000
00000
03000
00000
00000
00000
00000
10000
01000
00100
00000
00002
00000
,  // Measure 41
00000
00000
00000
00000
00003
00000
00000
00000
00000
00000
00010
00100
01000
00000
20000
00000
,  // Measure 42
00000
00000
00000
00000
30100
00000
00020
00000
00000
00000
00000
00000
00000
00000
00000
00000
,  // Measure 43
00030
00000
00000
00000
00100
00000
10000
00000
00001
00000
01000
00000
00001
00000
00100
00000
,  // Measure 44
02000
00000
00000
00000
00000
00000
03000
00000
00000
00000
10000
01000
00100
00000
00002
00000
,  // Measure 45
00000
00000
00000
00000
00003
00000
00000
00000
00000
00000
00010
00100
01000
00000
20000
00000
,  // Measure 46
00000
00000
00000
00000
30100
00000
00020
00000
00000
00000
00000
00000
00000
00000
00000
00000
,  // Measure 47
00000
00000
00000
00000
00000
00000
00000
00000
00000
00000
00030
00000
00000
00000
00000
00000
,  // Measure 48
00100
00000
00000
00000
00100
00000
00000
00000
10000
01000
00100
00000
00001
00000
00000
00000
,  // Measure 49
00100
00000
00000
00000
00100
00000
00000
00000
00001
00010
00100
00000
10000
00000
00000
00000
,  // Measure 50
00100
00000
00000
00000
00100
00000
00000
00000
10000
01000
00100
00000
00001
00000
00000
00000
,  // Measure 51
00100
00000
00000
00000
00100
00000
00000
00000
00001
00010
00100
00000
10000
00000
00000
00000
,  // Measure 52
01000
00000
00010
00000
10000
00000
00001
00000
10000
00000
00200
00000
00000
00300
00001
00000
,  // Measure 53
00010
00000
01000
00000
00001
00000
10000
00000
00001
00000
00200
00000
00000
00300
10000
00000
,  // Measure 54
01000
00000
00010
00000
10000
00000
00001
00000
10000
00000
00200
00000
00000
00300
10001
00000
,  // Measure 55
00010
00000
01000
00000
00001
00000
10000
00000
00001
00000
00200
00000
00000
00300
00000
00000
,  // Measure 56
00000
00000
00000
00000
;
