#TITLE:Go H.O.T.;
#SUBTITLE:-super euro version-;
#ARTIST:H.O.T.;
#TITLETRANSLIT:;
#SUBTITLETRANSLIT:;
#ARTISTTRANSLIT:;
#GENRE:;
#CREDIT:locuuraa;
#BANNER:GO H.O.T. -super euro version--bn.png;
#BACKGROUND:GO H.O.T. -super euro version--bg.png;
#LYRICSPATH:;
#CDTITLE:./CDTitles/Para Para Dancing.png;
#MUSIC:GO H.O.T. -super euro version-.mp3;
#OFFSET:-0.000;
#SAMPLESTART:52.000;
#SAMPLELENGTH:15.000;
#SELECTABLE:YES;
#BPMS:0.0=150.0;
#STOPS:;
#BGCHANGES:;
#KEYSOUNDS:;
#ATTACKS:;

//---------------para-single - locuuraa----------------
#NOTES:
     para-single:
     Normal:
     Easy:
     3:
     0.000:
// Measure 0
00000
00000
00000
00000
,  // Measure 1
00000
00000
00000
00000
,  // Measure 2
00000
00000
00000
00000
,  // Measure 3
00000
00000
00000
00000
,  // Measure 4
00000
00000
00010
00000
02000
00000
03000
00100
,  // Measure 5
00010
00000
00000
00000
,  // Measure 6
00000
00000
00000
00000
,  // Measure 7
00000
00000
00010
00000
02000
00000
03000
00100
,  // Measure 8
00010
00000
00000
00000
00000
00000
00000
01000
,  // Measure 9
00010
00100
00000
00000
00000
00000
00000
01000
,  // Measure 10
00010
00100
00000
00000
00000
00000
00000
01000
,  // Measure 11
00010
00100
00000
00000
00000
00000
00000
00000
,  // Measure 12
01010
00000
00000
00000
00000
00000
00000
00010
,  // Measure 13
01000
00100
00000
00000
00000
00000
00000
00010
,  // Measure 14
01000
00100
00000
00000
00000
00000
00000
00010
,  // Measure 15
01000
00100
00000
00000
00000
00000
00000
00000
,  // Measure 16
01010
00000
00000
00000
,  // Measure 17
00010
00010
01000
01000
,  // Measure 18
00100
00000
01010
00000
,  // Measure 19
00010
00010
01000
01000
,  // Measure 20
00100
00000
01010
00000
,  // Measure 21
20000
00000
01000
00000
00010
30000
00100
00000
,  // Measure 22
00002
00000
00010
00000
01000
00003
00100
00000
,  // Measure 23
10001
00000
01010
00000
,  // Measure 24
10001
00000
01010
00000
,  // Measure 25
00020
00000
00000
00000
00000
00000
00030
01000
,  // Measure 26
00000
00000
00000
00000
,  // Measure 27
00020
00000
00000
00000
00000
00000
00030
01000
,  // Measure 28
00000
00000
00000
00000
,  // Measure 29
00010
00010
01000
01000
,  // Measure 30
00100
00000
01010
00000
,  // Measure 31
00010
00010
01000
01000
,  // Measure 32
00100
00000
01010
00000
,  // Measure 33
00200
00000
00300
00000
,  // Measure 34
00020
00000
00030
00000
,  // Measure 35
02000
00000
03000
00000
,  // Measure 36
00010
01000
00010
01000
,  // Measure 37
00200
00000
00300
00000
,  // Measure 38
02000
00000
03000
00000
,  // Measure 39
00020
00000
00030
00000
,  // Measure 40
01000
00010
01000
00010
,  // Measure 41
01000
00100
00010
00001
00000
10000
00000
00000
,  // Measure 42
00200
00000
00300
00001
00000
10000
00000
00000
,  // Measure 43
01000
00100
00010
00001
00000
10000
00000
00000
,  // Measure 44
00100
00100
01000
00010
,  // Measure 45
01000
00100
00010
00001
00000
10000
00000
00000
,  // Measure 46
00200
00000
00300
00001
00000
10000
00000
00000
,  // Measure 47
01000
00100
00010
00001
00000
10000
00000
00000
,  // Measure 48
00100
00100
00010
01000
,  // Measure 49
00001
10000
00010
01000
,  // Measure 50
00200
00300
01010
01010
,  // Measure 51
00001
10000
00010
01000
,  // Measure 52
00000
00000
00010
00000
02000
00000
03000
00100
,  // Measure 53
00001
10000
00010
01000
,  // Measure 54
00200
00300
01010
01010
,  // Measure 55
00001
10000
00010
01000
,  // Measure 56
00200
00300
01010
01010
,  // Measure 57
00000
00000
00000
00000
;

//---------------para-single - locuuraa----------------
#NOTES:
     para-single:
     Hard:
     Medium:
     5:
     0.000:
// Measure 0
00000
00000
00000
00000
,  // Measure 1
00000
00000
00000
00000
,  // Measure 2
00000
00000
00000
00000
,  // Measure 3
00000
00000
00000
00000
,  // Measure 4
00000
00000
00010
00000
02000
00000
03000
00100
,  // Measure 5
00010
00000
00000
00000
,  // Measure 6
00000
00000
00000
00000
,  // Measure 7
00000
00000
00010
00000
02000
00000
03000
00100
,  // Measure 8
00010
00000
00000
00000
00000
00000
00000
00100
,  // Measure 9
00001
00010
00000
00100
00001
00010
00000
01000
,  // Measure 10
00010
00100
00000
01000
00010
00100
00000
10000
,  // Measure 11
00100
01000
00000
10000
00100
01000
00000
00000
,  // Measure 12
01000
00000
00100
00000
00010
00000
00000
00100
,  // Measure 13
10000
01000
00000
00100
10000
01000
00000
00010
,  // Measure 14
01000
00100
00000
00010
01000
00100
00000
00001
,  // Measure 15
00100
00010
00000
00001
00100
00010
00000
00000
,  // Measure 16
00010
00100
01000
00000
,  // Measure 17
00010
00010
01000
01000
,  // Measure 18
01010
00000
01010
00000
,  // Measure 19
00010
00010
01000
01000
,  // Measure 20
01010
00000
01010
00000
,  // Measure 21
20000
00000
01000
00100
00010
30001
00100
00000
,  // Measure 22
00002
00000
00010
00100
01000
10003
00100
00000
,  // Measure 23
10001
01010
01010
00100
,  // Measure 24
10001
01010
01010
00000
,  // Measure 25
00020
00000
00000
00000
00000
00000
00030
01000
,  // Measure 26
00010
01000
10000
00010
00001
01000
10000
00000
,  // Measure 27
00020
00000
00000
00000
00000
00000
00030
01000
,  // Measure 28
00010
01000
10000
00010
00001
01000
10000
00000
,  // Measure 29
00010
00010
01000
01000
,  // Measure 30
01010
00000
01010
00000
,  // Measure 31
00010
00010
01000
01000
,  // Measure 32
01010
00000
01010
00000
,  // Measure 33
10020
00000
01000
00130
,  // Measure 34
02001
00000
00010
03100
,  // Measure 35
02020
00000
00000
00000
00000
00000
00000
00000
00000
03030
00000
00000
00100
00000
00000
00000
,  // Measure 36
00010
01000
00010
01000
,  // Measure 37
10020
00000
01000
00130
,  // Measure 38
02001
00000
00010
03100
,  // Measure 39
02020
00000
00000
00000
00000
00000
00000
00000
00000
03030
00000
00000
00100
00000
00000
00000
,  // Measure 40
00010
01000
00010
01000
,  // Measure 41
01000
00100
00010
00001
00000
20000
00000
30000
,  // Measure 42
00200
00000
00300
00001
00000
20000
00000
30000
,  // Measure 43
01000
00100
00010
00001
00000
20000
00000
30000
,  // Measure 44
00010
00001
01000
10000
00010
00100
01000
00000
,  // Measure 45
01000
00100
00010
00001
00000
20000
00000
30000
,  // Measure 46
00200
00000
00300
00001
00000
20000
00000
30000
,  // Measure 47
01000
00100
00010
00001
00000
20000
00000
30000
,  // Measure 48
00010
00001
01000
10000
00010
00100
01000
00000
,  // Measure 49
01000
00000
00010
00000
01000
10000
00000
00001
00000
00100
01000
00000
00010
00000
00100
00000
,  // Measure 50
01000
00000
00010
00000
01000
10000
00000
00001
00000
00100
01000
00000
00010
00000
00100
00000
,  // Measure 51
01000
00000
00010
00000
01000
10000
00000
00001
00000
00100
01000
00000
00010
00000
00100
00000
,  // Measure 52
00000
00000
00010
00000
02000
00000
03000
00100
,  // Measure 53
00010
00000
01000
00000
00010
00001
00000
10000
00000
00100
00010
00000
01000
00000
00100
00000
,  // Measure 54
00010
00000
01000
00000
00010
00001
00000
10000
00000
00100
00010
00000
01000
00000
00100
00000
,  // Measure 55
00010
00000
01000
00000
00010
00001
00000
10000
00000
00100
00010
00000
01000
00000
00100
00000
,  // Measure 56
00010
00000
01000
00000
00010
00001
00000
10000
00000
00100
00010
00000
01000
00000
00100
00000
,  // Measure 57
00000
00000
00000
00000
;

//---------------para-single - locuuraa----------------
#NOTES:
     para-single:
     Expert:
     Hard:
     6:
     0.000:
// Measure 0
00000
00000
00000
00000
,  // Measure 1
00000
00000
00000
00000
,  // Measure 2
00000
00000
00000
00000
,  // Measure 3
00000
00000
00000
00000
,  // Measure 4
00000
00000
00010
00000
02000
00000
03000
00100
,  // Measure 5
00010
00000
00000
00000
,  // Measure 6
00000
00000
00000
00000
,  // Measure 7
00000
00000
00010
00000
02000
00000
03000
00100
,  // Measure 8
00010
00000
00000
00000
00000
00000
00000
00100
,  // Measure 9
00001
00010
00000
00100
00001
00010
00000
01000
,  // Measure 10
00010
00100
00000
01000
00010
00100
00000
10000
,  // Measure 11
00100
01000
00000
10000
00100
01000
00000
00000
,  // Measure 12
01000
00100
00010
00000
01000
00100
00010
00000
01000
00100
00010
00000
00000
00000
00000
00000
,  // Measure 13
10000
01000
00000
00100
10000
01000
00000
00010
,  // Measure 14
01000
00100
00000
00010
01000
00100
00000
00001
,  // Measure 15
00100
00010
00000
00001
00100
00010
00000
00000
,  // Measure 16
00010
00100
01000
00000
00010
00100
01000
00000
00010
00100
01000
00000
00000
00000
00000
00000
,  // Measure 17
00010
10000
00010
00000
00001
00100
10000
00000
,  // Measure 18
01000
00001
01000
00000
10000
00100
00001
00000
,  // Measure 19
00010
10000
00010
00000
00001
00100
10000
00000
,  // Measure 20
00001
10000
00010
01000
00010
10000
00001
01000
,  // Measure 21
20000
00000
01000
00100
00010
00001
00100
00000
,  // Measure 22
30002
00000
00010
00100
01000
10000
00100
00000
,  // Measure 23
00100
01003
10000
00000
00100
00010
00001
00000
10000
00000
00001
00000
10000
01000
00100
00010
,  // Measure 24
10001
00000
00000
01010
00000
00000
01010
00000
00000
00000
01000
00000
00010
00000
01000
00000
,  // Measure 25
00012
00100
01000
10000
01000
00100
00013
00100
,  // Measure 26
00000
01000
10000
00010
00001
01000
10000
00000
,  // Measure 27
00012
00100
01000
10000
01000
00100
00013
00100
,  // Measure 28
00000
01000
10000
00010
00001
01000
10000
00000
,  // Measure 29
00010
10000
00010
00000
00001
00100
10000
00000
,  // Measure 30
01000
00001
01000
00000
10000
00100
00001
00000
,  // Measure 31
00010
10000
00010
00000
00001
00100
10000
00000
,  // Measure 32
00001
10000
00010
01000
00010
10000
00001
01000
,  // Measure 33
10020
00000
01000
00130
,  // Measure 34
02001
00000
00010
03100
,  // Measure 35
01000
00100
00010
00002
00010
00100
01000
20000
00000
00000
00000
00000
30003
00000
00000
00000
,  // Measure 36
00010
00100
00010
00100
01001
00100
01001
00000
,  // Measure 37
10020
00000
01000
00130
,  // Measure 38
02001
00000
00010
03100
,  // Measure 39
01000
00100
00010
00002
00010
00100
01000
20000
00000
00000
00000
00000
30003
00000
00000
00000
,  // Measure 40
00010
00100
00010
00100
01001
00100
01001
00000
,  // Measure 41
01000
00000
00100
00000
00010
00000
00002
00000
00000
00003
20010
00100
01000
00000
30000
00000
,  // Measure 42
00200
00000
00300
00001
00000
20000
00000
30000
,  // Measure 43
01000
00000
00100
00000
00010
00000
00002
00000
00000
00003
20010
00100
01000
00000
30000
00000
,  // Measure 44
00001
00010
10000
01000
10010
00100
01001
00010
,  // Measure 45
01000
00000
00100
00000
00010
00000
00002
00000
00000
00003
20010
00100
01000
00000
30000
00000
,  // Measure 46
00200
00000
00300
00001
00000
20000
00000
30000
,  // Measure 47
01000
00000
00100
00000
00010
00000
00002
00000
00000
00003
20010
00100
01000
00000
30000
00000
,  // Measure 48
00001
00010
10000
01000
10010
00100
01001
00010
,  // Measure 49
01000
00000
00010
00000
01000
10000
00000
00001
00000
00100
01000
00000
00010
00000
00100
00000
,  // Measure 50
01000
00000
00010
00000
01000
10000
00000
00001
00000
00100
01000
00000
00010
00000
00100
00000
,  // Measure 51
01000
00000
00010
00000
01000
10000
00000
00001
00000
00100
01000
00000
00010
00000
00100
00000
,  // Measure 52
00000
00000
00010
00000
02000
00000
03000
00100
,  // Measure 53
00010
00000
01000
00000
00010
00001
00000
10000
00000
00100
00010
00000
01000
00000
00100
00000
,  // Measure 54
00010
00000
01000
00000
00010
00001
00000
10000
00000
00100
00010
00000
01000
00000
00100
00000
,  // Measure 55
00010
00000
01000
00000
00010
00001
00000
10000
00000
00100
00010
00000
01000
00000
00100
00000
,  // Measure 56
00010
00000
01000
00000
00010
00001
00000
10000
00000
00100
00010
00000
01000
00000
00100
00000
,  // Measure 57
00000
00000
00000
00000
;
