#VERSION:0.83;
#TITLE:weathergirl ft. Eleanor Forte;
#SUBTITLE:;
#ARTIST:FLAVOR FOLEY;
#TITLETRANSLIT:;
#SUBTITLETRANSLIT:;
#ARTISTTRANSLIT:;
#GENRE:;
#CREDIT:;
#MUSIC:weathergirl Eleanor Forte.ogg;
#BANNER:banner.png;
#BACKGROUND:background.png;
#JACKET:jacket.png;
#DISCIMAGE:;
#CDIMAGE:;
#SELECTABLE:YES;
#LYRICSPATH:;
#CDTITLE:cdtitle.png;
#SAMPLESTART:34.110;
#SAMPLELENGTH:19.889;
#OFFSET:-0.027;
#BPMS:0.000000=169.000000;
#STOPS:;
#WARPS:;
#DELAYS:;
#SPEEDS:;
#SCROLLS:;
#TICKCOUNTS:;
#TIMESIGNATURES:;
#LABELS:;
#COMBOS:;
#FAKES:;
#BGCHANGES:;
#FGCHANGES:;
#ATTACKS:;

//---------------dance-single - ---------------
#NOTEDATA:;
#CHARTNAME:;
#CHARTSTYLE:;
#CREDIT:Pandemonium X;
#STEPSTYPE:dance-single;
#DESCRIPTION:;
#DIFFICULTY:Hard;
#METER:12;
#METERF:12;
#RADARVALUES:0,0,0,0,0;
#NOTES:
// measure 0
0000
0000
0000
0000
,  // measure 1
0000
0000
0000
0000
,  // measure 2
0000
0000
0000
0000
,  // measure 3
0000
0000
0000
0000
,  // measure 4
0000
0000
0000
0000
,  // measure 5
0000
0000
0000
0000
,  // measure 6
0000
0000
0000
0000
,  // measure 7
0001
0000
1000
0000
,  // measure 8
0010
0000
0000
0010
0100
0000
0000
0100
,  // measure 9
0010
1000
0001
0000
0010
0100
1000
0001
,  // measure 10
1000
0000
0001
0010
0000
001M
1000
0000
,  // measure 11
1000
0010
0000
M010
0001
1000
0001
0000
,  // measure 12
1000
0000
0000
0001
0100
0000
0000
0010
,  // measure 13
0001
0010
1000
0000
0010
0100
0010
1000
,  // measure 14
0001
0000
1000
0100
0000
M100
0001
0000
,  // measure 15
0001
0100
0000
010M
1000
0000
0001
0000
,  // measure 16
0200
0000
0000
0000
,  // measure 17
0000
0000
0320
0000
,  // measure 18
2030
0000
0000
0000
,  // measure 19
0002
0000
0000
0000
,  // measure 20
00M0
3M00
0000
00M3
0000
0000
0000
1000
,  // measure 21
0100
1000
0000
0001
0000
0000
2000
0000
,  // measure 22
3002
0000
0000
0000
,  // measure 23
0013
0000
0100
0000
0010
0000
0100
0000
0010
0000
0000
0000
0001
1000
0001
0000
,  // measure 24
1000
0100
0010
0200
0000
0302
0000
0203
,  // measure 25
0000
2300
0000
3002
0000
0103
0001
1000
,  // measure 26
0001
0200
0000
2300
0000
3200
0000
0302
,  // measure 27
0000
0000
0000
0023
0000
0130
0010
0001
,  // measure 28
0010
2000
0000
3020
0000
0032
0000
2003
,  // measure 29
0000
3020
0000
0031
0020
0000
2030
0000
,  // measure 30
3002
0000
1003
0200
0000
0320
0000
0032
,  // measure 31
0000
0000
0000
0040
0000
0000
0030
0000
,  // measure 32
1003
0002
0000
0203
0000
0310
0000
1000
,  // measure 33
0000
0001
0000
0001
0000
2000
0000
3001
,  // measure 34
0100
0002
0000
2003
0000
3002
0000
2003
,  // measure 35
0000
0000
0000
3001
0100
0001
0100
0010
,  // measure 36
1000
0000
0001
0000
0001
0000
1000
0000
0001
0000
0001
0000
1000
0000
0001
1000
,  // measure 37
0M01
00M0
0000
0M00
0000
0M00
00M0
0000
,  // measure 38
1010
0000
0010
0100
0000
0100
0010
0000
,  // measure 39
1001
0000
0001
0100
0002
0000
1003
0100
,  // measure 40
1000
0002
0000
0203
0000
0302
0000
2003
,  // measure 41
3100
1000
0001
1000
0000
0001
1000
0001
,  // measure 42
1000
0000
0100
0020
0000
0130
2000
0000
,  // measure 43
3002
0000
0103
0001
2000
0000
3200
0000
,  // measure 44
0310
0200
0000
2000
0300
0000
0000
0000
,  // measure 45
3001
0100
1000
0100
0000
0010
0000
1000
,  // measure 46
0001
0000
1000
0200
0000
1300
0001
0000
,  // measure 47
0200
0000
0310
1000
0002
0000
0013
0100
,  // measure 48
2000
0000
3001
0200
0000
0000
0300
0010
,  // measure 49
1000
0020
0000
2030
0000
0002
0000
3003
,  // measure 50
0022
0033
2200
3300
,  // measure 51
2020
0000
3030
0202
0000
0300
2000
0000
,  // measure 52
3003
0022
0000
0033
,  // measure 53
2002
3003
0220
0330
,  // measure 54
2001
0000
0000
3001
0102
0000
0000
1003
,  // measure 55
0100
0010
0021
0000
0031
1000
0010
1000
,  // measure 56
0001
0000
1000
0100
0000
M100
0001
0000
,  // measure 57
0001
0100
0000
010M
1000
0000
1001
0000
,  // measure 58
0201
0000
0000
0301
2001
0000
0000
3001
,  // measure 59
0100
0010
1020
0000
1030
0001
1000
0001
,  // measure 60
1000
0000
0001
0010
0000
001M
1000
0000
,  // measure 61
1000
0010
0000
M010
0001
0000
1001
0000
,  // measure 62
1020
0000
0000
0000
,  // measure 63
0000
0030
2000
3000
,  // measure 64
0002
0000
0000
0000
,  // measure 65
2000
0000
0000
0000
,  // measure 66
30M3
0M00
0000
00M0
0000
0000
0000
0001
,  // measure 67
2000
0000
3001
0020
0000
0000
0230
0000
,  // measure 68
2300
0000
0000
0000
0000
0000
3001
0010
0001
0000
1000
0000
0010
0000
0100
0000
,  // measure 69
0004
4000
0000
0000
0000
0000
0000
0000
0000
0000
0000
0000
3003
0000
0000
0000
,  // measure 70
0001
0010
0100
0020
0000
0032
0000
0203
,  // measure 71
0000
2300
0000
3200
0000
0310
0001
0010
,  // measure 72
1000
0002
0000
0023
0000
0032
0000
2000
,  // measure 73
0000
0000
3003
0002
0000
0103
1000
0100
,  // measure 74
0001
2000
0000
3200
0000
0302
0000
0203
,  // measure 75
0000
0320
0000
1030
0020
0000
0032
0000
,  // measure 76
0203
0000
1300
0200
0000
0302
0000
2000
,  // measure 77
0003
0000
0000
0400
0000
0000
0300
0000
,  // measure 78
3001
2000
0000
3100
0000
1100
0000
0011
,  // measure 79
0000
0101
0000
1010
0000
1001
0000
1000
,  // measure 80
0001
0200
0000
0302
0000
2003
0000
3200
,  // measure 81
0000
0000
0300
0010
1000
0010
0001
1000
,  // measure 82
0001
0001
1000
0001
0001
1000
0001
0001
,  // measure 83
4000
0004
0000
0000
0000
0000
0000
0000
0000
0000
0000
0000
3003
0000
0000
0000
,  // measure 84
1100
0000
0000
0001
0101
0000
0000
0001
,  // measure 85
1000
0100
1100
0000
1000
0001
0010
0100
,  // measure 86
1000
0000
0001
0100
0000
0100
1000
0000
,  // measure 87
1000
0010
0000
0010
0001
0000
1001
0000
,  // measure 88
1001
0000
0000
1000
1010
0000
0000
1000
,  // measure 89
0001
0010
0011
0000
0001
1000
0100
1000
,  // measure 90
0001
0000
1000
0010
0000
0010
0001
0000
,  // measure 91
0001
0100
0000
0100
1000
0000
1001
0000
,  // measure 92
0001
1000
0010
1000
0001
0010
0100
0000
,  // measure 93
0010
0001
1000
0010
1000
0001
0010
0000
,  // measure 94
0100
0010
0001
1000
0010
0100
0001
0000
,  // measure 95
1000
0001
0001
1000
0001
0001
1000
0001
,  // measure 96
0220
0000
0000
0000
,  // measure 97
0000
0000
0000
0000
,  // measure 98
0330
0000
0000
0000
;

//---------------dance-single - ---------------
#NOTEDATA:;
#CHARTNAME:;
#CHARTSTYLE:;
#CREDIT:Pandemonium X;
#STEPSTYPE:dance-single;
#DESCRIPTION:;
#DIFFICULTY:Medium;
#METER:10;
#METERF:10;
#RADARVALUES:0,0,0,0,0;
#NOTES:
// measure 0
0000
0000
0000
0000
,  // measure 1
0000
0000
0000
0000
,  // measure 2
0000
0000
0000
0000
,  // measure 3
0000
0000
0000
0000
,  // measure 4
0000
0000
0000
0000
,  // measure 5
0000
0000
0000
0000
,  // measure 6
0000
0000
0000
0000
,  // measure 7
0001
0000
1000
0000
,  // measure 8
0010
0000
0000
0100
0001
0000
0000
0100
,  // measure 9
0001
1000
0001
0000
1000
0000
0100
0000
,  // measure 10
0011
0000
0001
0100
0000
0100
0001
0000
,  // measure 11
0001
1000
0000
1000
0100
0000
0010
0000
,  // measure 12
0110
0000
0000
0100
1000
0000
0000
0100
,  // measure 13
1000
0001
1000
0000
0001
0000
0100
0000
,  // measure 14
1010
0000
0010
0100
0000
0100
0001
0000
,  // measure 15
0001
1000
0000
1000
0100
0000
0010
0000
,  // measure 16
0002
0000
0000
0000
,  // measure 17
0000
0000
2003
0000
,  // measure 18
3020
0000
0000
0000
,  // measure 19
0200
0000
0000
0000
,  // measure 20
0000
0030
0000
0300
0000
0000
0000
0010
,  // measure 21
1000
0001
0000
1000
0000
0000
0100
0000
,  // measure 22
0020
0000
0002
0030
,  // measure 23
0103
0000
0100
0000
0010
0000
0010
0000
1001
0000
0000
0000
0001
1000
0001
0000
,  // measure 24
1000
0100
1000
0001
0000
1000
0000
0010
,  // measure 25
0000
1000
0000
0010
0000
0100
0001
0000
,  // measure 26
0010
0100
0000
0010
0000
0001
0000
1001
,  // measure 27
0000
0000
0000
2000
0000
3100
0010
0100
,  // measure 28
1000
0001
0000
0100
0000
0001
0000
1000
,  // measure 29
0000
0100
0000
0010
0100
0000
1000
0000
,  // measure 30
0010
0000
0100
0001
0000
0010
0000
0002
,  // measure 31
0000
0000
0000
2000
0000
0000
3000
0000
,  // measure 32
1003
0100
0000
1000
0000
0010
0000
0100
,  // measure 33
0000
0001
0000
0010
0000
0100
0000
0010
,  // measure 34
0001
0010
0000
0001
0000
1000
0000
0020
,  // measure 35
0000
0000
0030
0100
0010
0000
1000
0000
,  // measure 36
0001
0100
0001
0100
0001
0100
0001
0100
,  // measure 37
0020
0000
0000
0030
,  // measure 38
0101
0000
0001
1000
0000
1000
0100
0000
,  // measure 39
0110
0000
0000
0010
0001
0000
0000
0010
,  // measure 40
0100
0010
0000
0001
0000
0100
0000
0020
,  // measure 41
0000
0000
0030
0000
,  // measure 42
0000
0000
0100
0010
0000
0100
0001
0000
,  // measure 43
2000
0000
0000
3001
0010
0000
0100
0000
,  // measure 44
0010
0100
0000
2000
0000
0000
0000
0000
,  // measure 45
3001
0100
0001
1000
0000
0100
0000
0010
,  // measure 46
0000
0000
0100
1000
0000
0100
0010
0000
,  // measure 47
0001
0000
0000
0001
0100
0000
0000
0100
,  // measure 48
0010
0000
0100
0001
0000
0000
0000
0100
,  // measure 49
0001
1000
0000
0001
0000
1000
0000
0000
,  // measure 50
0002
0000
0023
0000
,  // measure 51
0230
0000
0000
2300
0000
0000
3002
0000
,  // measure 52
0000
0203
0000
0300
,  // measure 53
1010
0000
0101
0000
,  // measure 54
1001
0000
0000
0001
0100
0000
0000
0001
,  // measure 55
1000
0010
0100
0000
0001
0010
0001
1000
,  // measure 56
0100
0000
0010
0100
0000
0100
1000
0000
,  // measure 57
1000
0001
0000
0001
0100
0000
0010
0000
,  // measure 58
1010
0000
0000
1000
0100
0000
0000
0010
,  // measure 59
0001
1000
0001
0000
0010
0001
0100
0010
,  // measure 60
0100
0000
0100
0010
0000
0010
0100
0000
,  // measure 61
0100
0001
0000
0001
1000
0000
0100
0000
,  // measure 62
0020
0000
0000
0000
,  // measure 63
0000
0000
0230
0000
,  // measure 64
2300
0000
0000
0000
,  // measure 65
0002
0000
0000
0000
,  // measure 66
0000
3000
0000
0003
0000
0000
0000
0100
,  // measure 67
0001
0000
0001
1000
0000
0000
0100
0000
,  // measure 68
0020
0000
0000
0000
,  // measure 69
0002
0000
0000
0033
,  // measure 70
0001
0100
0001
1000
0000
0001
0000
0100
,  // measure 71
0000
0001
0000
1000
0000
0100
0010
0100
,  // measure 72
1000
0001
0000
0100
0000
0001
0000
0020
,  // measure 73
0000
0000
0030
0100
0000
0010
0100
0010
,  // measure 74
0001
1000
0000
0001
0000
0100
0000
0001
,  // measure 75
0000
1000
0000
0100
0010
0000
0100
0000
,  // measure 76
1000
0000
0001
0100
0000
0001
0000
2000
,  // measure 77
0000
0000
0000
0002
0000
0000
0003
0000
,  // measure 78
3001
0100
0000
0001
0000
0010
0000
1000
,  // measure 79
0000
0010
0000
0001
0000
0100
0000
1000
,  // measure 80
0100
0001
0000
1000
0000
0001
0000
0200
,  // measure 81
0000
0000
0300
0010
0100
0000
0001
0000
,  // measure 82
1000
1000
0001
0001
1000
1000
0001
0001
,  // measure 83
0200
0000
0000
0300
,  // measure 84
0110
0000
0000
0100
0010
0000
0000
0010
,  // measure 85
0100
0001
1000
0000
0001
0010
0100
1000
,  // measure 86
0001
0000
0001
1000
0000
1000
0010
0000
,  // measure 87
0010
1000
0000
1000
0001
0000
1000
0000
,  // measure 88
1001
0000
0000
0001
0100
0000
0000
0001
,  // measure 89
1000
0010
1000
0000
0010
0100
0001
1000
,  // measure 90
0001
0000
0001
0100
0000
0100
0010
0000
,  // measure 91
0010
1000
0000
1000
0001
0000
1000
0000
,  // measure 92
0200
0010
0000
0010
,  // measure 93
0000
0310
0002
0000
,  // measure 94
0203
0010
0000
0010
,  // measure 95
0310
0100
0010
0100
0010
0100
0010
0100
,  // measure 96
0002
0000
0000
0000
,  // measure 97
0000
0000
0000
0000
,  // measure 98
0003
0000
0000
0000
;

//---------------dance-single - ---------------
#NOTEDATA:;
#CHARTNAME:;
#CHARTSTYLE:;
#CREDIT:Pandemonium X;
#STEPSTYPE:dance-single;
#DESCRIPTION:;
#DIFFICULTY:Easy;
#METER:7;
#METERF:7;
#RADARVALUES:0,0,0,0,0;
#NOTES:
// measure 0
0000
0000
0000
0000
,  // measure 1
0000
0000
0000
0000
,  // measure 2
0000
0000
0000
0000
,  // measure 3
0000
0000
0000
0000
,  // measure 4
0000
0000
0000
0000
,  // measure 5
0000
0000
0000
0000
,  // measure 6
0000
0000
0000
0000
,  // measure 7
0000
0000
0000
0000
,  // measure 8
0001
0000
0001
0000
,  // measure 9
0001
0001
0000
0000
,  // measure 10
1000
0000
1000
0000
,  // measure 11
1000
0000
1000
1000
,  // measure 12
0010
0000
0010
0000
,  // measure 13
0010
0010
0000
0000
,  // measure 14
0100
0000
0100
0000
,  // measure 15
0100
0000
0100
0010
,  // measure 16
2000
0000
0000
0000
,  // measure 17
0000
3000
0001
0000
,  // measure 18
0200
0000
0000
0000
,  // measure 19
0020
0000
0000
0000
,  // measure 20
0000
0000
0000
0330
0000
0000
0000
0000
,  // measure 21
0100
0000
0010
0000
,  // measure 22
2000
0000
0000
0000
,  // measure 23
0002
0000
0000
3003
,  // measure 24
1000
0000
0000
0001
0000
0000
0000
0100
,  // measure 25
0000
0000
0000
0001
0000
0000
0000
0000
,  // measure 26
0010
0000
0000
0100
0000
0100
0000
0100
,  // measure 27
0000
0000
0000
1000
0000
0000
0001
0000
,  // measure 28
1000
0000
0000
0010
0000
0000
0000
1000
,  // measure 29
0000
1000
0000
0000
0001
0000
0000
0000
,  // measure 30
0010
0000
0000
0001
0000
1000
0000
0001
,  // measure 31
0000
0000
0000
0200
0000
0000
0300
0000
,  // measure 32
0010
0000
0000
1000
0000
0000
0000
0001
,  // measure 33
0000
0000
0000
0010
0000
0000
0000
0000
,  // measure 34
0100
0000
0000
0010
0000
0010
0000
0010
,  // measure 35
0000
0000
0001
1000
,  // measure 36
0010
0000
0000
1000
0000
0000
0001
0000
,  // measure 37
0100
0000
0000
0000
,  // measure 38
0010
0000
0000
0000
,  // measure 39
0100
0000
0001
0000
,  // measure 40
1000
0000
0001
0000
,  // measure 41
0010
0000
0000
0000
,  // measure 42
0100
0000
0000
0000
,  // measure 43
1000
0000
0001
0000
,  // measure 44
0100
0001
0100
0000
,  // measure 45
0020
0000
0000
0030
,  // measure 46
0100
0000
0001
0000
,  // measure 47
1000
0000
0001
0000
,  // measure 48
1000
0000
0000
0100
0000
0000
0000
0000
,  // measure 49
1000
0000
0000
0001
0000
0001
0000
0000
,  // measure 50
0100
0000
0010
0000
,  // measure 51
1000
0000
0000
0001
0000
0000
1000
0000
,  // measure 52
0000
0100
0000
0000
,  // measure 53
0110
0000
1001
0000
,  // measure 54
0101
0000
0001
0000
,  // measure 55
1000
1000
0001
0100
,  // measure 56
0010
0000
0000
0010
0000
0000
0100
0000
,  // measure 57
0000
0100
0000
0000
0001
0000
1000
0000
,  // measure 58
1001
0000
1000
0000
,  // measure 59
0100
0100
0010
0001
,  // measure 60
1000
0000
0000
1000
0000
0000
0001
0000
,  // measure 61
0000
0001
0000
0000
0100
0000
0010
0000
,  // measure 62
2000
0000
0000
0000
,  // measure 63
0000
3000
0010
0000
,  // measure 64
0200
0000
0000
0300
,  // measure 65
0002
0000
0000
0000
,  // measure 66
0000
0000
0000
0003
0000
0000
0000
0000
,  // measure 67
1000
0000
0001
0000
,  // measure 68
0200
0000
0000
0000
,  // measure 69
0020
0000
0000
0330
,  // measure 70
1000
0000
0000
0001
0000
0000
0000
0010
,  // measure 71
0000
0010
0000
0010
0000
0000
0000
0000
,  // measure 72
0100
0000
0000
1000
0000
1000
0000
1000
,  // measure 73
0000
0000
0000
0001
0000
0000
1000
0000
,  // measure 74
0010
0000
0000
0100
0000
0100
0000
0010
,  // measure 75
0000
0010
0000
0000
0100
0000
0001
0000
,  // measure 76
1000
0000
0000
0001
0000
0001
0000
0001
,  // measure 77
0000
0000
0000
2000
0000
0000
3000
0000
,  // measure 78
0100
0000
0000
0010
0000
0100
0000
0010
,  // measure 79
0000
0001
0000
0100
0000
0010
0000
0000
,  // measure 80
1000
0000
0000
0010
0000
0010
0000
0100
,  // measure 81
0000
0000
0010
0100
,  // measure 82
0001
0000
0000
1000
0000
0000
0001
0000
,  // measure 83
2001
0000
0000
3000
,  // measure 84
1000
0000
1000
0000
,  // measure 85
1000
1000
0001
0100
,  // measure 86
0010
0000
0000
0010
0000
0000
0100
0000
,  // measure 87
0000
0100
0000
0000
0001
0000
1000
0000
,  // measure 88
0001
0000
0001
0000
,  // measure 89
0001
0001
0010
0001
,  // measure 90
0100
0000
0000
0001
0000
0000
1000
0000
,  // measure 91
0000
0100
0000
0000
0010
0000
0100
0000
,  // measure 92
2000
0000
0000
0000
,  // measure 93
0000
3000
0001
0000
,  // measure 94
0200
0000
0000
0000
,  // measure 95
0020
0000
0000
0330
,  // measure 96
2002
0000
0000
0000
,  // measure 97
0000
0000
0000
0000
,  // measure 98
3003
0000
0000
0000
;

//---------------dance-single - ---------------
#NOTEDATA:;
#CHARTNAME:;
#CHARTSTYLE:;
#CREDIT:Pandemonium X;
#STEPSTYPE:dance-single;
#DESCRIPTION:;
#DIFFICULTY:Beginner;
#METER:3;
#METERF:3;
#RADARVALUES:0,0,0,0,0;
#NOTES:
// measure 0
0000
0000
0000
0000
,  // measure 1
0000
0000
0000
0000
,  // measure 2
0000
0000
0000
0000
,  // measure 3
0000
0000
0000
0000
,  // measure 4
0000
0000
0000
0000
,  // measure 5
0000
0000
0000
0000
,  // measure 6
0000
0000
0000
0000
,  // measure 7
0001
0000
1000
0000
,  // measure 8
0100
0000
0100
0000
,  // measure 9
0100
0000
0000
0000
,  // measure 10
0010
0000
0000
0000
,  // measure 11
0001
0000
0000
0000
,  // measure 12
1000
0000
1000
0000
,  // measure 13
1000
0000
0000
0000
,  // measure 14
0001
0000
0000
0000
,  // measure 15
0100
0000
0000
0000
,  // measure 16
0010
0000
0000
0000
,  // measure 17
0000
0000
0100
0000
,  // measure 18
0001
0000
0000
0000
,  // measure 19
1000
0000
0000
0000
,  // measure 20
0200
0000
0300
0000
,  // measure 21
1000
0000
0001
0000
,  // measure 22
0100
0000
0000
0000
,  // measure 23
0110
0000
0000
0000
,  // measure 24
0001
0000
0000
0000
,  // measure 25
1000
0000
0000
0000
,  // measure 26
0100
0000
0000
0000
,  // measure 27
1000
0000
0000
0000
,  // measure 28
0001
0000
0000
0000
,  // measure 29
0100
0000
0000
0000
,  // measure 30
0001
0000
1000
0000
,  // measure 31
0001
0000
0000
0000
,  // measure 32
0010
0000
0000
0000
,  // measure 33
0001
0000
0000
0000
,  // measure 34
0100
0000
0000
0000
,  // measure 35
0010
0000
1000
0000
,  // measure 36
0001
0000
0000
0000
,  // measure 37
1000
0000
0000
0000
,  // measure 38
0010
0000
0000
0000
,  // measure 39
0100
0000
0100
0000
,  // measure 40
0100
0000
0000
0000
,  // measure 41
0000
0000
0000
0000
,  // measure 42
0010
0000
0000
0000
,  // measure 43
1000
0000
0001
0000
,  // measure 44
0010
0000
0000
0000
,  // measure 45
0200
0000
0000
0300
,  // measure 46
0010
0000
0000
0000
,  // measure 47
0001
0000
0001
0000
,  // measure 48
1000
0000
0000
0000
,  // measure 49
0010
0000
0000
0000
,  // measure 50
0100
0000
0000
0000
,  // measure 51
0010
0000
0000
0000
,  // measure 52
1000
0000
0000
0000
,  // measure 53
0001
0000
1000
0000
,  // measure 54
0001
0000
0001
0000
,  // measure 55
0001
0001
0000
0000
,  // measure 56
1000
0000
0000
0000
,  // measure 57
0001
0000
0000
0000
,  // measure 58
1000
0000
1000
0000
,  // measure 59
1000
1000
0000
0000
,  // measure 60
0010
0000
0000
0000
,  // measure 61
0100
0000
0000
0000
,  // measure 62
0010
0000
0000
0000
,  // measure 63
0000
0000
1000
0000
,  // measure 64
0001
0000
0000
0000
,  // measure 65
1000
0000
0000
0000
,  // measure 66
0020
0000
0030
0000
,  // measure 67
0100
0000
0010
0000
,  // measure 68
1000
0000
0000
0000
,  // measure 69
0001
0000
0000
0000
,  // measure 70
0100
0000
0000
0000
,  // measure 71
0001
0000
0000
0000
,  // measure 72
1000
0000
0001
0000
,  // measure 73
1000
0000
0000
0000
,  // measure 74
0100
0000
0000
0000
,  // measure 75
0010
0000
0000
0000
,  // measure 76
0001
0000
1000
0000
,  // measure 77
0001
0000
0000
0000
,  // measure 78
0100
0000
0000
0000
,  // measure 79
0010
0000
0000
0000
,  // measure 80
1000
0000
0001
0000
,  // measure 81
1000
0000
0000
0000
,  // measure 82
0100
0000
0000
0000
,  // measure 83
0020
0000
0000
0030
,  // measure 84
0001
0000
0001
0000
,  // measure 85
0001
0001
0000
0000
,  // measure 86
1000
0000
0000
0000
,  // measure 87
0001
0000
0000
0000
,  // measure 88
1000
0000
1000
0000
,  // measure 89
1000
1000
0000
0000
,  // measure 90
0010
0000
0000
0000
,  // measure 91
0100
0000
0000
0000
,  // measure 92
0002
0000
0000
0000
,  // measure 93
0000
0003
1000
0000
,  // measure 94
0002
0000
0000
0003
,  // measure 95
1000
0000
0000
0000
,  // measure 96
0002
0000
0000
0000
,  // measure 97
0000
0000
0000
0000
,  // measure 98
0003
0000
0000
0000
;

//---------------dance-double - ---------------
#NOTEDATA:;
#CHARTNAME:;
#CHARTSTYLE:;
#CREDIT:Pandemonium X;
#STEPSTYPE:dance-double;
#DESCRIPTION:;
#DIFFICULTY:Easy;
#METER:6;
#METERF:6;
#RADARVALUES:0,0,0,0,0;
#NOTES:
// measure 0
00000000
00000000
00000000
00000000
,  // measure 1
00000000
00000000
00000000
00000000
,  // measure 2
00000000
00000000
00000000
00000000
,  // measure 3
00000000
00000000
00000000
00000000
,  // measure 4
00000000
00000000
00000000
00000000
,  // measure 5
00000000
00000000
00000000
00000000
,  // measure 6
00000000
00000000
00000000
00000000
,  // measure 7
00010000
00000000
00001000
00000000
,  // measure 8
00010000
00000000
00000100
00000000
,  // measure 9
00001000
00001000
00000000
00000000
,  // measure 10
00000010
00000000
00000000
00000000
,  // measure 11
00000100
00000000
00000001
00000000
,  // measure 12
00001000
00000000
00000000
00000000
,  // measure 13
00000100
00000000
00000000
00000000
,  // measure 14
00010000
00000000
00000000
00000000
,  // measure 15
00001000
00000000
01000000
00000000
,  // measure 16
00020000
00000000
00000000
00000000
,  // measure 17
00000000
00030000
10000000
00000000
,  // measure 18
02000000
00000000
00000000
03000000
,  // measure 19
00200000
00000000
00000000
00000000
,  // measure 20
00300000
00000000
00000000
00000000
,  // measure 21
01000000
00000000
10000000
00000000
,  // measure 22
00020000
00000000
00000000
00000000
,  // measure 23
20000000
00000000
00000000
30030000
,  // measure 24
00010000
00100000
00000000
00001000
,  // measure 25
00010000
00001000
00000000
00010000
,  // measure 26
00000100
00001000
00000000
00000100
,  // measure 27
00001000
00000000
00000000
00000001
00000000
00000000
00000100
00000000
,  // measure 28
00000001
00001000
00000000
00000100
,  // measure 29
00001000
00000010
00000000
00000100
,  // measure 30
00000010
00001000
00000000
00000100
,  // measure 31
00010000
00000000
00000000
00002000
00000000
00000000
00003000
00000000
,  // measure 32
00010000
00001000
00000000
00100000
,  // measure 33
00010000
10000000
00000000
00010000
,  // measure 34
01000000
00010000
00000000
10000000
,  // measure 35
01000000
00000000
00100000
01000000
,  // measure 36
10000000
00000000
00000000
00010000
00000000
01000000
00000000
00100000
,  // measure 37
00000000
10000000
00000000
00010000
00000000
00000000
00100000
00000000
,  // measure 38
01000000
00000000
00000000
00000000
,  // measure 39
00100000
00000000
00001000
00000000
,  // measure 40
00010000
00000000
00000000
00000010
00000000
00000010
00000000
00000020
,  // measure 41
00000000
00000000
00000030
00000000
,  // measure 42
00000100
00000000
00000000
00000000
,  // measure 43
00000001
00000000
00001000
00000000
,  // measure 44
00000100
00001000
00000100
00000000
,  // measure 45
00020000
00000000
00000000
00030000
,  // measure 46
00001000
00000000
00100000
00000000
,  // measure 47
00010000
00000000
01000000
00000000
,  // measure 48
00010000
10000000
00010000
00000000
,  // measure 49
00100000
00000000
01000000
00000000
,  // measure 50
10000000
00000000
01000000
00000000
,  // measure 51
00100000
00000000
00001000
00000000
,  // measure 52
00000000
00020000
00000000
00030000
,  // measure 53
00001000
00000000
00010000
00000000
,  // measure 54
00000100
00000000
00001000
00000000
,  // measure 55
00000010
00000010
00000000
00000000
,  // measure 56
00000100
00000000
00000000
00000001
,  // measure 57
00000000
00000000
00001000
00000100
,  // measure 58
00010000
00000000
00001000
00000000
,  // measure 59
00010000
00010000
00001000
00000000
,  // measure 60
01000000
00000000
00000000
00010000
,  // measure 61
00000000
00000000
10000000
00010000
,  // measure 62
02000000
00000000
00000000
00000000
,  // measure 63
00000000
03000000
00010000
00000000
,  // measure 64
20000000
00000000
00000000
00000000
,  // measure 65
00020000
00000000
00000000
00000000
,  // measure 66
30030000
00000000
00000000
00000000
,  // measure 67
00010000
00000000
10000000
00000000
,  // measure 68
02000000
00000000
00000000
00000000
,  // measure 69
00200000
00000000
00000000
03300000
,  // measure 70
01000000
00000000
00000000
00000000
,  // measure 71
10000000
00000000
00000000
00000000
,  // measure 72
00010000
00000000
01000000
00000000
,  // measure 73
00001000
00000000
00000000
00000000
,  // measure 74
00010000
00000000
00000000
00000000
,  // measure 75
00000100
00000000
00000000
00000000
,  // measure 76
00001000
00000000
00000001
00000000
,  // measure 77
00000100
00000000
00000000
00000020
00000000
00000000
00000030
00000000
,  // measure 78
00000100
00000000
00000000
00000000
,  // measure 79
00000001
00000000
00000000
00000000
,  // measure 80
00001000
00000000
00000000
00000000
,  // measure 81
00000100
00000000
00000000
00000000
,  // measure 82
00010000
00000000
00001000
00000000
,  // measure 83
00020000
00000000
00000000
00030000
,  // measure 84
00000100
00000000
00001000
00000000
,  // measure 85
00000001
00000001
00000000
00000000
,  // measure 86
00000100
00000000
00000000
00000100
00000000
00000000
00000010
00000000
,  // measure 87
00000000
00000010
00000000
00000000
00000100
00000000
00000010
00000000
,  // measure 88
00010000
00000000
00010000
00000000
,  // measure 89
00010000
00010000
00000000
00000000
,  // measure 90
00001000
00000000
00000000
01000000
00000000
00000000
00100000
00000000
,  // measure 91
00000000
10000000
00000000
00000000
00010000
00000000
10000000
00000000
,  // measure 92
02000000
00000000
00000000
00000000
,  // measure 93
00000000
03000000
00100000
00000000
,  // measure 94
02000000
00000000
00000000
03000000
,  // measure 95
20000000
00000000
00000000
00000000
,  // measure 96
30010000
00000000
00000000
00000000
;

//---------------dance-double - ---------------
#NOTEDATA:;
#CHARTNAME:;
#CHARTSTYLE:;
#CREDIT:Pandemonium X;
#STEPSTYPE:dance-double;
#DESCRIPTION:;
#DIFFICULTY:Medium;
#METER:11;
#METERF:11;
#RADARVALUES:0,0,0,0,0;
#NOTES:
// measure 0
00000000
00000000
00000000
00000000
,  // measure 1
00000000
00000000
00000000
00000000
,  // measure 2
00000000
00000000
00000000
00000000
,  // measure 3
00000000
00000000
00000000
00000000
,  // measure 4
00000000
00000000
00000000
00000000
,  // measure 5
00000000
00000000
00000000
00000000
,  // measure 6
00000000
00000000
00000000
00000000
,  // measure 7
00100000
00000000
00010000
00000000
,  // measure 8
01000000
00000000
00000000
00010000
01000000
00000000
00000000
00000000
,  // measure 9
00010000
00100000
00010000
00000000
00100000
00000000
00001000
00000000
,  // measure 10
00010000
00000000
00000000
00000100
00000000
00000000
00001000
00000000
,  // measure 11
00000000
00000010
00000000
00000000
00000100
00000010
00000100
00000000
,  // measure 12
00000001
00000000
00001000
00000000
,  // measure 13
00000100
00000010
00000100
00000000
00000010
00000000
00000001
00000000
,  // measure 14
00000100
00000000
00000000
00000010
00000000
00000000
00000100
00000000
,  // measure 15
00000000
00000001
00000000
00000000
00001000
00000000
00000100
00000000
,  // measure 16
00020000
00000000
00000000
00000000
,  // measure 17
00000000
00000000
00031000
00000000
,  // measure 18
02000000
00000000
00000000
00000000
,  // measure 19
00020000
00000000
00000000
00000000
,  // measure 20
03030000
00000000
00000000
00000000
00000000
00000000
00000000
10000000
,  // measure 21
00100000
10000000
00000000
00010000
00000000
00000000
00100000
00000000
,  // measure 22
00002000
00000000
00000000
00000000
,  // measure 23
00020000
00000000
00000000
00033000
,  // measure 24
00010000
00000100
00010000
00001000
00000000
00010000
00000000
00000100
,  // measure 25
00000000
00001000
00000000
00000010
00000000
00000100
00000010
00000000
,  // measure 26
00000100
00000001
00000000
00001000
00000000
00000001
00000000
00000110
,  // measure 27
00000000
00000000
00000000
00001000
00000000
00000001
00000100
00000001
,  // measure 28
00001000
00000100
00000000
00010000
00000000
00001000
00000000
01000000
,  // measure 29
00000000
00010000
00000000
00100000
00010000
00000000
10000000
00000000
,  // measure 30
00100000
00000000
01000000
00001000
00000000
00010000
00000000
00001000
,  // measure 31
00000000
00000000
00000000
00200000
00000000
00000000
00300000
00000000
,  // measure 32
00010000
01000000
00000000
00100000
00000000
10000000
00000000
00010000
,  // measure 33
00000000
00100000
00000000
00001000
00000000
00010000
00000000
00000010
,  // measure 34
00000100
00000010
00000000
00000100
00000000
00000001
00000000
00001000
,  // measure 35
00000000
00000000
00000000
00000100
00000010
00000001
00000100
00000010
,  // measure 36
00001000
00000100
00000100
00001000
00000100
00000100
00001000
00000100
,  // measure 37
00010000
00000000
00000000
00000000
,  // measure 38
00011000
00000000
00001000
01000000
00000000
01000000
00010000
00000000
,  // measure 39
00100000
00000000
00000000
01000000
10000000
00000000
00000000
01000000
,  // measure 40
00100000
01000000
00000000
10000000
00000000
00010000
00000000
02000000
,  // measure 41
00000000
00000000
03000000
00000000
,  // measure 42
00000000
00000000
00100000
01000000
00000000
01000000
00001000
00000000
,  // measure 43
00020000
00000000
00000000
00031000
00010000
00000000
00000100
00000000
,  // measure 44
00001000
00000010
00000000
00000200
00000000
00000000
00000300
00000000
,  // measure 45
00001000
00000100
00000001
00001000
00000000
00000001
00000000
00001000
,  // measure 46
00000000
00000000
00000100
00010000
00000000
00001000
00010000
00000000
,  // measure 47
00001000
00000000
00000000
00010000
00000100
00000000
00000000
00010000
,  // measure 48
00001000
00000000
01000000
00010000
00000000
00000000
00000000
00100000
,  // measure 49
01000000
00100000
00000000
00010000
00000000
01000000
00000000
00000000
,  // measure 50
00002000
00003000
00020000
00030000
,  // measure 51
00002000
00000000
00003000
00020000
00000000
00030000
00002000
00000000
,  // measure 52
00003000
00020000
00000000
00030000
,  // measure 53
00010000
00000000
00000100
00000000
,  // measure 54
00001100
00000000
00000000
00001000
00000010
00000000
00000000
00000100
,  // measure 55
00000001
00001000
00000100
00000000
00000010
00000000
00000001
00000000
,  // measure 56
00000100
00000000
00000001
00001000
00000000
00000010
00000100
00000000
,  // measure 57
00000001
00001000
00000000
00000010
00000100
00000000
00000001
00000000
,  // measure 58
00001000
00000000
00000000
00000100
00010000
00000000
00000000
00001000
,  // measure 59
01000000
00001000
00100000
00000000
00010000
00100000
01000000
00100000
,  // measure 60
00010000
00000000
00100000
01000000
00000000
00010000
10000000
00000000
,  // measure 61
00100000
01000000
00000000
00010000
10000000
00000000
00100000
00000000
,  // measure 62
02000000
00000000
00000000
00000000
,  // measure 63
00000000
03000000
00010000
00000000
,  // measure 64
00200000
00000000
00000000
00000000
,  // measure 65
00002000
00000000
00000000
00000000
,  // measure 66
00000000
00300000
00000000
00003000
00000000
00000000
00000000
00010000
,  // measure 67
00001000
00000000
00010000
00001000
00000000
00000000
00010000
00000000
,  // measure 68
00000200
00000000
00000000
00000000
,  // measure 69
00020000
00000000
00000000
00030300
,  // measure 70
00010000
00001000
00010000
00001000
00000000
00010000
00000000
00000100
,  // measure 71
00000000
00001000
00000000
00000010
00000000
00000100
00000010
00000000
,  // measure 72
00000100
00000001
00000000
00000010
00000000
00000100
00000000
00000020
,  // measure 73
00000000
00000030
00000000
00000001
00000000
00000100
00000001
00001000
,  // measure 74
00000100
00000010
00000000
00000100
00000000
00001000
00000000
00000100
,  // measure 75
00000000
00010000
00000000
00001000
01000000
00000000
00010000
00000000
,  // measure 76
00100000
00000000
01000000
00100000
00000000
00010000
00000000
10000000
,  // measure 77
00000000
00000000
00000000
00200000
00000000
00000000
00300000
00000000
,  // measure 78
01000000
00100000
00000000
01000000
00000000
10010000
00000000
01100000
,  // measure 79
00000000
10010000
00000000
01100000
00000000
10010000
00000000
10000000
,  // measure 80
01000000
00100000
00000000
01000000
00000000
10000000
00000000
00020000
,  // measure 81
00000000
00000000
00030000
00100000
00010000
00100000
01000000
10000000
,  // measure 82
00010000
00100000
00000000
00001000
00000000
00010000
00000000
00000100
,  // measure 83
00000000
00001000
00000000
00000010
00000000
00010000
00001000
00000000
,  // measure 84
01010000
00000000
00000000
00010000
01000000
00000000
00000000
00010000
,  // measure 85
01000000
00100000
10000000
00000000
00100000
10000000
00010000
00100000
,  // measure 86
00001000
00000000
00100000
00001000
00000000
00010000
00000010
00000000
,  // measure 87
00000100
00000001
00000000
00000010
00000100
00000000
00001100
00000000
,  // measure 88
00010100
00000000
00000000
00000100
00001000
00000000
00000000
00000100
,  // measure 89
00001000
00000010
00000100
00000000
00000010
00000100
00000001
00001000
,  // measure 90
00000100
00000000
00010000
00000100
00000000
00000100
00010000
00000000
,  // measure 91
00001000
01000000
00000000
00100000
01000000
00000000
01100000
00000000
,  // measure 92
10010000
00000000
10000000
00000000
00010000
01000000
00010000
00000000
,  // measure 93
00100000
00000000
00001000
00000000
00010000
00001000
00010000
00000000
,  // measure 94
00000100
00000000
00001000
00000000
00000010
00000100
00000010
00000000
,  // measure 95
00000001
00000100
00000010
00001000
00000100
00010000
00001000
01000000
,  // measure 96
00200000
00000000
00000000
00000000
,  // measure 97
00000000
00000000
00000000
00000000
,  // measure 98
00300000
00000000
00000000
00000000
;

//---------------dance-double - ---------------
#NOTEDATA:;
#CHARTNAME:;
#CHARTSTYLE:;
#CREDIT:Pandemonium X;
#STEPSTYPE:dance-double;
#DESCRIPTION:;
#DIFFICULTY:Hard;
#METER:12;
#METERF:12;
#RADARVALUES:0,0,0,0,0;
#NOTES:
// measure 0
00000000
00000000
00000000
00000000
,  // measure 1
00000000
00000000
00000000
00000000
,  // measure 2
00000000
00000000
00000000
00000000
,  // measure 3
00000000
00000000
00000000
00000000
,  // measure 4
00000000
00000000
00000000
00000000
,  // measure 5
00000000
00000000
00000000
00000000
,  // measure 6
00000000
00000000
00000000
00000000
,  // measure 7
00001000
00000000
00010000
00000000
,  // measure 8
00000100
00000000
00000000
00001000
00001000
00000000
00000000
00000010
,  // measure 9
00000100
00001000
00000100
00000000
00000001
00001000
00000100
00000010
,  // measure 10
00000001
00000000
00000010
00000010
00000000
00000001
00000001
00000000
,  // measure 11
00000100
00000100
00000000
00000010
00001000
00000100
00000010
00000000
,  // measure 12
00001000
00000000
00000000
00000010
00000001
00000000
00000000
00000001
,  // measure 13
00000100
00001000
00010000
00000000
00001000
00010000
00001000
00010000
,  // measure 14
00000100
00000000
00010000
00010000
00000000
00001000
00001000
00000000
,  // measure 15
01000000
01000000
00000000
00010000
00010000
00000000
10000000
00000000
,  // measure 16
02000000
00000000
00000000
00000000
,  // measure 17
00000000
00000000
03200000
00000000
,  // measure 18
00320000
00000000
00000000
00030000
,  // measure 19
02000000
00000000
00000000
03000000
,  // measure 20
00002000
00023000
00000000
00032000
00000000
00003000
00000000
00010000
,  // measure 21
00000100
00001000
00000000
00000010
00000000
00000000
00001000
00000000
,  // measure 22
00000001
00000000
00000000
00000000
00000000
00000000
00000100
00000001
00000100
00000000
00000001
00000000
00001000
00000000
00000010
00000000
,  // measure 23
00010000
00000000
00010000
00000000
00001000
00000000
00001000
00000000
00011000
00000000
00000000
00000000
00001000
01000000
00010000
00000000
,  // measure 24
00100000
01000000
10000000
00020000
00000000
02030000
00000000
03002000
,  // measure 25
00000000
00023000
00000000
00030200
00000000
00001300
00000010
00000001
,  // measure 26
00000010
00000200
00000000
00000302
00000000
00002003
00000000
00003200
,  // measure 27
00000000
00000000
00000300
00000020
00000000
00001030
00000010
00000001
,  // measure 28
00000100
00002000
00000000
00023000
00000000
00230000
00000000
02300000
,  // measure 29
00000000
03020000
00000000
10030000
02000000
00000000
03020000
00000000
,  // measure 30
02030000
00000000
03100000
00020000
00000000
00032000
00000000
00023000
,  // measure 31
00000000
00000000
00000000
00000400
00000000
00000000
00000300
00000000
,  // measure 32
00031000
02000000
00000000
03020000
00000000
00230000
00000000
00302000
,  // measure 33
00000000
02003000
00000000
03200000
00000000
00320000
00000000
00130000
,  // measure 34
10000000
02000000
00000000
03200000
00000000
00302000
00000000
00023000
,  // measure 35
00000000
00000000
00030000
00001000
00010000
00001000
00010000
00000100
,  // measure 36
00001000
00000000
00000010
00000000
00000010
00000000
00010000
00000000
00001000
00000000
00001000
00000000
00010000
00000000
00001000
00010000
,  // measure 37
00001000
00000000
00000000
00000000
,  // measure 38
00101000
00000000
00100000
00001000
00000000
00001000
01000000
00000000
,  // measure 39
00100000
00000000
01000000
00001000
00010000
00000000
00001000
00010000
,  // measure 40
00000100
00001000
00000000
00000010
00000000
00000100
00000000
00000001
,  // measure 41
00001000
00000100
00000010
00000002
00000000
00000013
00000100
00001000
,  // measure 42
00000001
00000000
00000100
00000020
00000000
00010030
00001000
00000000
,  // measure 43
00201000
00000000
00000000
00010000
00310000
00000000
00100000
00000000
,  // measure 44
00010000
02000000
00000000
03200000
00000000
00000000
00000000
00300000
,  // measure 45
00010000
00100000
10000000
00010000
00000000
00100000
00000000
01000000
,  // measure 46
10000000
00000000
01000000
10000000
00000000
10000000
00100000
00000000
,  // measure 47
01000000
00000000
00100000
01000000
00001000
00000000
00010000
00000100
,  // measure 48
00001000
00000000
00000001
00000001
00000000
00000000
00000000
00000100
,  // measure 49
00000001
00000010
00000000
00000001
00000000
00001000
00000000
00000000
,  // measure 50
00001100
00000000
00010100
00000000
,  // measure 51
00011000
00000000
00000000
01001000
00000000
00000000
01010000
00000000
,  // measure 52
00000000
10010000
00000000
00000000
,  // measure 53
10010000
00000000
00011000
00000000
,  // measure 54
00001001
00000000
00000000
00000001
00000101
00000000
00000000
00001000
,  // measure 55
00001100
00000100
00000010
00000000
00000100
00000010
00000001
00000100
,  // measure 56
00001000
00000000
00000100
00000001
00000000
00000100
00001000
00000000
,  // measure 57
00000100
00000001
00000000
00000100
00001000
00000000
00001100
00000000
,  // measure 58
00001010
00000000
00000000
00001000
00000100
00000000
00000000
00010000
,  // measure 59
00001000
01000000
00010000
00000000
00010000
10000000
01000000
00100000
,  // measure 60
00010000
00000000
00100000
10000000
00000000
00100000
00010000
00000000
,  // measure 61
00100000
10000000
00000000
00100000
00010000
00000000
01000000
00000000
,  // measure 62
00002000
00000000
00000000
00000000
,  // measure 63
00000000
00003000
00020000
00030000
,  // measure 64
00000200
00000000
00000000
00000000
,  // measure 65
00002000
00000000
00000000
00000000
,  // measure 66
00003300
00000000
00000000
00000000
00000000
00000000
00000000
00001000
,  // measure 67
00000001
00000000
00000100
00000001
00000000
00000000
00001000
00000000
,  // measure 68
00000020
00000000
00000000
00000000
00000000
00000000
00010030
00001000
00010000
00000000
00001000
00000000
01000000
00000000
00010000
00000000
,  // measure 69
00400000
04000000
00000000
00000000
00000000
00000000
00000000
00000000
00000000
00000000
00000000
00000000
03300000
00000000
00000000
00000000
,  // measure 70
10010000
10000000
00010000
00200000
00000000
00320000
00000000
02030000
,  // measure 71
00000000
03002000
00000000
00023000
00000000
00030100
00001000
00000001
,  // measure 72
00000100
00002000
00000000
00003200
00000000
00000302
00000000
00002000
,  // measure 73
00000000
00003003
00000000
00002000
00000000
00003100
00010000
00001000
,  // measure 74
01000000
00020000
00000000
00230000
00000000
20300000
00000000
30200000
,  // measure 75
00000000
00320000
00000000
00031000
02000000
00000000
03200000
00000000
,  // measure 76
00320000
00000000
00130000
20000000
00000000
30020000
00000000
00230000
,  // measure 77
00000000
00000000
00000000
00004000
00000000
00000000
00003000
00000000
,  // measure 78
00310000
00100000
00000000
00010000
00000000
01010000
00000000
00011000
,  // measure 79
00000000
00001100
00000000
00000011
00000000
00001001
00000000
00000001
,  // measure 80
00000100
00001000
00000000
00000100
00000000
00000101
00000000
00002020
,  // measure 81
00000000
00000000
00003030
00000010
00000100
00000010
00001000
00000001
,  // measure 82
00001000
00000100
00000100
00010000
00001000
00001000
00010000
00001000
,  // measure 83
04000000
00400000
00000000
00000000
00000000
00000000
00000000
00000000
00000000
00000000
00000000
00000000
03300000
00000000
00000000
00000000
,  // measure 84
10010000
00000000
00000000
00100000
10010000
00000000
00000000
01000000
,  // measure 85
10010000
00100000
10010000
00000000
10000000
01000000
00100000
00010000
,  // measure 86
10000000
00000000
10000000
00010000
00000000
00010000
00001000
00000000
,  // measure 87
00001000
00000001
00000000
00000001
00001000
00000000
00000110
00000000
,  // measure 88
00001001
00000000
00000000
00000100
00001001
00000000
00000000
00000100
,  // measure 89
00001001
00000010
00001001
00000000
00000001
00000010
00000100
00001000
,  // measure 90
00000001
00000000
00000001
00001000
00000000
00001000
00010000
00000000
,  // measure 91
00010000
10000000
00000000
10000000
00010000
00000000
01100000
00000000
,  // measure 92
20010000
00000000
01000000
00000000
00010000
00010000
30010000
00000000
,  // measure 93
00020000
00000000
01000000
00000000
10000000
10000000
10030000
00000000
,  // measure 94
00210000
00000000
00001000
00000000
00010000
00010000
00310000
00000000
,  // measure 95
00100000
00001000
00001000
00010000
00000100
00000100
00001000
00000010
,  // measure 96
00000200
00000000
00000000
00000000
,  // measure 97
00000000
00000000
00000000
00000000
,  // measure 98
00000300
00000000
00000000
00000000
;
