#VERSION:0.83;
#TITLE:symbolic;
#SUBTITLE:;
#ARTIST:TaQ;
#TITLETRANSLIT:;
#SUBTITLETRANSLIT:;
#ARTISTTRANSLIT:;
#GENRE:;
#CREDIT:;
#MUSIC:symbolic.ogg;
#BANNER:banner.png;
#BACKGROUND:background.png;
#JACKET:jacket.png;
#DISCIMAGE:;
#CDIMAGE:;
#SELECTABLE:YES;
#LYRICSPATH:;
#CDTITLE:;
#SAMPLESTART:92.912;
#SAMPLELENGTH:13.189;
#OFFSET:1.172;
#BPMS:0.000000=155.000000;
#STOPS:;
#WARPS:;
#DELAYS:;
#SPEEDS:;
#SCROLLS:;
#TICKCOUNTS:;
#TIMESIGNATURES:;
#LABELS:;
#COMBOS:;
#FAKES:;
#BGCHANGES:;
#FGCHANGES:;
#ATTACKS:;

//---------------dance-single - Pandemonium X---------------
#NOTEDATA:;
#CHARTNAME:;
#CHARTSTYLE:;
#CREDIT:Pandemonium X;
#STEPSTYPE:dance-single;
#DESCRIPTION:Pandemonium X;
#DIFFICULTY:Challenge;
#METER:15;
#METERF:15;
#RADARVALUES:0,0,0,0,0;
#NOTES:
// measure 0
0000
0000
0000
0000
,  // measure 1
0000
0000
0000
0000
,  // measure 2
0000
0000
0000
0000
,  // measure 3
0000
0000
0000
0000
,  // measure 4
0000
0000
0000
0000
0000
0000
0001
0001
,  // measure 5
0001
1000
0100
0000
0100
1000
0001
0100
,  // measure 6
0001
0000
1000
0000
0000
0000
0001
0000
1000
0000
0010
0000
1000
0100
1000
0000
,  // measure 7
1000
0001
0010
0000
0010
0001
1000
0010
,  // measure 8
1000
0000
0001
0000
0000
0000
1000
0000
0001
0000
0100
0000
0001
0010
0001
0000
,  // measure 9
0000
0000
1000
0000
1000
0000
0000
0000
0001
0000
1000
0100
1000
0000
0001
0000
,  // measure 10
1000
0000
0010
0000
0000
0000
0100
0000
0001
0000
1000
0000
0100
0010
0100
0000
,  // measure 11
0010
0000
0001
0000
1000
0000
0000
0000
0100
0000
0010
0100
0010
0000
0001
1000
,  // measure 12
0010
0000
0010
0000
0000
0000
0100
0000
1000
0000
0100
0000
0001
1000
0100
0000
,  // measure 13
0010
0000
0001
0000
0011
0000
0000
0000
0010
0000
0100
1000
0100
0000
1000
0001
,  // measure 14
1000
0000
0001
0000
0000
0000
0100
0000
0101
0000
0001
0000
1000
0001
1000
0000
,  // measure 15
0100
0000
1000
0000
1010
0000
0000
0000
0010
0000
0100
0001
0100
0000
0001
1000
,  // measure 16
0001
0000
1000
0000
0000
0000
0100
0000
0110
0000
0010
0000
0001
1000
0001
1000
,  // measure 17
0000
0000
0010
0000
0110
0000
0000
0000
0100
0000
0010
0000
1000
0000
0001
1000
,  // measure 18
0001
0000
0010
0000
0000
0000
0100
0000
1100
0000
1000
0000
0001
1000
0001
0000
,  // measure 19
1000
0000
0100
0000
1100
0000
0000
0000
0001
0000
0010
0001
0010
0000
0001
1000
,  // measure 20
0001
0000
0100
0000
0000
0000
0010
0000
0110
0000
0100
0000
0001
1000
0001
0000
,  // measure 21
1000
0000
0100
0000
0001
0000
0000
0000
0100
0000
1000
0000
1010
0000
0010
0100
,  // measure 22
0001
0001
0001
0001
,  // measure 23
0001
0000
0010
0000
1000
0000
0000
0000
0010
0000
0001
0000
0101
0000
0100
0010
,  // measure 24
1000
0000
1000
0000
1000
0000
1000
1001
,  // measure 25
0000
0000
0001
0000
1001
0000
0000
0000
1000
0000
0001
0100
0001
0000
0100
0001
,  // measure 26
1000
1000
1000
1000
,  // measure 27
1000
0000
0001
0000
0011
0000
0000
0000
0010
0000
0100
0000
1100
0000
0100
0010
,  // measure 28
0001
0000
0000
0000
0000
0000
0000
1000
,  // measure 29
0001
1000
0000
0100
0000
0000
0010
0000
0100
1000
0000
0001
0000
0000
0100
0000
,  // measure 30
0010
1000
0000
0001
0000
0000
0010
0000
0100
0010
0000
0001
0000
1000
0010
0000
,  // measure 31
1000
0010
0000
0000
0100
0000
0001
0000
1000
0100
0000
0000
0010
0000
0001
0000
,  // measure 32
1000
0001
0000
0000
0010
0000
0100
0000
1000
0100
0000
0000
0010
0001
0100
0010
,  // measure 33
1000
0001
1000
0001
0000
0000
0100
0000
0001
0010
0001
0010
0000
0000
0100
0000
,  // measure 34
1000
0100
1000
0100
0000
0000
0100
0000
0010
0001
0010
0001
1000
0001
1000
0100
,  // measure 35
1000
0100
0000
0000
0000
0000
1000
0010
1000
0010
0000
0000
0000
0000
1000
0001
,  // measure 36
0000
0000
0000
0000
,  // measure 37
1000
0100
0000
0010
0100
0000
0010
0000
0001
1000
0000
0010
0100
0000
0001
0000
,  // measure 38
1000
0100
0000
1000
0001
0000
0100
0000
0101
0000
0001
0000
0010
0100
0010
0001
,  // measure 39
0010
0001
0000
0010
0100
0000
1000
0000
0001
0100
0000
0010
1000
0000
0001
0000
,  // measure 40
0010
0100
0000
0010
0001
0000
1000
0000
1010
0000
0010
0000
1000
0001
0010
0100
,  // measure 41
0010
0100
0000
1000
0001
0000
0010
0000
0001
1000
0000
0010
0100
0000
0001
0000
,  // measure 42
1000
0100
0000
1000
0001
0000
0100
0000
0110
0000
0010
0000
1000
0001
0010
0100
,  // measure 43
0010
0100
0000
0010
0001
0000
1000
0000
0010
0100
0000
0010
1000
0000
0001
0000
,  // measure 44
0010
0100
0000
0010
0001
0000
1000
0000
1001
0000
0001
0000
0100
0001
0100
0010
,  // measure 45
1000
0001
0000
0010
0100
0000
0010
0000
0001
1000
0001
0000
0101
0000
0100
0001
,  // measure 46
1000
0100
0000
0010
0100
0000
1000
0000
1001
0000
0001
0000
0100
0010
0100
0010
,  // measure 47
1000
0001
0000
0100
0010
0000
0100
0000
0001
1000
0001
0000
0011
0000
0010
0001
,  // measure 48
1000
0010
0000
0100
0010
0000
1000
0000
1001
0000
0001
0000
1000
0001
0100
0000
,  // measure 49
0100
0000
0100
0001
1000
0000
0100
0000
0010
0000
0001
0000
0011
0000
0010
0100
,  // measure 50
1000
0001
0000
0100
0001
0000
1000
0000
1001
0000
1000
0000
0100
0010
0100
0010
,  // measure 51
0001
0000
1000
0000
1010
0000
0000
0000
0010
0000
0100
0001
0100
0000
0001
0000
,  // measure 52
1000
0000
1000
0000
0001
0000
0001
0000
0100
0000
0100
0000
0010
1000
0001
0100
,  // measure 53
0010
1000
0001
0010
,  // measure 54
0001
1000
0100
1000
,  // measure 55
0001
0100
0001
0010
,  // measure 56
0001
1000
0100
0010
,  // measure 57
0100
0000
0000
0000
1100
0000
0000
0000
0000
0000
0011
0000
0010
0000
0100
1000
,  // measure 58
0001
1000
0001
1000
0001
1000
0001
1000
,  // measure 59
0001
0000
0001
0000
1000
0000
1000
0000
0001
0000
0001
0000
1000
0000
1000
0100
,  // measure 60
0000
0100
0010
0001
0000
0001
0010
0100
0010
0000
0010
0000
0001
1000
0001
1000
,  // measure 61
0001
0000
0100
0000
0010
0000
0100
0000
0001
0000
1000
0000
0100
0000
1000
0100
,  // measure 62
0010
0000
0100
0000
1000
0000
0001
0000
0100
0000
0010
0000
1000
0001
1000
0001
,  // measure 63
1000
0100
1000
0001
0100
0001
1000
0001
,  // measure 64
1000
0000
0010
0000
1000
0000
0001
0000
0010
0000
0001
0000
1000
0001
1000
0001
,  // measure 65
1000
0001
0100
0010
1000
0001
0010
0100
,  // measure 66
0010
0000
0001
0000
1000
0000
0100
0000
0010
0000
0001
0000
1000
0001
1000
0001
,  // measure 67
1000
0000
0010
0000
0100
0000
0001
0000
1000
0000
0010
0000
0100
0000
0001
1000
,  // measure 68
0000
1000
0100
1000
0000
1000
0001
0010
0001
0100
0001
0100
0010
1000
0001
0010
,  // measure 69
0100
0000
1000
0000
1010
0000
0010
0100
0001
0000
0010
0000
0011
0000
0010
0100
,  // measure 70
1000
0000
0001
0000
1001
0000
1000
0000
0010
0000
0100
0000
0001
0100
0010
1000
,  // measure 71
0001
0000
0010
0000
0011
0000
0010
0001
1000
0000
0010
0000
1010
0000
0010
0100
,  // measure 72
0001
0000
1000
0000
1001
0000
1000
0000
1100
0000
0000
0000
0100
0010
0001
1000
,  // measure 73
0010
0000
1010
0000
1001
0000
0001
0100
0010
0000
1000
0000
1100
0000
1000
0001
,  // measure 74
0010
0000
0100
0000
1001
0000
0001
0010
0100
0000
1000
0000
0100
0010
0001
1000
,  // measure 75
0010
0000
0100
0000
0001
0000
1000
0000
0100
0000
0010
0000
0001
0000
0010
0001
,  // measure 76
1000
0100
0010
0001
0100
0010
1000
0001
1000
0000
0100
0000
0000
0000
0000
0000
;

//---------------dance-single - Pandemonium X---------------
#NOTEDATA:;
#CHARTNAME:;
#CHARTSTYLE:;
#CREDIT:Pandemonium X;
#STEPSTYPE:dance-single;
#DESCRIPTION:Pandemonium X;
#DIFFICULTY:Hard;
#METER:13;
#METERF:13;
#RADARVALUES:0,0,0,0,0;
#NOTES:
// measure 0
0000
0000
0000
0000
,  // measure 1
0000
0000
0000
0000
,  // measure 2
0000
0000
0000
0000
,  // measure 3
0000
0000
0000
0000
,  // measure 4
0000
0000
0000
0000
0000
0000
0001
1000
,  // measure 5
1001
0001
1000
0001
,  // measure 6
0100
0000
0001
0000
0100
0000
0010
1000
,  // measure 7
0100
0010
0001
1000
,  // measure 8
0010
0000
0100
0000
0001
0100
0001
1000
,  // measure 9
0000
0100
1000
0000
0001
0000
0100
0000
,  // measure 10
0001
0000
1000
0000
0100
0000
0010
0100
,  // measure 11
1000
0100
0010
0001
,  // measure 12
0100
0010
0000
0100
0001
0001
1000
0100
,  // measure 13
0010
0000
0100
0000
1000
0010
0100
0001
,  // measure 14
1000
0001
0010
0100
,  // measure 15
0010
0000
0001
0000
0100
0001
0100
0001
,  // measure 16
1000
0000
0001
0000
1000
0100
1000
0001
,  // measure 17
0000
0100
0100
0000
0001
1000
0010
0000
,  // measure 18
0100
0000
0001
0000
0010
0100
1000
0000
,  // measure 19
0100
1000
0001
0000
0100
0010
1000
0000
,  // measure 20
0001
1000
0000
0001
0010
0100
1000
0001
,  // measure 21
0101
0101
1001
1001
,  // measure 22
1100
1100
1100
1100
,  // measure 23
1001
1001
1010
1010
,  // measure 24
1001
0000
1001
0000
1001
0000
1001
0001
,  // measure 25
0000
0010
0100
0000
1100
0000
0011
0000
,  // measure 26
1001
1001
1001
1001
,  // measure 27
0101
1010
0110
0101
,  // measure 28
1001
0000
0000
0000
,  // measure 29
1000
0000
0000
1000
0000
0000
1000
0000
0001
0000
0000
0001
0000
0000
0001
0000
,  // measure 30
0100
0000
0000
0100
0000
0000
0100
0000
0010
0000
0000
0010
0000
0000
0010
0000
,  // measure 31
1000
0000
0000
1000
0000
0000
1000
0000
0010
0000
0000
0010
0000
0000
0010
0000
,  // measure 32
0100
0000
0000
0100
0000
0000
0100
0000
0001
0000
0000
0001
0000
0000
0001
0000
,  // measure 33
1000
0100
0000
0000
0000
0000
0000
0000
0010
0001
0000
0000
0000
0000
0000
0000
,  // measure 34
0001
0100
0000
0000
0000
0000
0000
0000
0010
1000
0000
0000
0100
0000
0010
0000
,  // measure 35
0001
0010
0000
0000
0100
0000
1000
0000
0010
0100
0000
0000
0010
0000
0100
0000
,  // measure 36
0001
1000
0000
0000
0000
0000
0000
0000
0000
0000
0000
0000
0000
0000
0000
0000
,  // measure 37
1000
0100
1100
0000
0001
0100
0101
0000
,  // measure 38
1000
0100
1100
0000
0001
0100
0101
0000
,  // measure 39
1000
0010
1010
0000
0001
0010
0011
0000
,  // measure 40
1000
0010
1010
0000
0001
0010
0011
0000
,  // measure 41
0001
0100
0110
0000
0100
0010
1010
0000
,  // measure 42
0001
0010
0110
0010
0100
1000
1001
0001
,  // measure 43
0100
0001
1001
0000
0001
0100
1010
0000
,  // measure 44
1000
0100
0011
0000
1100
0100
1000
0001
,  // measure 45
0100
0010
1001
0010
0100
0010
1001
0100
,  // measure 46
0010
0100
1001
0010
0100
0010
1001
0001
,  // measure 47
1000
0100
0011
0001
0100
0010
1010
0010
,  // measure 48
0100
0001
1001
0001
0010
0010
0100
1000
,  // measure 49
0100
1000
1010
0000
0010
1000
1010
0000
,  // measure 50
0010
0100
0101
0000
0001
1000
1001
0001
,  // measure 51
1000
0100
0011
0000
0001
0100
1010
0000
,  // measure 52
0010
0000
0100
0000
0001
0000
1000
0000
0100
0000
0010
0000
0001
0000
1000
0001
,  // measure 53
1000
0001
1000
0001
,  // measure 54
1000
0000
0001
0000
1000
0001
0100
0010
,  // measure 55
1000
0001
1000
0001
,  // measure 56
1000
0000
0001
0000
1000
0001
0100
0010
,  // measure 57
1000
1000
0001
0001
,  // measure 58
1000
0001
1000
0001
1000
0001
1000
0001
,  // measure 59
1000
0000
0001
0000
1000
0000
0001
0000
1000
0000
0001
0000
1000
0000
0001
1000
,  // measure 60
0000
0001
1000
0001
1000
0001
1000
0001
1000
0000
0001
0000
0100
0010
0100
0010
,  // measure 61
0100
0010
1000
0001
,  // measure 62
0010
0000
0000
0000
0100
0000
0000
0000
0010
0000
0000
0000
0001
1000
0001
1000
,  // measure 63
0001
1000
0001
0100
,  // measure 64
0010
0000
0000
0000
1000
0000
0000
0000
0001
0000
0000
0000
1000
0100
1000
0100
,  // measure 65
1000
0100
1000
0010
,  // measure 66
0100
0000
0000
0000
0001
0000
0000
0000
0010
0000
0000
0000
0100
1000
0100
1000
,  // measure 67
0100
0000
1000
0000
0100
0000
1000
0000
0100
0000
0010
0000
0001
0000
0010
0100
,  // measure 68
0000
0100
1000
0001
0100
0000
0010
0000
0100
0000
0010
0000
1000
0001
1000
0001
,  // measure 69
1000
0101
0011
0110
,  // measure 70
1100
0000
0000
0000
0011
0000
0000
0000
1001
0000
0000
0000
0001
0100
0001
0100
,  // measure 71
0001
0101
1010
0110
,  // measure 72
1001
0000
0000
0000
1100
0000
0000
0000
0011
0000
0000
0000
1000
0010
1000
0010
,  // measure 73
1000
0100
0110
0000
0011
0000
1100
0000
,  // measure 74
0011
0000
0000
0000
0101
0000
0000
0000
1010
0000
0000
0000
0001
0100
0001
0100
,  // measure 75
0001
0100
0010
0100
0010
1000
0001
0010
,  // measure 76
0100
0010
0001
1000
1001
0001
0000
0000
;

//---------------dance-single - Pandemonium X---------------
#NOTEDATA:;
#CHARTNAME:;
#CHARTSTYLE:;
#CREDIT:Pandemonium X;
#STEPSTYPE:dance-single;
#DESCRIPTION:Pandemonium X;
#DIFFICULTY:Easy;
#METER:9;
#METERF:9;
#RADARVALUES:0,0,0,0,0;
#NOTES:
// measure 0
0000
0000
0000
0000
,  // measure 1
0000
0000
0000
0000
,  // measure 2
0000
0000
0000
0000
,  // measure 3
0000
0000
0000
0000
,  // measure 4
0000
0000
0000
0000
0000
0000
1000
0001
,  // measure 5
1000
0001
0100
0001
,  // measure 6
0100
0010
0100
0010
,  // measure 7
1000
0001
1000
0001
,  // measure 8
0010
0001
0010
0001
,  // measure 9
0000
1000
0001
0000
1000
0000
0100
0000
,  // measure 10
1000
0100
0010
0001
,  // measure 11
1000
0010
1000
0010
,  // measure 12
0100
0000
0000
0010
0010
0000
0100
0000
,  // measure 13
0001
1000
0010
1000
,  // measure 14
0001
0010
0001
1000
,  // measure 15
0001
1100
0100
1000
,  // measure 16
0001
0000
0100
0000
0001
0000
1000
1100
,  // measure 17
0000
1100
0100
1000
,  // measure 18
0001
0100
0001
0010
,  // measure 19
0001
1010
1000
0001
,  // measure 20
0100
0000
0001
0000
0010
0000
0001
1000
,  // measure 21
0001
0001
1000
1000
,  // measure 22
0010
0000
0000
0000
,  // measure 23
1000
1000
0001
0001
,  // measure 24
0010
0000
0000
0000
,  // measure 25
0001
0001
1000
1000
,  // measure 26
0100
0000
0000
0000
,  // measure 27
1000
1000
0001
0001
,  // measure 28
0100
0000
0000
0000
,  // measure 29
0010
0000
0100
0000
,  // measure 30
0001
0000
1000
0100
,  // measure 31
1000
0000
0001
0000
,  // measure 32
0100
0000
0010
0100
,  // measure 33
0001
0000
1000
0000
,  // measure 34
0100
0000
0010
0100
,  // measure 35
1000
0000
0010
0000
,  // measure 36
0100
0000
0000
0000
,  // measure 37
0010
0100
0001
1000
,  // measure 38
0001
0000
0010
0000
0011
0000
0001
1000
,  // measure 39
0100
0010
0100
1000
,  // measure 40
0010
0000
0100
0000
1010
0000
0010
1000
,  // measure 41
0001
1000
0100
1000
,  // measure 42
0010
0000
0100
0000
0101
0000
0001
1000
,  // measure 43
0010
1000
0001
0010
,  // measure 44
0100
0000
1000
0000
1100
0000
0100
0010
,  // measure 45
0001
1001
0001
0100
,  // measure 46
0001
0000
1000
0000
0010
0100
0001
1001
,  // measure 47
0000
0000
1001
0000
1000
0000
0010
1000
,  // measure 48
0100
0000
0010
0000
0001
0000
0010
0011
,  // measure 49
0000
0011
0010
0001
,  // measure 50
0100
0000
0001
0000
1000
0000
0010
0110
,  // measure 51
0000
0110
0100
0010
,  // measure 52
0100
0000
0001
0000
1000
0100
0010
1001
,  // measure 53
0000
1001
0000
0000
,  // measure 54
0000
0000
0000
0000
0000
0000
0000
1001
,  // measure 55
0000
1001
0000
0000
,  // measure 56
0000
0000
0000
0000
0000
0000
0000
1001
,  // measure 57
0000
1001
0000
0000
,  // measure 58
0001
0100
0010
1000
,  // measure 59
0001
1000
0001
1000
0001
1000
0001
1000
,  // measure 60
0001
1000
0001
1000
0001
1000
0001
0100
,  // measure 61
0010
0100
0001
1000
,  // measure 62
0100
0000
0010
0000
0001
0000
0010
0100
,  // measure 63
1000
0100
1000
0001
,  // measure 64
0100
0000
0010
0000
1000
0000
0001
1000
,  // measure 65
0010
0100
0001
1000
,  // measure 66
0100
0000
0010
0000
0100
0000
0010
0001
,  // measure 67
1000
0010
0100
0001
,  // measure 68
1000
0100
0010
0001
1000
0100
0010
0001
,  // measure 69
1000
0001
0100
0001
,  // measure 70
1000
0000
0010
0000
0100
0000
0001
1000
,  // measure 71
0100
0010
0100
1000
,  // measure 72
0010
0000
0100
0000
0010
0000
0100
0001
,  // measure 73
0010
0100
0010
0001
,  // measure 74
1000
0000
0100
0000
0010
0000
0100
1000
,  // measure 75
0010
0100
0001
1000
,  // measure 76
0001
0100
0010
1000
0100
0001
0000
0000
;

//---------------dance-single - Pandemonium X---------------
#NOTEDATA:;
#CHARTNAME:;
#CHARTSTYLE:;
#CREDIT:Pandemonium X;
#STEPSTYPE:dance-single;
#DESCRIPTION:Pandemonium X;
#DIFFICULTY:Beginner;
#METER:4;
#METERF:4;
#RADARVALUES:0,0,0,0,0;
#NOTES:
// measure 0
0000
0000
0000
0000
,  // measure 1
0000
0000
0000
0000
,  // measure 2
0000
0000
0000
0000
,  // measure 3
0000
0000
0000
0000
,  // measure 4
0000
0000
0000
0000
,  // measure 5
0001
0000
1000
0000
,  // measure 6
0010
0000
0000
0000
,  // measure 7
1000
0000
0001
0000
,  // measure 8
0010
0000
0000
0000
,  // measure 9
0001
0001
0000
1000
,  // measure 10
0100
0000
1000
0000
,  // measure 11
0001
0000
0100
0000
,  // measure 12
0001
0000
0000
0000
,  // measure 13
1000
0000
0001
0000
,  // measure 14
0010
0000
0000
0000
,  // measure 15
0001
0000
1000
0000
,  // measure 16
0100
0000
0000
0000
,  // measure 17
1000
0010
0000
0100
,  // measure 18
0001
0000
1000
0000
,  // measure 19
0001
0000
0010
0000
,  // measure 20
0100
0000
1000
0100
,  // measure 21
1000
0000
0001
0000
,  // measure 22
0100
0000
0000
0000
,  // measure 23
0001
0000
1000
0000
,  // measure 24
0100
0000
0000
0000
,  // measure 25
1000
1000
0001
0000
,  // measure 26
1000
0000
0000
0000
,  // measure 27
0001
0000
1000
0000
,  // measure 28
0010
0000
0000
0000
,  // measure 29
0100
0000
0100
0000
,  // measure 30
0100
0000
0100
0000
,  // measure 31
0010
0000
0010
0000
,  // measure 32
0010
0000
0010
0000
,  // measure 33
1000
0000
1000
0000
,  // measure 34
1000
0000
1000
0000
,  // measure 35
0001
0000
0001
0000
,  // measure 36
0001
0000
0000
0000
,  // measure 37
1000
0000
0001
0000
,  // measure 38
1000
0000
0001
0000
,  // measure 39
0100
0000
0010
0000
,  // measure 40
0100
0000
0010
0000
,  // measure 41
1000
0000
0001
0000
,  // measure 42
1000
0000
0001
0000
,  // measure 43
0010
0000
0100
0000
,  // measure 44
0010
0000
0100
0000
,  // measure 45
1000
1000
1000
0000
,  // measure 46
0001
0000
1000
0000
,  // measure 47
0001
0001
0001
0000
,  // measure 48
0100
0000
0010
0000
,  // measure 49
0100
0100
0100
0000
,  // measure 50
0010
0000
1000
0000
,  // measure 51
0100
0100
0100
0000
,  // measure 52
0010
0000
0001
0000
,  // measure 53
1000
0000
0000
0000
,  // measure 54
0000
0000
0000
0000
,  // measure 55
0001
0000
0000
0000
,  // measure 56
0000
0000
0000
0000
,  // measure 57
1000
0000
0000
0000
,  // measure 58
0001
0000
1000
0000
,  // measure 59
0001
1000
0001
1000
,  // measure 60
0001
1000
0001
0010
,  // measure 61
0010
0000
0000
0000
,  // measure 62
0000
0000
0000
0100
,  // measure 63
0100
0000
0000
0000
,  // measure 64
0000
0000
0000
1000
,  // measure 65
1000
0000
0000
0000
,  // measure 66
0000
0000
0000
0001
,  // measure 67
0001
0000
1000
0000
,  // measure 68
0010
0000
0100
0001
,  // measure 69
1000
0000
0001
0000
,  // measure 70
0100
0000
0010
0000
,  // measure 71
1000
0000
0001
0000
,  // measure 72
0010
0000
0001
0000
,  // measure 73
1000
0000
0100
0000
,  // measure 74
1000
0000
0001
0000
,  // measure 75
0100
0000
0010
0000
,  // measure 76
1000
0000
1001
0000
;

//---------------dance-single - Pandemonium X---------------
#NOTEDATA:;
#CHARTNAME:;
#CHARTSTYLE:;
#CREDIT:Pandemonium X;
#STEPSTYPE:dance-single;
#DESCRIPTION:Pandemonium X;
#DIFFICULTY:Medium;
#METER:11;
#METERF:11;
#RADARVALUES:0,0,0,0,0;
#NOTES:
// measure 0
0000
0000
0000
0000
,  // measure 1
0000
0000
0000
0000
,  // measure 2
0000
0000
0000
0000
,  // measure 3
0000
0000
0000
0000
,  // measure 4
0000
0000
0000
0000
0000
0000
0001
0001
,  // measure 5
0001
1000
0010
1000
,  // measure 6
0001
0010
0100
1000
,  // measure 7
0001
1000
0100
1000
,  // measure 8
0001
0000
0100
0000
0010
0000
1000
0001
,  // measure 9
0000
0001
1000
0000
0100
0000
0010
0000
,  // measure 10
0100
1000
0001
0100
,  // measure 11
0010
0100
0001
1000
,  // measure 12
0100
0000
0000
0010
0001
0100
0000
0010
,  // measure 13
0010
0100
0001
1000
,  // measure 14
0010
1000
0001
0010
,  // measure 15
0100
1100
0100
0010
,  // measure 16
0001
0000
0100
0000
0010
0000
1000
1001
,  // measure 17
0000
1001
0001
0100
,  // measure 18
0001
1000
0100
0010
,  // measure 19
0001
0101
0100
0010
,  // measure 20
1000
0000
0001
0000
0010
0000
0100
1000
,  // measure 21
0001
0100
1000
0100
,  // measure 22
0001
0001
0001
0001
,  // measure 23
1000
0100
0001
0100
,  // measure 24
1000
0000
1000
0000
1000
0000
1000
1001
,  // measure 25
0000
0001
1001
0000
1000
0000
0010
0000
,  // measure 26
0100
0100
0100
0100
,  // measure 27
0010
0001
0010
1000
,  // measure 28
0001
0000
0000
0000
,  // measure 29
0001
0100
0010
1000
,  // measure 30
0100
0000
0010
0000
0001
0000
0010
0001
,  // measure 31
1000
0010
1000
0001
,  // measure 32
0010
0000
0100
0000
1000
0000
0001
1000
,  // measure 33
0100
1000
0001
0100
,  // measure 34
0010
0000
1000
0000
0001
0000
0100
0001
,  // measure 35
1000
0100
0010
0100
,  // measure 36
0000
0000
0000
0100
1000
0010
0000
0000
,  // measure 37
0100
0001
1000
0000
0001
0000
1000
0000
,  // measure 38
0100
0000
0010
0100
1000
0001
0100
0010
,  // measure 39
0100
0001
1000
0010
,  // measure 40
1000
0000
0100
0010
0001
1000
0010
0100
,  // measure 41
0010
1000
0001
0010
,  // measure 42
0001
0000
1000
0010
1000
0001
0010
0100
,  // measure 43
1000
0100
1000
0010
,  // measure 44
0100
0000
0001
1000
0010
0100
0001
1000
,  // measure 45
0100
1000
0010
0000
0100
0001
1000
0000
,  // measure 46
0001
0000
1000
0000
0010
1000
0100
0110
,  // measure 47
0000
1000
1001
0000
1000
0100
1000
0000
,  // measure 48
0100
0000
1000
0000
0010
0000
0100
0101
,  // measure 49
0000
0001
0101
0000
0001
0000
0100
0010
,  // measure 50
1000
0000
0001
0000
0010
0000
0100
1100
,  // measure 51
0000
1000
1100
0000
0100
0000
1000
0001
,  // measure 52
0100
0010
0100
0010
0100
0010
0100
0010
,  // measure 53
1001
1000
0000
0000
,  // measure 54
0000
0000
0000
0000
0000
0000
0000
0001
,  // measure 55
0000
0001
0000
0000
,  // measure 56
0000
0000
0000
0000
,  // measure 57
1000
0010
0100
0001
,  // measure 58
1000
0010
0100
0001
,  // measure 59
1000
0000
0100
0000
0010
0000
0001
0000
0010
0000
0100
0000
1000
0000
0001
0100
,  // measure 60
0000
0001
0100
0000
0010
0000
1000
0000
0100
0000
0010
0000
0001
0000
0001
0000
,  // measure 61
0001
1000
0010
1000
,  // measure 62
0100
0000
0010
0000
0001
0000
0100
0100
,  // measure 63
0100
0010
1000
0001
,  // measure 64
0010
0000
0001
0000
1000
0000
0100
0100
,  // measure 65
0100
0010
0100
1000
,  // measure 66
0001
0000
0100
0000
0001
0000
1000
1000
,  // measure 67
1000
0000
0001
0000
1000
0000
0001
0000
1000
0000
0001
0000
1000
0000
0001
1000
,  // measure 68
0000
0001
0100
0000
0010
0000
0100
0000
0001
0000
0010
0000
0100
0000
0100
0000
,  // measure 69
0100
0010
0001
0000
0010
0001
0100
0000
,  // measure 70
0010
0100
0001
0000
0100
0010
1000
1000
,  // measure 71
1000
0100
0010
0000
0100
1000
0001
0000
,  // measure 72
0100
0010
1000
0000
0010
0100
0001
0001
,  // measure 73
0001
0010
0100
0000
0010
0100
1000
0000
,  // measure 74
0100
0010
0001
0000
0010
0001
0100
0100
,  // measure 75
0100
0010
1000
0001
0010
0100
0010
0001
,  // measure 76
1000
0010
0100
0001
1001
1000
0000
0000
;
