#VERSION:0.83;
#TITLE:rumrum triplets;
#SUBTITLE:;
#ARTIST:yu_tokiwa.djw;
#TITLETRANSLIT:;
#SUBTITLETRANSLIT:;
#ARTISTTRANSLIT:;
#GENRE:;
#CREDIT:;
#MUSIC:rumrum triplets.ogg;
#BANNER:banner.png;
#BACKGROUND:background.png;
#JACKET:;
#DISCIMAGE:;
#CDIMAGE:;
#SELECTABLE:YES;
#LYRICSPATH:;
#CDTITLE:cdtitle.png;
#SAMPLESTART:66.036;
#SAMPLELENGTH:20.182;
#OFFSET:0.974;
#BPMS:0.000000=192.000000;
#STOPS:;
#WARPS:;
#DELAYS:;
#SPEEDS:;
#SCROLLS:;
#TICKCOUNTS:;
#TIMESIGNATURES:;
#LABELS:;
#COMBOS:;
#FAKES:;
#BGCHANGES:;
#FGCHANGES:;
#ATTACKS:;

//---------------dance-single - ---------------
#NOTEDATA:;
#CHARTNAME:;
#CHARTSTYLE:;
#CREDIT:Pandemonium X;
#STEPSTYPE:dance-single;
#DESCRIPTION:;
#DIFFICULTY:Beginner;
#METER:6;
#METERF:6;
#RADARVALUES:0,0,0,0,0;
#NOTES:
// measure 0
0000
0000
0000
0000
,  // measure 1
0000
0000
0000
0000
,  // measure 2
0000
0000
0000
0000
,  // measure 3
0000
0000
0000
0000
,  // measure 4
0000
0000
0000
0000
,  // measure 5
0001
0000
0000
0000
,  // measure 6
1000
0000
0000
0000
,  // measure 7
0001
0000
0000
0000
,  // measure 8
1000
0000
0000
0000
,  // measure 9
0010
0000
0000
0010
0000
0000
0010
0000
,  // measure 10
0000
0010
0000
0000
0010
0000
0010
0000
,  // measure 11
0000
0100
0000
0000
0100
0000
0000
0100
,  // measure 12
0000
0000
0000
0000
,  // measure 13
0000
0000
0000
0000
,  // measure 14
0001
0000
0000
0000
,  // measure 15
0000
0000
0000
0000
,  // measure 16
1000
0000
0000
0000
,  // measure 17
0000
0000
0000
0000
,  // measure 18
0010
0000
0010
0000
,  // measure 19
0100
0000
0100
0000
,  // measure 20
0001
0000
0001
0000
,  // measure 21
1000
0000
0000
0001
,  // measure 22
0001
0000
1000
1000
,  // measure 23
0000
0000
0000
0010
,  // measure 24
0010
0000
0100
0100
,  // measure 25
0000
0000
0000
0000
,  // measure 26
0010
0000
0100
0000
,  // measure 27
0001
0000
1000
0000
,  // measure 28
0001
0000
1000
0000
,  // measure 29
0100
0000
0010
0000
,  // measure 30
0000
0000
0000
0000
,  // measure 31
0000
0000
0000
0000
,  // measure 32
0001
0000
0000
0000
,  // measure 33
0000
0000
2000
0000
,  // measure 34
3100
0000
0100
0000
,  // measure 35
0010
0000
0010
0000
,  // measure 36
0001
0000
0001
0000
,  // measure 37
1000
0000
0001
0000
,  // measure 38
0200
0300
0020
0030
,  // measure 39
2000
3000
0002
0003
,  // measure 40
2000
3000
0200
0300
,  // measure 41
0020
0030
0002
0003
,  // measure 42
2000
0000
3100
0000
,  // measure 43
2000
0000
3001
0000
,  // measure 44
2000
0000
3010
0000
,  // measure 45
1000
0000
0001
0000
,  // measure 46
2002
0000
0000
0000
,  // measure 47
0000
0000
0000
3003
,  // measure 48
0002
0000
0000
0000
,  // measure 49
0000
0000
0003
0000
,  // measure 50
0200
0000
0000
0000
,  // measure 51
0000
0000
0000
0300
,  // measure 52
0010
0000
0100
0000
,  // measure 53
0001
1000
0000
0100
,  // measure 54
0200
0000
0000
0000
,  // measure 55
0300
0010
0001
0010
,  // measure 56
0002
0000
0000
0000
,  // measure 57
0003
0000
0000
1000
,  // measure 58
0001
0000
1000
0000
,  // measure 59
0010
0000
1000
0001
,  // measure 60
0000
1000
0000
0100
,  // measure 61
1000
0100
0010
0001
,  // measure 62
2000
0000
0000
3000
,  // measure 63
0002
0000
0000
0003
,  // measure 64
1001
0000
0110
0000
,  // measure 65
1001
0000
0000
0110
0000
0000
0000
0000
,  // measure 66
1000
1000
1000
0000
,  // measure 67
0001
0001
0001
0000
,  // measure 68
1000
0000
0001
0000
,  // measure 69
0100
0000
0000
0000
,  // measure 70
0020
0000
0030
0000
,  // measure 71
0100
0000
0000
0000
,  // measure 72
0002
0000
0000
0000
,  // measure 73
0003
0000
0000
0000
,  // measure 74
1000
0001
0000
0000
,  // measure 75
0000
0000
0000
0000
,  // measure 76
0000
0000
0000
0000
,  // measure 77
0000
0000
0000
0000
,  // measure 78
0000
0000
0000
1000
,  // measure 79
0001
0100
0000
0001
,  // measure 80
0000
1000
0000
0100
,  // measure 81
0000
1000
0000
0001
,  // measure 82
1000
0000
0001
0100
,  // measure 83
0001
0000
1000
0000
,  // measure 84
0100
0000
0010
0010
,  // measure 85
0010
0000
0100
0000
,  // measure 86
1000
0000
0001
0001
,  // measure 87
0001
0000
1000
0000
,  // measure 88
0001
0000
0100
0000
,  // measure 89
0010
0000
0100
0000
,  // measure 90
0001
0000
1000
0001
,  // measure 91
0200
0000
0000
0000
,  // measure 92
0000
0000
0000
0000
,  // measure 93
0310
0000
0100
0000
,  // measure 94
0001
0000
1000
0000
,  // measure 95
0001
0000
0010
0000
,  // measure 96
0001
0000
1000
0000
,  // measure 97
0100
0000
0010
0000
,  // measure 98
0001
0000
0000
0200
0000
0000
0000
0000
,  // measure 99
0000
0000
0000
0000
,  // measure 100
0300
0000
0000
0000
;

//---------------dance-single - ---------------
#NOTEDATA:;
#CHARTNAME:;
#CHARTSTYLE:;
#CREDIT:Pandemonium X;
#STEPSTYPE:dance-single;
#DESCRIPTION:;
#DIFFICULTY:Easy;
#METER:9;
#METERF:9;
#RADARVALUES:0,0,0,0,0;
#NOTES:
// measure 0
0000
0000
0000
0000
,  // measure 1
0000
0000
0000
0000
,  // measure 2
0000
0000
0000
0000
,  // measure 3
0000
0000
0000
0000
,  // measure 4
0000
0000
0000
0000
,  // measure 5
0001
0100
0001
0101
,  // measure 6
1000
0100
1000
1100
,  // measure 7
0001
0100
0001
0101
,  // measure 8
1000
0100
1000
1100
,  // measure 9
1000
0000
0000
0001
0000
0000
0100
0000
,  // measure 10
0000
0010
0000
0000
1000
0000
0010
0000
,  // measure 11
0000
0100
0001
0000
0010
0100
0000
2000
,  // measure 12
0000
0000
0000
0000
,  // measure 13
0000
0002
0000
0000
0000
0000
3003
0000
,  // measure 14
1000
0000
0000
0000
0000
0001
0100
0010
,  // measure 15
0000
0000
0000
0100
,  // measure 16
0010
0000
0000
0000
1000
0010
1000
0100
,  // measure 17
0000
0000
0000
0000
,  // measure 18
0010
0010
0001
0001
,  // measure 19
1000
1000
0100
0100
,  // measure 20
0010
0100
1000
0001
,  // measure 21
0100
0001
1000
0001
,  // measure 22
0010
0001
0100
0010
,  // measure 23
1000
0100
1000
0001
,  // measure 24
1000
0001
0010
0001
,  // measure 25
0100
0010
0001
0010
,  // measure 26
0100
0001
0010
0100
,  // measure 27
0010
0100
1000
0100
,  // measure 28
0010
0001
0000
0100
0000
0001
0000
1000
,  // measure 29
0000
0000
0001
0200
0000
0000
0000
0000
,  // measure 30
0310
0000
0000
0000
,  // measure 31
0000
0000
0000
0000
,  // measure 32
1000
0001
1000
0001
,  // measure 33
1000
0001
0220
0330
,  // measure 34
0001
0001
0001
0001
,  // measure 35
1000
1000
1000
1000
,  // measure 36
0010
0010
0010
0010
,  // measure 37
0100
1000
0100
0001
,  // measure 38
0200
0301
0002
0013
,  // measure 39
0200
1300
2000
3001
,  // measure 40
0200
0310
0020
1030
,  // measure 41
0200
0000
0310
0000
0020
0000
0031
1000
,  // measure 42
0001
0000
0000
0001
0100
0000
0000
0100
,  // measure 43
0010
0000
0000
0010
1000
0000
0000
1000
,  // measure 44
0100
0000
0000
0100
0010
0000
0000
0010
,  // measure 45
0001
0010
0001
0100
,  // measure 46
0010
0000
0100
0000
0000
0001
0000
0000
,  // measure 47
1000
0000
0000
0100
0000
0000
0010
0000
,  // measure 48
0000
0000
0100
0000
0000
1000
0000
0000
,  // measure 49
0001
0000
0000
1000
0000
0000
0010
0000
,  // measure 50
0200
0000
0000
0000
,  // measure 51
0000
0000
0000
0000
,  // measure 52
0310
0100
0001
1000
,  // measure 53
0010
0100
0001
2000
0000
0000
0000
0000
,  // measure 54
3100
1000
1000
0001
,  // measure 55
0100
0010
1000
0001
,  // measure 56
0010
0010
0100
0010
,  // measure 57
0001
1000
1000
0001
,  // measure 58
0100
0001
1000
0100
,  // measure 59
1000
0001
0010
0100
,  // measure 60
0000
0010
0001
0100
,  // measure 61
0010
1000
0001
0100
,  // measure 62
0002
0000
0000
0103
,  // measure 63
0020
0000
0000
0130
,  // measure 64
0101
0000
1001
0000
,  // measure 65
1000
0100
0010
0011
0000
0000
0000
0000
,  // measure 66
0010
0001
0010
0000
,  // measure 67
0100
1000
0100
0000
,  // measure 68
1000
0001
0100
0010
,  // measure 69
0200
0000
0000
0300
,  // measure 70
0002
0000
0000
0000
0003
0100
0001
2000
,  // measure 71
0000
0000
3000
0000
0000
0001
0010
0200
,  // measure 72
0000
0000
0000
0000
,  // measure 73
1300
0000
0001
0000
,  // measure 74
0100
0000
0010
0000
,  // measure 75
0000
0000
0000
0000
,  // measure 76
0000
0000
0000
0000
,  // measure 77
0000
0000
0000
0000
,  // measure 78
0000
0000
0000
2000
,  // measure 79
3002
0103
0001
1000
,  // measure 80
0010
0100
0001
1000
,  // measure 81
0100
0010
0100
1000
,  // measure 82
0001
0100
0010
1000
,  // measure 83
0001
1000
0100
0010
,  // measure 84
0100
1000
0001
0001
,  // measure 85
0001
0000
0100
0001
,  // measure 86
1000
0010
1000
0100
,  // measure 87
0000
0010
0100
1000
,  // measure 88
0010
0100
0001
0010
,  // measure 89
0000
0100
0010
0001
,  // measure 90
2000
0000
3001
0100
,  // measure 91
0010
1000
0010
0100
,  // measure 92
0001
0010
0100
0010
,  // measure 93
0001
1000
0100
0010
,  // measure 94
0100
1000
0001
0100
,  // measure 95
0001
1000
0010
1000
,  // measure 96
0001
0010
0001
1000
,  // measure 97
0001
0100
0010
1000
,  // measure 98
0001
0100
0010
0200
0000
0000
0000
0000
,  // measure 99
0000
0000
0000
0000
,  // measure 100
0300
0000
0000
0000
;

//---------------dance-single - ---------------
#NOTEDATA:;
#CHARTNAME:;
#CHARTSTYLE:;
#CREDIT:Pandemonium X;
#STEPSTYPE:dance-single;
#DESCRIPTION:;
#DIFFICULTY:Medium;
#METER:13;
#METERF:13;
#RADARVALUES:0,0,0,0,0;
#NOTES:
// measure 0
0000
0000
0000
0000
,  // measure 1
0000
0000
0000
0000
,  // measure 2
0000
0000
0000
0000
,  // measure 3
0002
0000
0000
1000
2000
0000
0003
0000
,  // measure 4
3001
0010
0001
0000
1000
0000
0001
0000
,  // measure 5
0201
0001
0010
0310
,  // measure 6
1020
1000
0100
0130
,  // measure 7
2001
0001
0100
3100
,  // measure 8
1002
1000
0100
0103
,  // measure 9
0001
0001
0000
1000
1000
0000
0010
0010
,  // measure 10
0000
0100
0100
0000
0001
0100
0010
1000
,  // measure 11
0000
0001
0001
0000
1000
1000
0000
0220
,  // measure 12
0000
0000
0000
0330
,  // measure 13
0000
0000
0000
0004
0000
4000
0000
0000
0000
0000
0000
0000
0000
0000
0000
0000
0000
0000
0003
0000
0000
3000
0000
0000
,  // measure 14
0001
0000
0000
0000
0000
0001
0100
0010
,  // measure 15
0000
0000
0000
0000
0000
0000
0010
1000
,  // measure 16
0100
0000
0000
0000
0100
0010
0100
1000
,  // measure 17
0000
0000
0000
0000
,  // measure 18
0001
0001
1000
1000
,  // measure 19
0010
0010
0100
0100
,  // measure 20
0001
0100
0010
1000
,  // measure 21
0001
0000
1000
0100
0010
0001
1000
0010
,  // measure 22
1000
0001
0010
0001
1000
0000
0001
0000
,  // measure 23
0010
0001
1000
0001
0100
0000
0001
0000
,  // measure 24
1000
0100
0010
0100
1000
0000
0001
0000
,  // measure 25
0100
0010
0100
0001
0010
0000
0100
0000
,  // measure 26
2000
3100
0200
0310
,  // measure 27
0020
0031
0002
1003
,  // measure 28
1000
0001
0000
0100
0000
0010
0000
2000
,  // measure 29
0000
0000
0001
0002
0000
0000
0000
0000
,  // measure 30
3003
0000
0000
0000
,  // measure 31
0000
0000
0000
0000
0000
0000
0000
0000
0000
0000
0000
0000
1000
0001
1000
0000
,  // measure 32
0001
0001
1000
1000
,  // measure 33
0010
0010
0202
0003
,  // measure 34
0310
0000
0000
1000
0100
0000
0000
0100
0010
0000
0000
0010
0001
0000
1000
0000
,  // measure 35
0010
0000
0000
0010
0100
0000
0000
0100
0001
0000
0000
0001
1000
0000
0001
0000
,  // measure 36
0100
0000
0000
0100
0010
0000
0000
0010
1000
0000
0000
1000
0001
0000
0010
0000
,  // measure 37
0100
0000
0000
0100
0010
0000
0000
0001
1000
0000
0000
0010
0100
0000
0000
0000
,  // measure 38
0002
0013
0020
0031
,  // measure 39
0002
0103
0002
1003
,  // measure 40
2000
3001
0020
0130
,  // measure 41
2000
0000
3100
0000
0020
0000
0031
1000
,  // measure 42
0100
0000
0010
0001
1000
0000
0010
0100
,  // measure 43
0001
0000
0010
0100
1000
0000
0100
0010
,  // measure 44
0001
0000
0010
0001
1000
0000
0010
1000
,  // measure 45
0001
0000
1000
0000
0001
0100
0010
1000
,  // measure 46
0001
0100
0100
0000
0010
0010
0000
1000
,  // measure 47
1000
0000
0001
0001
0000
1000
1000
0000
,  // measure 48
0000
0001
0001
0000
0010
0010
0000
0100
,  // measure 49
0100
0000
1000
1000
0000
0100
0100
0000
,  // measure 50
2000
0001
0001
0001
,  // measure 51
0001
0001
0001
0001
,  // measure 52
3001
0100
0010
1000
0001
0010
1000
0010
,  // measure 53
0001
0100
0010
0002
0000
0013
1000
0100
,  // measure 54
0020
0001
0001
0100
,  // measure 55
0130
0020
0032
0203
,  // measure 56
0320
0000
1000
0000
1000
0000
0130
0010
,  // measure 57
0100
0000
0010
0100
0010
0000
1000
0000
,  // measure 58
0001
0000
0010
0010
0000
0100
0100
0000
,  // measure 59
1000
1000
0000
0001
1000
0010
0100
0000
,  // measure 60
0000
0000
0001
0001
0000
1000
1000
0000
,  // measure 61
0100
0010
0001
0010
0100
1000
0100
0010
,  // measure 62
0002
0000
0100
0000
1003
0100
0010
0001
,  // measure 63
0020
0000
0001
0000
0130
0000
0010
0001
,  // measure 64
0100
0010
0000
0100
0001
1000
0000
0000
,  // measure 65
1001
0000
0010
0100
0010
0000
1001
0000
0000
0000
0001
0000
0010
0000
0001
0000
,  // measure 66
0010
0000
0100
1000
0100
0000
1000
0000
,  // measure 67
0001
0000
1000
0010
1000
0000
0010
0000
,  // measure 68
0100
0001
0000
2000
0000
3200
0000
0020
,  // measure 69
0000
0000
0330
0000
,  // measure 70
2100
0000
0000
0000
0000
3100
0010
0001
,  // measure 71
0000
0000
0000
0000
0000
0010
0002
2000
,  // measure 72
0000
0000
0000
0000
,  // measure 73
3003
0000
0000
0000
,  // measure 74
0001
0100
0010
2000
0000
0000
0000
0000
,  // measure 75
3000
0000
0000
0000
,  // measure 76
0000
0000
0000
0000
,  // measure 77
0000
0000
0000
0000
,  // measure 78
0000
0000
0000
0002
,  // measure 79
2003
3100
0010
0100
,  // measure 80
1000
0010
0100
0001
,  // measure 81
0011
0010
0001
0100
,  // measure 82
0110
0000
0100
0010
1000
0001
0010
0001
,  // measure 83
1000
0000
0100
0000
1000
0010
0100
0001
,  // measure 84
0000
0000
0010
0000
0100
0010
0001
0100
,  // measure 85
0010
0000
1000
0100
0010
0001
1000
0001
,  // measure 86
0000
0000
1000
0001
1000
0100
0010
0001
,  // measure 87
0000
0000
1000
0001
0010
0001
1000
0001
,  // measure 88
0000
0100
0000
0002
0000
0000
1000
1003
,  // measure 89
0000
0000
0100
0010
0100
1000
0010
0200
,  // measure 90
0000
0000
0000
0000
0310
0100
0001
1000
,  // measure 91
0100
0010
0001
0100
,  // measure 92
0001
1000
0001
1000
0001
1000
0004
4000
,  // measure 93
0000
0000
0000
0000
0003
0000
0000
0000
0000
3000
0000
0000
0001
0000
0000
0100
0000
0000
0010
0000
0000
1000
0000
0000
,  // measure 94
0100
0000
0000
0100
0000
0000
0010
0000
0000
0010
0000
0000
0001
0000
1000
0000
,  // measure 95
0001
0000
0100
0000
0010
0000
1000
0000
0001
0000
0000
0010
0000
0000
0001
0000
,  // measure 96
1000
0001
0010
0001
1000
0010
0100
0001
,  // measure 97
1000
0100
0010
0100
1000
0001
0010
0100
,  // measure 98
0010
0001
1000
2002
0000
0000
0000
0000
,  // measure 99
0000
0000
0000
0000
,  // measure 100
3003
0000
0000
0000
;

//---------------dance-single - ---------------
#NOTEDATA:;
#CHARTNAME:;
#CHARTSTYLE:;
#CREDIT:Pandemonium X;
#STEPSTYPE:dance-single;
#DESCRIPTION:;
#DIFFICULTY:Hard;
#METER:17;
#METERF:17;
#RADARVALUES:0,0,0,0,0;
#NOTES:
// measure 0
0000
0000
0000
0000
,  // measure 1
0000
0000
0000
0000
,  // measure 2
0000
0000
0000
0000
,  // measure 3
0002
0000
0000
0010
0023
0000
0000
0000
,  // measure 4
0130
0001
0100
0000
1100
0000
1001
0000
,  // measure 5
0201
0010
0301
0101
,  // measure 6
1020
0100
1030
1010
,  // measure 7
2100
0001
3100
0011
,  // measure 8
0201
0010
0301
1010
,  // measure 9
1000
0001
1000
0000
0001
0000
0100
0010
0100
0000
0010
0000
1000
0100
1000
0000
,  // measure 10
0001
0000
0010
0001
0010
0000
0100
0000
1000
0100
1000
0100
0010
0001
0010
0001
,  // measure 11
1000
1010
0101
0001
0011
1100
1000
2002
,  // measure 12
0000
0000
0000
3003
,  // measure 13
0000
0000
0000
0002
0003
2000
3000
0020
0030
0200
0300
0002
0003
2000
3000
0002
0003
0020
0000
0000
0000
0000
0000
0000
,  // measure 14
0130
0000
0000
0000
0100
0001
0100
1000
,  // measure 15
0000
0000
0000
0000
0000
0000
0001
0010
,  // measure 16
0001
0000
0000
0000
0100
1000
0100
0001
,  // measure 17
0000
0000
0000
0000
,  // measure 18
1000
0001
1000
0001
,  // measure 19
0010
0100
0010
0100
,  // measure 20
1000
0000
0100
0000
0010
0001
1000
0010
,  // measure 21
0200
0000
0000
0000
0301
1000
0001
1000
0010
0100
0010
0100
0001
1000
0001
0010
,  // measure 22
0100
1000
0001
0100
0010
1000
0001
0010
,  // measure 23
0000
0100
0001
0100
1000
0000
1000
0001
,  // measure 24
0100
0010
0001
0010
1000
0010
0100
0010
,  // measure 25
1000
0100
0001
0100
1000
0000
1000
0000
,  // measure 26
0002
0000
0103
0000
0010
1000
0001
0010
,  // measure 27
0000
0100
0000
0001
0000
0000
0100
0000
,  // measure 28
1000
1100
0000
0101
0000
1100
0000
1002
,  // measure 29
0000
0000
1000
2000
0000
0000
0000
0000
,  // measure 30
3003
0000
0000
0000
,  // measure 31
0000
0000
0000
0000
0000
0000
0000
0000
0000
0000
0000
0000
0001
0010
0100
0000
,  // measure 32
0010
0010
0001
0001
,  // measure 33
1000
1000
0002
0010
,  // measure 34
1003
0000
0001
0100
0001
0000
1000
0100
1000
0000
0001
1000
0001
0000
1000
0000
,  // measure 35
0001
0000
1000
0010
1000
0000
0001
0010
0001
0000
1000
0001
1000
0000
0001
0000
,  // measure 36
0010
0000
0100
0010
0100
0000
1000
0100
1000
0000
0100
0010
0100
0000
1000
0000
,  // measure 37
1001
0101
1001
1100
,  // measure 38
0200
1000
0320
0001
,  // measure 39
0230
0001
2300
0001
,  // measure 40
3020
1000
0230
0001
,  // measure 41
0320
0000
1000
0000
0230
0000
0301
0010
,  // measure 42
0001
0000
0001
1000
0100
0000
0100
0010
,  // measure 43
0001
0000
0001
1000
0100
0000
0100
1000
,  // measure 44
0001
0000
0001
1000
0100
0000
0100
0010
,  // measure 45
0001
0000
1000
0000
0001
0001
0010
0002
,  // measure 46
0000
0100
0100
0000
1000
1000
0000
0010
,  // measure 47
0010
0000
1000
1000
0000
0100
0103
0010
,  // measure 48
2000
0001
0001
0000
0100
0100
0000
0010
,  // measure 49
0010
0000
0001
0001
0000
0100
3100
0000
,  // measure 50
2000
0000
0000
0000
3001
0010
0001
0000
1000
0100
1000
0000
0001
0010
0001
0000
,  // measure 51
1000
0100
1000
0000
0001
0010
0001
0000
1000
0100
1000
0000
0001
0010
0001
0000
,  // measure 52
1000
0100
1000
0100
0010
0001
0010
0001
0100
0010
1000
0001
0010
0001
1000
0010
,  // measure 53
0100
0001
0010
0001
1000
0000
0020
0000
0000
0000
0130
0000
1000
0000
0100
0000
,  // measure 54
0001
0000
0000
0001
1000
0000
0000
1000
0100
0000
0000
0100
0010
0000
0100
0000
,  // measure 55
1000
0000
0000
0100
0010
0000
0000
0010
0001
0000
0000
0001
0100
0000
0001
0000
,  // measure 56
1000
0000
0000
0010
0100
0000
0000
0100
0001
0000
0000
0001
1000
0000
0100
0000
,  // measure 57
1000
0000
0010
0000
0100
0010
1000
0001
0010
0000
0100
0000
0010
0000
0001
0000
,  // measure 58
1000
0000
0000
0000
1000
0100
1000
0000
0000
0000
0001
0100
0001
0000
0000
0000
,  // measure 59
1000
0010
1000
0000
0000
0000
0001
0010
0001
0100
0010
1000
0001
0000
0000
0000
,  // measure 60
1000
0000
0000
0000
0100
0010
0001
0000
0000
0000
0010
0100
1000
0000
0000
0000
,  // measure 61
1001
0000
0001
0100
0010
0000
0010
1000
0100
0000
0100
0010
0001
0000
0001
1000
,  // measure 62
0100
0000
0000
0100
0010
0000
0000
0010
0001
0000
1000
0000
0001
0000
0100
0000
,  // measure 63
0010
0000
0000
0100
0001
0000
0000
0001
1000
0000
0000
1000
0100
0000
0010
0001
,  // measure 64
1000
0000
1010
0000
0000
0000
0010
0100
0001
0000
1001
0000
0000
0000
0000
0000
,  // measure 65
1001
0000
0100
0010
0100
0000
1001
0000
0000
0000
0001
0010
0001
0000
1000
0000
,  // measure 66
0010
0000
0100
0001
0100
0001
1000
0100
0010
0000
0001
0000
0000
0000
0000
0000
,  // measure 67
0001
0000
1000
0100
1000
0100
0010
0001
1000
0000
0010
0000
0000
0000
0000
0000
,  // measure 68
0100
0010
0000
1010
0000
0101
0000
2002
,  // measure 69
0000
0000
3003
0000
,  // measure 70
0001
0100
0001
0100
0001
0100
1000
0100
,  // measure 71
0001
0100
0001
0100
0001
0010
1000
0010
,  // measure 72
0001
0010
0001
0010
0001
0010
0001
0010
,  // measure 73
0200
0000
0000
0000
,  // measure 74
0320
0032
2003
0002
0000
0M00
00M0
0M00
,  // measure 75
3003
0000
0000
0000
00M0
0M00
000M
M000
,  // measure 76
0000
0M00
00M0
0M00
,  // measure 77
M000
0000
0000
0000
000M
0M00
00M0
0M00
,  // measure 78
0000
0000
0000
0002
,  // measure 79
2003
0000
3100
0100
0010
0001
1000
0010
,  // measure 80
0000
0010
0000
0200
0000
0000
0301
0000
,  // measure 81
0000
0001
1000
1000
0001
0010
0001
1000
,  // measure 82
0100
0000
0000
0000
0010
0001
1000
0100
0010
0001
1000
0100
1000
0100
0010
0001
,  // measure 83
1000
0000
0010
0000
0100
0000
0001
0000
1000
0100
0010
0001
1000
0000
0100
0000
,  // measure 84
0010
0000
0100
0000
1000
0000
0001
0000
0100
0001
1000
0010
1000
0000
0001
0000
,  // measure 85
1000
0000
0100
0000
1000
0001
0100
0001
1000
0100
1000
0000
0001
0000
0100
0000
,  // measure 86
0001
0000
1000
0000
0010
0100
0010
1000
0001
0010
0100
1000
0001
0000
1000
0000
,  // measure 87
0000
0000
0001
1000
0010
0100
0001
1000
,  // measure 88
0000
1100
0000
0012
0000
0000
1003
1001
,  // measure 89
0000
0000
1000
0100
0010
0100
2000
0002
,  // measure 90
0000
0000
3003
0000
2000
3020
0230
0302
,  // measure 91
1003
0000
0010
1000
0000
0001
0010
0001
1000
0000
0001
1000
0100
0010
0100
0010
,  // measure 92
0001
2000
0000
3001
2000
0000
3100
0020
0000
0130
2000
0000
3002
0023
0032
0023
,  // measure 93
0032
1003
0100
0010
0100
1000
0001
1000
0001
0100
0001
1000
0100
0010
0001
1000
,  // measure 94
0001
0000
0100
0010
0000
1000
0001
1000
0001
1000
0010
1000
0001
0010
0001
1000
,  // measure 95
0002
0000
2003
0000
3100
0010
0100
1000
0001
0020
0000
0031
1000
0001
2000
0000
,  // measure 96
3100
0010
0100
1000
0002
0000
1003
0100
0010
0001
0010
0001
1000
0010
1000
0001
,  // measure 97
1000
0100
0010
0001
1000
0010
0100
0001
1000
0100
0010
0001
1000
0010
0100
0001
,  // measure 98
1000
0100
1000
0001
1000
0020
0200
0000
0000
0000
0000
0000
0000
0000
0000
0000
,  // measure 99
0000
0000
0000
0000
,  // measure 100
0330
0000
0000
0000
;

//---------------dance-double - ---------------
#NOTEDATA:;
#CHARTNAME:;
#CHARTSTYLE:;
#CREDIT:Pandemonium X;
#STEPSTYPE:dance-double;
#DESCRIPTION:;
#DIFFICULTY:Easy;
#METER:8;
#METERF:8;
#RADARVALUES:0,0,0,0,0;
#NOTES:
// measure 0
00000000
00000000
00000000
00000000
,  // measure 1
00000000
00000000
00000000
00000000
,  // measure 2
00000000
00000000
00000000
00000000
,  // measure 3
00000000
00000000
00000000
00000000
,  // measure 4
00000000
00000000
00000000
00000000
,  // measure 5
10000000
00010000
10000000
00100000
,  // measure 6
10000000
00010000
10000000
00100000
,  // measure 7
10000000
00010000
10000000
00100000
,  // measure 8
10000000
00010000
10000000
00100000
,  // measure 9
01000000
00000000
00000000
00010000
00000000
00000000
00100000
00000000
,  // measure 10
00000000
00001000
00000000
00000000
00010000
00000000
00001000
00000000
,  // measure 11
00000000
00010000
00010000
00000000
00000100
00000100
00000000
00002000
,  // measure 12
00000000
00000000
00000000
00000000
,  // measure 13
00000000
00000002
00000000
00000000
00000000
00000000
00003003
00000000
,  // measure 14
00001000
00000000
00000000
00000000
00000000
00000000
00000000
00000001
,  // measure 15
00000000
00000000
00000000
00000000
,  // measure 16
00000100
00000000
00000010
00000000
,  // measure 17
00000000
00000000
00000000
00000000
,  // measure 18
00000100
00000000
00000010
00000000
,  // measure 19
00001000
00000000
00000100
00000000
,  // measure 20
00000010
00000000
00000001
00001000
,  // measure 21
00000200
00000000
00000300
00001000
,  // measure 22
00000100
00000000
00010000
00001000
,  // measure 23
01000000
00000000
00000000
00010000
,  // measure 24
00100000
00000000
00010000
01000000
,  // measure 25
00001000
00000000
00000000
00000000
,  // measure 26
00010000
00000000
00001000
00000000
,  // measure 27
01000000
00000000
00100000
00000000
,  // measure 28
01000000
00000000
00000000
00100000
00000000
10000000
00000000
00010000
,  // measure 29
00000000
00000000
00000000
20000000
00000000
00000000
00000000
00000000
,  // measure 30
30000000
00000000
00000000
00000000
,  // measure 31
00000000
00000000
00000000
00000000
,  // measure 32
00010000
10000000
00010000
10000000
,  // measure 33
00010000
10000000
02200000
03300000
,  // measure 34
00010000
00010000
01000000
01000000
,  // measure 35
00001000
00001000
00010000
00010000
,  // measure 36
00000100
00000100
00001000
00001000
,  // measure 37
00000010
00000001
00000010
00001000
,  // measure 38
00000002
00000203
00000002
00000303
,  // measure 39
00002000
00003020
00002000
00003030
,  // measure 40
00000020
00000000
00020030
00000000
,  // measure 41
00032000
00000000
02003000
00000000
,  // measure 42
03010000
00000000
10000000
00000000
,  // measure 43
01000000
00000000
10000000
00000000
,  // measure 44
00010000
00000000
01000000
00000000
,  // measure 45
00010000
01000000
00001000
00010000
,  // measure 46
00000100
00001000
00000010
00000100
,  // measure 47
00000001
00000010
00000100
00000010
,  // measure 48
00000000
00000100
00000010
00000001
,  // measure 49
00000100
00000010
00001000
00000100
,  // measure 50
00020000
00000000
00000000
00000000
,  // measure 51
00000000
00000000
00000000
00000000
,  // measure 52
00031000
00010000
00001000
00010000
,  // measure 53
00001000
00010000
00001000
02000000
00000000
00000000
03000000
00000000
,  // measure 54
00200000
00000000
00000000
00000000
,  // measure 55
00300000
01000000
10000000
01000000
,  // measure 56
00020000
00000000
00000000
00000000
,  // measure 57
00030000
00000000
00000000
00100000
,  // measure 58
00001000
00000000
00000000
00010000
00000000
00000000
00000100
00000000
,  // measure 59
00000000
00001000
00000000
00000000
00000010
00000000
00000100
00000000
,  // measure 60
00000000
00000000
00000001
00000000
00000000
00000100
00000000
00000000
,  // measure 61
00000010
00000100
00000001
00001000
,  // measure 62
00000200
00000000
00000000
00010300
,  // measure 63
00002000
00000000
00000000
00003000
,  // measure 64
00010000
00000000
00001000
00000000
,  // measure 65
00010000
00000100
00001000
00000100
00000000
00000000
00001000
00000000
,  // measure 66
00000010
00000100
00000001
00000000
,  // measure 67
00000100
00000010
00001000
00000000
,  // measure 68
00000100
00010000
00001000
01000000
,  // measure 69
00020000
00000000
00030000
00000000
,  // measure 70
20000000
00000000
00000000
00000000
00000000
30010000
01000000
00020000
,  // measure 71
00000000
00000000
00030000
00000000
00000000
01000000
00001000
00020000
,  // measure 72
00000000
00000000
00000000
00000000
,  // measure 73
00031000
00000000
00000000
00000000
,  // measure 74
00000000
00000000
00000000
00000000
,  // measure 75
00001000
00000000
00000000
00000000
,  // measure 76
00010000
00000000
00000000
00000000
,  // measure 77
00001000
00000000
00000000
00000000
,  // measure 78
00010000
00000000
00000000
00001000
,  // measure 79
00001000
00010000
00000100
00010000
,  // measure 80
00000100
00001000
00000010
00000100
,  // measure 81
00000001
00000010
00000001
00000100
,  // measure 82
00000010
00001000
00000100
00010000
,  // measure 83
00001000
01000000
00010000
00100000
,  // measure 84
01000000
10000000
01000000
01000000
,  // measure 85
01000000
00000000
10000000
00100000
,  // measure 86
01000000
00000000
00010000
00000000
,  // measure 87
00100000
01000000
10000000
00010000
,  // measure 88
01000000
00010000
00100000
00001000
,  // measure 89
00010000
00001000
00100000
00001000
,  // measure 90
00020000
00000000
00001000
00031000
,  // measure 91
00010000
00000100
00001000
00000010
,  // measure 92
00000100
00000001
00000010
00000100
,  // measure 93
00000010
00000001
00000100
00000010
,  // measure 94
00001000
00000100
00010000
00001000
,  // measure 95
01000000
00010000
00100000
01000000
,  // measure 96
10000000
01000000
00100000
00001000
,  // measure 97
00010000
00000100
00010000
00001000
,  // measure 98
01000000
00000000
00001000
00020000
00000000
00000000
00000000
00000000
,  // measure 99
00000000
00000000
00000000
00000000
,  // measure 100
00030000
00000000
00000000
00000000
;

//---------------dance-double - ---------------
#NOTEDATA:;
#CHARTNAME:;
#CHARTSTYLE:;
#CREDIT:Pandemonium X;
#STEPSTYPE:dance-double;
#DESCRIPTION:;
#DIFFICULTY:Medium;
#METER:12;
#METERF:12;
#RADARVALUES:0,0,0,0,0;
#NOTES:
// measure 0
00000000
00000000
00000000
00000000
,  // measure 1
00000000
00000000
00000000
00000000
,  // measure 2
00000000
00000000
00000000
00000000
,  // measure 3
00001000
00000000
00000000
00100000
00010000
00000000
00000000
00000000
,  // measure 4
00100000
00010000
10000000
00000000
00100000
00000000
01000000
00000000
,  // measure 5
00001000
00010000
00001000
00010000
,  // measure 6
00000100
00010000
00000100
00010000
,  // measure 7
00000100
00001000
00000100
00001000
,  // measure 8
00000010
00001000
00000010
00001000
,  // measure 9
00000010
00000000
00000100
00000001
00000000
00000010
00000100
00000000
,  // measure 10
00000010
00000001
00000000
00000100
00000010
00001000
00000100
00000100
,  // measure 11
00000000
00010000
00010000
00000000
00001000
00001000
00000000
00022000
,  // measure 12
00000000
00000000
00000000
00000000
,  // measure 13
00000000
00033000
00000000
00000000
,  // measure 14
00001000
00000000
00000000
00000000
00000000
00001000
01000000
00100000
,  // measure 15
00000000
00000000
00000000
00000000
00000000
00000000
01000000
00100000
,  // measure 16
10000000
00000000
00000000
00000000
01000000
00100000
00001000
00010000
,  // measure 17
00000000
00000000
00000000
00000000
,  // measure 18
00001000
00001000
00010000
00010000
,  // measure 19
00000010
00000010
00000100
00000100
,  // measure 20
00000001
00000001
00000100
00000100
,  // measure 21
00000010
00000000
00000100
00000010
00001000
00000100
00010000
00001000
,  // measure 22
01000000
00000000
00000000
00010000
10000000
01000000
00100000
00020000
,  // measure 23
00000000
00000000
00000000
00000000
00030000
00000000
00100000
01000000
,  // measure 24
20000000
00000000
00000000
30010000
01000000
00010000
00100000
00002000
,  // measure 25
00000000
00000000
00003000
00000000
,  // measure 26
00020000
00000000
00000000
00000000
00030100
00001000
00000010
00001000
,  // measure 27
00000000
00000001
00000000
00001000
00000000
00000000
00000100
00000000
,  // measure 28
00000010
00000001
00000000
00000011
00000000
00001100
00000000
00001002
,  // measure 29
00000000
00000000
00000100
00000200
00000000
00000000
00000000
00000000
,  // measure 30
00000303
00000000
00000000
00000000
,  // measure 31
00000000
00000000
00000000
00000000
,  // measure 32
00000001
00000001
00001000
00001000
,  // measure 33
00000100
00000100
00022000
00033000
,  // measure 34
00001000
00001000
00010000
00010000
,  // measure 35
00001000
00001000
01000000
01000000
,  // measure 36
00010000
00010000
00100000
00100000
,  // measure 37
00100000
00010000
00001000
00000100
,  // measure 38
00000020
00000000
00000032
00000000
,  // measure 39
00000203
00000000
00002300
00000000
,  // measure 40
00023000
00000000
00230000
00000000
,  // measure 41
20300000
00000000
00000000
00000000
30020000
00000000
00000000
10030000
,  // measure 42
01000000
00000000
00000000
00100000
00001000
00000000
00000000
00010000
,  // measure 43
00000100
00000000
00000000
00001000
00000010
00000000
00000000
00000100
,  // measure 44
00000001
00000000
00000000
00000010
00000100
00000000
00000000
00000010
,  // measure 45
00000001
00000000
00000100
00000000
00000010
00000010
00000100
00000001
,  // measure 46
00000000
00001000
00001000
00000000
00000100
00000100
00000000
00010000
,  // measure 47
00010000
00000000
00001000
00001000
00000000
01000000
01000000
01000000
,  // measure 48
00000000
00100000
00100000
00000000
10000000
10000000
00000000
01000000
,  // measure 49
01000000
00000000
00100000
00100000
00000000
00010000
00010000
00010000
,  // measure 50
00200000
00001000
00001000
00001000
,  // measure 51
00010000
00010000
00010000
00310000
,  // measure 52
00001000
00100000
00001000
00010000
00000010
00010000
00001000
00100000
,  // measure 53
00010000
00000000
10000000
00010000
01000000
00000000
00000000
00000000
00000000
00000000
00100000
00000000
01000000
00000000
00010000
00000000
,  // measure 54
20000000
01000000
01000000
00010000
,  // measure 55
30010000
00020000
02030000
03002000
,  // measure 56
00023000
00000000
00001000
00000000
00031000
00000000
00010000
00000100
,  // measure 57
00001000
00000000
00000010
00000001
00000010
00001000
00000001
00000010
,  // measure 58
00000100
00000000
00000010
00000010
00000000
00000001
00000001
00000000
,  // measure 59
00000100
00000100
00000000
00000010
00000001
00000010
00001000
00000000
,  // measure 60
00000000
00000000
00000100
00000100
00000000
00010000
00010000
00000000
,  // measure 61
00001000
01000000
00010000
00100000
00001000
00010000
00000100
00001000
,  // measure 62
00000002
00000000
00000100
00000000
00000103
00000010
00000100
00000001
,  // measure 63
00002000
00000000
00000100
00000000
00003100
00000000
00001000
00000100
,  // measure 64
00010000
00010000
00000000
00010000
00000100
00000100
00000000
00000000
,  // measure 65
00010000
00000000
00001000
00010000
00001000
00000000
00011000
00000000
00000000
00000000
00010000
00000000
00001000
00000000
01000000
00000000
,  // measure 66
00010000
00100000
01000000
10000000
00010000
00000000
10000000
00000000
,  // measure 67
00100000
01000000
00010000
10000000
01000000
00000000
00100000
00000000
,  // measure 68
00001000
00010000
00000000
00000100
00000000
00001000
00000000
00000020
,  // measure 69
00000000
00000000
00000000
00000030
,  // measure 70
00000200
00000000
00000001
00000000
00000310
00001000
00000100
00020000
,  // measure 71
00001000
00000000
00000100
00000000
00031000
00100000
00010000
10000000
,  // measure 72
00200000
01000000
10000000
01000000
,  // measure 73
20000000
00000000
00000000
30300000
,  // measure 74
10000000
00010000
00100000
02000000
00000000
00000000
00000000
00000000
,  // measure 75
03000000
00000000
00000000
00000000
,  // measure 76
00000000
00000000
00000000
00000000
,  // measure 77
00000000
00000000
00000000
00000000
,  // measure 78
00000000
00000000
00000000
00110000
,  // measure 79
00110000
00100000
00001000
00010000
,  // measure 80
00000010
00000100
00000001
00001000
,  // measure 81
00000100
00000010
00000001
00000100
,  // measure 82
00000010
00000000
00000100
00000001
00001000
00000100
00000010
00000001
,  // measure 83
00001000
00000000
00000001
00000000
00000100
00000001
00001000
00000001
,  // measure 84
00000000
00000000
00000010
00000100
00001000
00000100
00010000
00001000
,  // measure 85
00000000
00000000
00001000
00010000
00001000
01000000
00010000
10000000
,  // measure 86
00000000
00000000
01000000
00100000
01000000
10000000
00010000
01000000
,  // measure 87
00000000
00000000
00100000
01000000
00010000
00100000
01000000
00100000
,  // measure 88
00000000
00001000
00000000
00020000
00000000
00000000
00001000
00031000
,  // measure 89
00000000
00000000
00001000
00100000
00001000
00010000
00000010
00020000
,  // measure 90
00000000
00000000
00000000
00000000
00031000
00010000
00000010
00000100
,  // measure 91
00000001
00000000
00000000
00000010
00000000
00000000
00000001
00000000
00000000
00001000
00000000
00000000
00000010
00000000
00000100
00000000
,  // measure 92
00000001
00000000
00000000
00000000
00000000
00000000
00000000
00000000
00000000
00001000
00000000
00000000
00000000
00000000
00000000
00000000
00000000
00000000
00000100
00000000
00000000
00000000
00000000
00000000
00000000
00000000
00000000
00010000
00000000
00000000
00000000
00000000
00000000
00000000
00000000
00000000
00001000
00000000
00000000
00000000
00010000
00000000
00000000
00000000
00001000
00000000
00000000
00000000
,  // measure 93
00010000
00000000
00001000
00000000
00010000
00000000
00001000
00000000
00000000
01000000
00000000
00000000
00010000
00000000
00000000
10000000
00000000
00000000
01000000
00000000
00000000
00100000
00000000
00000000
,  // measure 94
01000000
00000000
00000000
10000000
00000000
00000000
00010000
00000000
00000000
01000000
00000000
00000000
00010000
00000000
00100000
00000000
,  // measure 95
00001000
00000000
00010000
00000000
00000100
00000000
00010000
00000000
00001000
00000000
00000000
00010000
00000000
00000000
00001000
00000000
,  // measure 96
00010000
00001000
00010000
00000010
00001000
00000100
00000010
00000001
,  // measure 97
00000100
00000010
00001000
00000100
00010000
00001000
01000000
00010000
,  // measure 98
00100000
01000000
10000000
20020000
00000000
00000000
00000000
00000000
,  // measure 99
00000000
00000000
00000000
00000000
,  // measure 100
30030000
00000000
00000000
00000000
;

//---------------dance-double - ---------------
#NOTEDATA:;
#CHARTNAME:;
#CHARTSTYLE:;
#CREDIT:Pandemonium X;
#STEPSTYPE:dance-double;
#DESCRIPTION:;
#DIFFICULTY:Hard;
#METER:17;
#METERF:17;
#RADARVALUES:0,0,0,0,0;
#NOTES:
// measure 0
00000000
00000000
00000000
00000000
,  // measure 1
00000000
00000000
00000000
00000000
,  // measure 2
00000000
00000000
00000000
00000000
,  // measure 3
00001000
00000000
00000000
00100000
00010000
00000000
00000000
00000000
,  // measure 4
00100000
00001000
00010000
00000000
00010100
00000000
00001001
00000000
,  // measure 5
00000101
00000000
00000000
00000001
00000100
00000000
00000000
00000100
00000010
00000000
00000000
00000010
00001000
00000000
00000100
00000000
,  // measure 6
00001000
00000000
00000000
00000100
00010000
00000000
00000000
00010000
00001000
00000000
00000000
00001000
01000000
00000000
00010000
00000000
,  // measure 7
10000000
00000000
00000000
00010000
10000000
00000000
00000000
10000000
01000000
00000000
00000000
01000000
00100000
00000000
01000000
00000000
,  // measure 8
10000000
00000000
00000000
01000000
00100000
00000000
00000000
00100000
00010000
00000000
01000000
00000000
00100000
00000000
10000000
00000000
,  // measure 9
00010000
00000000
10000000
00100000
10000000
00000000
00010000
00000000
00100000
00001000
00100000
00000000
00001000
00000000
00010000
00000010
,  // measure 10
00010000
00000000
00000010
00000000
00001000
00000001
00001000
00000000
00000001
00000000
00000100
00000010
00000100
00000001
00000100
00000001
,  // measure 11
00001000
00000000
00000001
00000100
00000010
00000000
00001000
00000000
00000100
00010000
00001000
00000000
00100000
00000000
00220000
00000000
,  // measure 12
00000000
00000000
00000000
00030000
,  // measure 13
00000000
00000000
00000000
04300000
00000000
40000000
00000000
00000000
00000000
00000000
00000000
00000000
00000000
00000000
00000000
00000000
00000000
00000000
33000000
00000000
00000000
00000000
00000000
00000000
,  // measure 14
00010000
00000000
00000000
00000000
01000000
00100000
01000000
00010000
,  // measure 15
00000000
00000000
00000000
00000000
00000000
00000000
00100000
01000000
,  // measure 16
10000000
00000000
00000000
00000000
01000000
00100000
00010000
01000000
,  // measure 17
00000000
00000000
00000000
00000000
,  // measure 18
00100000
01000000
00010000
10000000
,  // measure 19
00010000
01000000
00010000
00100000
,  // measure 20
00001000
00010000
00000010
00000100
,  // measure 21
00000001
00000000
00000100
00000000
00000010
00000000
00001000
00000010
00000100
00000001
00001000
00000100
00000010
00000000
00000001
00000000
,  // measure 22
00001000
00000000
00000100
00010000
00001000
00001000
01000000
00010000
,  // measure 23
00000000
01000000
10000000
01000000
00010000
00000000
10000000
01000000
,  // measure 24
00100000
00000000
01000000
00100000
00010000
00100000
00001000
00010000
,  // measure 25
00000010
00000100
00001000
00000100
00000001
00000000
00000001
00000000
,  // measure 26
00001000
00000000
00000100
00001000
00000001
00000100
00000001
00001000
,  // measure 27
00000000
00000001
00000000
00000100
00000000
00000000
00000010
00000000
,  // measure 28
00010000
00011000
00000000
00101000
00000000
00110000
00000000
21000000
,  // measure 29
00000000
00000000
00010000
00020000
00000000
00000000
00000000
00000000
,  // measure 30
30030000
00000000
00000000
00000000
,  // measure 31
00000000
00000000
00000000
00000000
00000000
00000000
00000000
00000000
00000000
00000000
00000000
00000000
10000000
00100000
01000000
00000000
,  // measure 32
00010000
00010000
00010000
00010000
,  // measure 33
00010000
00010000
00022000
00033000
,  // measure 34
00010000
00000000
00000100
00001000
00000100
00000000
00001000
00000010
00001000
00000000
00000010
00000100
00000010
00000000
00000100
00000000
,  // measure 35
00000001
00000000
00000010
00000100
00000010
00000000
00000001
00000010
00000001
00000000
00000100
00000001
00000100
00000000
00000010
00000000
,  // measure 36
00001000
00000000
00000100
00001000
00000100
00000000
00010000
00001000
00010000
00000000
00001000
01000000
00001000
00000000
01000000
00000000
,  // measure 37
00010000
00000000
00100000
01000000
10000000
00000000
01000000
00100000
00010000
00000000
00100000
01000000
10000000
00000000
00100000
00000000
,  // measure 38
02000000
00010000
03200000
10000000
,  // measure 39
02300000
00001000
03020000
00100000
,  // measure 40
02030000
00010000
03002000
00010000
,  // measure 41
00203000
00010000
00302000
01000000
,  // measure 42
00013000
00000000
00001000
00010000
00010100
00000000
00000100
00010000
,  // measure 43
00011000
00000000
00001000
01000000
01010000
00000000
01000000
00001000
,  // measure 44
00011000
00000000
00010000
00000100
00001100
00000000
00001000
00000100
,  // measure 45
00001100
00000000
00001001
00000000
00000001
00000100
00001000
00010000
,  // measure 46
00001000
00010000
00010000
00000010
00000100
00000100
00000001
00001000
,  // measure 47
00001000
00000100
00000010
00000010
00000100
00001000
00001000
00001000
,  // measure 48
00000010
00000100
00000100
00000010
00010000
00010000
00001000
00100000
,  // measure 49
00100000
00010000
01000000
01000000
00001000
00010000
00010000
00010000
,  // measure 50
00002000
02003000
03200000
02300000
,  // measure 51
03020000
20030000
30020000
20030000
,  // measure 52
30010000
00000000
01000000
00100000
10000000
00010000
01000000
00010000
00100000
00001000
00010000
00000010
00000100
00000001
00001000
00000100
,  // measure 53
00000010
00000001
00001000
00000100
00001000
00000000
00000020
00000000
00000000
00000000
00000130
00000000
00001000
00000000
00000100
00000000
,  // measure 54
00000001
00000000
00000000
00000010
00000001
00000000
00000000
00000001
00000100
00000000
00000000
00000100
00000010
00000000
00001000
00000000
,  // measure 55
00000001
00000000
00000000
00000010
00000100
00000000
00000000
00000100
00001000
00000000
00000000
00001000
00000010
00000000
00000000
00000010
,  // measure 56
00010000
00000000
00000000
00000000
00001000
00000000
00000000
00010000
00001000
00000000
00000000
00001000
01000000
00000000
00010000
00000000
,  // measure 57
01000000
00000000
00010000
00000000
10000000
01000000
00100000
01000000
00100000
01000000
00100000
01000000
10000000
01000000
10000000
00010000
,  // measure 58
01000000
00000000
00000000
00000000
00100000
10000000
01000000
00000000
00000000
00000000
00100000
00010000
01000000
00000000
00000000
00000000
,  // measure 59
00100000
10000000
01000000
00000000
00000000
00000000
00100000
00010000
01000000
00100000
01000000
00001000
00010000
00000000
00000000
00000000
,  // measure 60
00000000
00000000
00000000
00000000
00000100
00001000
00000010
00000000
00000000
00000000
00000100
00000001
00000010
00000000
00000000
00000000
,  // measure 61
00000100
00000000
00000100
00001000
00000010
00000000
00000100
00000001
00000010
00000000
00000100
00001000
00000010
00000000
00000100
00000000
,  // measure 62
00000002
00000000
00000100
00000000
00001003
00000001
00001000
00000100
,  // measure 63
00020000
00000000
00000000
00000000
00001000
00000000
00000000
00000000
00030100
00000000
00001000
00000000
00000010
00000000
00010000
00001000
,  // measure 64
00010000
00000000
00011000
00000000
00000000
00000000
00001000
00010000
00001000
00000000
00011000
00000000
00000000
00000000
00000000
00000000
,  // measure 65
00011000
00000000
00010000
00001000
00100000
00000000
00110000
00000000
00100000
00010000
00100000
00010000
00100000
00010000
00100000
00010000
,  // measure 66
00100000
00000000
00010000
01000000
00100000
01000000
00010000
00000000
10000000
00000000
01000000
00000000
00000000
00000000
01000000
00000000
,  // measure 67
00100000
00000000
00010000
00100000
00001000
00010000
00001000
00010000
00000100
00000000
00001000
00000000
00000000
00000000
00000000
00000000
,  // measure 68
00000010
00000100
00000001
00000000
00001000
00000000
00000100
00000010
00000001
00000000
00001000
00000000
00000001
00000000
00000100
00000010
,  // measure 69
00000100
00000000
00000010
00000000
00000100
00000000
00000001
00000100
00000010
00001000
00000100
00000010
00000001
00000000
00001000
00000001
,  // measure 70
00000200
00000000
00000010
00000000
00000301
00000100
00001000
00020000
,  // measure 71
00000000
00000000
00001000
00000000
00030100
00001000
00010000
00200000
,  // measure 72
01000000
10000000
01000000
10300000
,  // measure 73
20020000
00000000
00000000
00000000
,  // measure 74
30000000
00030000
00000000
00000000
,  // measure 75
00000000
00000000
00000000
00000000
,  // measure 76
00000000
00000000
00000000
00000000
,  // measure 77
00000000
00000000
00000000
00000000
,  // measure 78
00000000
00000000
00000000
01100000
,  // measure 79
10010000
10000000
00010000
00100000
,  // measure 80
00001000
00100000
00001000
00010000
,  // measure 81
00000010
00000100
00000001
00001000
,  // measure 82
00000100
00000000
00000000
00000000
00000010
00000100
00001000
00000001
00000100
00000010
00000100
00000001
00000100
00000001
00001000
00000001
,  // measure 83
00001000
00000000
00000100
00000000
00001000
00000000
00000000
00000000
00000100
00000010
00000001
00000000
00001000
00000000
00000010
00000000
,  // measure 84
00000000
00000000
00000000
00000000
00000100
00000010
00001000
00000001
00001000
00000100
00001000
00000100
00010000
00000000
00001000
00000000
,  // measure 85
00000000
00000000
00000000
00000000
01000000
00100000
10000000
00010000
00100000
00010000
10000000
00010000
01000000
00000000
00010000
00000000
,  // measure 86
00000000
00000000
00000000
00000000
10000000
01000000
10000000
00010000
01000000
00100000
10000000
00010000
00100000
00000000
01000000
00000000
,  // measure 87
00000000
10000000
01000000
00100000
00001000
00010000
00000100
00001000
,  // measure 88
00000000
00000010
00000000
00000200
00000000
00000000
00001000
00001300
,  // measure 89
00000000
00000000
00001000
00000100
00000001
00001000
00000100
00000020
,  // measure 90
00000000
00000000
00000000
00000000
00000130
00000010
00000001
00001000
,  // measure 91
00000010
00000000
00000100
00000001
00000000
00001000
00000001
00001000
00000001
00000000
00000010
00000100
00000000
00000100
00000010
00000100
,  // measure 92
00001000
00000002
00000000
00000103
00000020
00000000
00001030
00000200
00000000
00010300
00002000
00000000
01003000
00010000
01000000
00010000
,  // measure 93
10000000
01000000
00100000
00000000
01000000
00000000
10000000
00010000
01000000
00010000
01000000
00100000
01000000
00010000
00000000
10000000
,  // measure 94
01000000
00000000
01000000
00100000
00000000
00100000
00001000
00000000
00001000
00010000
00000000
00010000
00000100
00010000
00000010
00001000
,  // measure 95
00000020
00000000
00000230
00000000
00000310
00001000
00000001
00000010
00000100
00002000
00000000
00003100
00020000
00000000
00031000
01000000
,  // measure 96
00010000
10000000
00010000
00100000
02000000
00000000
03100000
00010000
10000000
00100000
10000000
00100000
01000000
00010000
10000000
00010000
,  // measure 97
00100000
01000000
10000000
00010000
01000000
00001000
00010000
00000100
00010000
00000010
00001000
00000001
00000010
00000100
00001000
00000100
,  // measure 98
00010000
00001000
01000000
00010000
00100000
00001000
00020000
00000000
00000000
00000000
00000000
00000000
00000000
00000000
00000000
00000000
,  // measure 99
00000000
00000000
00000000
00000000
,  // measure 100
00030000
00000000
00000000
00000000
;
