#VERSION:0.83;
#TITLE:quasar (The 4th Remix);
#SUBTITLE:;
#ARTIST:OutPhase;
#TITLETRANSLIT:;
#SUBTITLETRANSLIT:;
#ARTISTTRANSLIT:;
#GENRE:;
#CREDIT:;
#MUSIC:quasar (The 4th Remix).ogg;
#BANNER:banner.png;
#BACKGROUND:bg.png;
#JACKET:jacket.png;
#DISCIMAGE:;
#CDIMAGE:;
#SELECTABLE:YES;
#LYRICSPATH:;
#CDTITLE:cdtitle.png;
#SAMPLESTART:79.067;
#SAMPLELENGTH:22.154;
#OFFSET:1.404;
#BPMS:0.000000=170.000000;
#STOPS:;
#WARPS:;
#DELAYS:;
#SPEEDS:;
#SCROLLS:;
#TICKCOUNTS:;
#TIMESIGNATURES:;
#LABELS:;
#COMBOS:;
#FAKES:;
#BGCHANGES:;
#FGCHANGES:;
#ATTACKS:;

//---------------dance-single - Pandemonium X---------------
#NOTEDATA:;
#CHARTNAME:;
#CHARTSTYLE:;
#CREDIT:Pandemonium X;
#STEPSTYPE:dance-single;
#DESCRIPTION:Pandemonium X;
#DIFFICULTY:Easy;
#METER:6;
#METERF:6;
#RADARVALUES:0,0,0,0,0;
#NOTES:
// measure 0
0000
0000
0000
0000
,  // measure 1
0000
0000
0000
0000
,  // measure 2
0000
0000
0000
0000
,  // measure 3
0000
0000
0000
0000
,  // measure 4
0000
0000
0000
0000
,  // measure 5
0000
0000
0000
0000
,  // measure 6
0000
0000
0000
0000
,  // measure 7
0000
0000
0000
0000
,  // measure 8
0000
0000
0000
0000
,  // measure 9
0001
0000
1000
0000
,  // measure 10
0001
0000
0100
0000
,  // measure 11
0000
0000
0000
0000
,  // measure 12
0000
0000
0000
0000
,  // measure 13
0001
0000
1000
0000
,  // measure 14
0001
0000
0100
0000
,  // measure 15
0000
0000
0000
0000
,  // measure 16
0020
0000
0030
0000
,  // measure 17
1000
0000
1000
0000
,  // measure 18
1000
0000
0001
0000
,  // measure 19
0010
0000
0010
0000
,  // measure 20
0010
0000
0100
0000
,  // measure 21
1000
0000
1000
0000
,  // measure 22
1000
0000
0010
0000
,  // measure 23
0100
0000
0100
0000
,  // measure 24
2002
0000
3003
0000
,  // measure 25
0002
0000
0000
0003
,  // measure 26
2000
0000
0000
3000
,  // measure 27
0020
0000
0000
0030
,  // measure 28
0200
0000
0000
0300
,  // measure 29
0002
0000
0000
0003
,  // measure 30
0020
0000
0000
0030
,  // measure 31
0200
0000
0000
0300
,  // measure 32
2000
0000
0000
3000
,  // measure 33
0001
0000
0100
0000
,  // measure 34
0010
0000
0100
0000
,  // measure 35
0001
0000
1000
0000
,  // measure 36
0100
0000
0010
0000
,  // measure 37
0100
0000
0010
0000
,  // measure 38
0001
0000
1000
0000
,  // measure 39
0020
0000
0000
0000
,  // measure 40
0000
0030
2002
3003
,  // measure 41
2000
0000
3002
0000
,  // measure 42
0023
0000
0230
0000
,  // measure 43
0320
0000
0032
0000
,  // measure 44
2003
0000
3200
0000
,  // measure 45
2300
0000
3020
0000
,  // measure 46
0230
0000
0302
0000
,  // measure 47
2003
0000
3002
0000
,  // measure 48
0023
0000
0032
0000
,  // measure 49
2003
0000
3200
0000
,  // measure 50
0320
0000
0230
0000
,  // measure 51
2300
0000
3002
0000
,  // measure 52
0023
0000
0230
0000
,  // measure 53
2000
0300
0000
0000
0000
0000
0000
0000
0000
0000
0000
0000
0000
0000
0000
0000
0000
0000
0000
0000
0000
0000
0000
0000
0000
0000
0000
0000
0000
0000
0000
0000
0000
0000
0000
0000
0000
0000
0000
0000
0000
0000
0000
0000
0000
0000
0000
0000
3020
0000
0000
0000
0000
0000
0000
0000
0000
0000
0000
0000
0000
0000
0000
0000
0000
0000
0000
0000
0000
0000
0000
0000
0000
0000
0000
0000
0000
0000
0000
0000
0000
0000
0000
0000
0000
0000
0000
0000
0000
0000
0000
0000
0000
0000
0000
0000
,  // measure 54
0230
0000
0302
0000
,  // measure 55
2003
0000
3002
0000
,  // measure 56
2003
0002
3003
0000
,  // measure 57
0002
0103
0020
0000
,  // measure 58
0230
0301
2000
0000
,  // measure 59
3200
0310
0002
0000
,  // measure 60
0023
0031
2000
0000
,  // measure 61
3002
1003
0020
0000
,  // measure 62
2030
3001
0200
0000
,  // measure 63
0302
0013
0200
0000
,  // measure 64
0320
0031
2000
3001
,  // measure 65
0200
0301
2000
0000
,  // measure 66
3200
1300
0020
0000
,  // measure 67
0230
0301
0020
0000
,  // measure 68
0230
0310
0002
0000
,  // measure 69
0023
0000
0230
0000
,  // measure 70
2300
0000
3020
0000
,  // measure 71
0200
0000
0000
0000
,  // measure 72
0000
0000
0330
0000
,  // measure 73
0002
0000
0000
0000
,  // measure 74
0003
0000
0110
0000
0000
0110
0000
0000
,  // measure 75
1000
0000
0000
0000
,  // measure 76
0000
0000
0110
0000
0000
0110
0000
0000
,  // measure 77
0002
0000
0000
0000
,  // measure 78
0003
0000
0110
0000
0000
0110
0000
0000
,  // measure 79
1000
0000
0000
0000
,  // measure 80
0000
0000
0110
0000
0000
0110
0000
0000
;

//---------------dance-single - Pandemonium X---------------
#NOTEDATA:;
#CHARTNAME:;
#CHARTSTYLE:;
#CREDIT:Pandemonium X;
#STEPSTYPE:dance-single;
#DESCRIPTION:Pandemonium X;
#DIFFICULTY:Medium;
#METER:10;
#METERF:10;
#RADARVALUES:0,0,0,0,0;
#NOTES:
// measure 0
0000
0000
0000
0000
,  // measure 1
0000
0000
0000
0000
,  // measure 2
0000
0000
0000
0000
,  // measure 3
0000
0000
0000
0000
,  // measure 4
0000
0000
0000
0000
,  // measure 5
0000
0000
0000
0000
,  // measure 6
0000
0000
0000
0000
,  // measure 7
0000
0000
0000
0000
,  // measure 8
0000
0000
0000
0000
,  // measure 9
0002
0003
2000
3000
,  // measure 10
0020
0030
2000
3000
,  // measure 11
0001
1000
0001
1000
,  // measure 12
0001
1000
1020
1030
,  // measure 13
0002
0003
2000
3000
,  // measure 14
0200
0300
2000
3000
,  // measure 15
0001
0100
0010
1000
,  // measure 16
1002
0000
0000
0000
0003
1000
0100
0010
,  // measure 17
0002
0013
0002
0103
,  // measure 18
0002
0000
0013
0000
0000
1100
0000
0000
,  // measure 19
2000
3010
2000
3001
,  // measure 20
2000
0000
3100
0000
0000
0011
0000
0000
,  // measure 21
0002
1003
0020
1030
,  // measure 22
0200
0000
0310
0000
0000
1001
0000
0000
,  // measure 23
2000
0001
0010
0100
,  // measure 24
3002
0000
0000
0000
0003
1000
0100
0010
,  // measure 25
0002
0000
0023
0000
,  // measure 26
0230
0000
2300
0000
,  // measure 27
3200
0000
0320
0000
,  // measure 28
0230
0000
2300
0000
,  // measure 29
3002
0000
0023
0000
,  // measure 30
0032
0000
0203
0000
,  // measure 31
0302
0000
2003
0000
,  // measure 32
3200
0000
0320
0000
,  // measure 33
0031
0001
0001
0001
,  // measure 34
1000
1000
1000
1000
,  // measure 35
0010
0010
0010
0010
,  // measure 36
0100
0100
0100
0100
,  // measure 37
0010
0010
1000
1000
,  // measure 38
0001
0001
0100
0100
,  // measure 39
0002
0010
0100
1000
,  // measure 40
0203
0000
0000
0000
0310
0100
0001
1000
,  // measure 41
0200
0310
0002
0013
,  // measure 42
0002
0103
0020
1030
,  // measure 43
0002
0013
0002
1003
,  // measure 44
0020
0000
1030
0000
0200
0000
0310
0001
,  // measure 45
2000
3001
0200
0301
,  // measure 46
2000
3100
0020
0130
,  // measure 47
2000
3010
0200
0301
,  // measure 48
2000
0000
3010
0000
0200
0000
0301
0010
,  // measure 49
0200
0310
0002
0103
,  // measure 50
0020
1030
0002
0013
,  // measure 51
0200
1300
0020
0130
,  // measure 52
0002
0000
1003
0000
0200
0000
0310
0100
,  // measure 53
2000
3100
2000
3010
,  // measure 54
0200
0301
0020
0130
,  // measure 55
0020
0031
0200
0310
,  // measure 56
1000
0100
0010
0001
1000
0000
1001
0000
,  // measure 57
0202
0000
0000
0303
2020
0000
0000
3030
,  // measure 58
2200
0000
0000
3300
0022
0000
0000
0033
,  // measure 59
0220
0000
0000
0330
2200
0000
0000
3300
,  // measure 60
2020
0000
0000
3030
0202
0000
0000
0303
,  // measure 61
0022
0000
0000
0033
0220
0000
0000
0330
,  // measure 62
2200
0000
0000
3300
2020
0000
0000
3030
,  // measure 63
0220
0000
0000
0330
0202
0000
0000
0303
,  // measure 64
2020
0000
0000
3030
0110
0000
1001
0000
,  // measure 65
1020
1030
0102
0103
,  // measure 66
0021
0031
2100
3100
,  // measure 67
1002
1003
0201
0301
,  // measure 68
2010
3010
0120
0130
,  // measure 69
0102
0013
2100
3010
,  // measure 70
1002
0103
2001
3100
,  // measure 71
0021
0100
0001
0100
,  // measure 72
0002
0000
0000
0030
0013
0100
1000
0001
,  // measure 73
1000
0001
0100
0010
,  // measure 74
1000
0000
1010
0000
0000
1100
0000
0000
,  // measure 75
0100
1000
0010
0100
,  // measure 76
0001
0000
0011
0000
0000
0101
0000
0000
,  // measure 77
0001
1000
0010
0100
,  // measure 78
0001
0000
0011
0000
0000
1100
0000
0000
,  // measure 79
0100
1000
0010
0100
,  // measure 80
0001
0000
0101
0000
0000
1010
0000
0000
;

//---------------dance-single - Pandemonium X---------------
#NOTEDATA:;
#CHARTNAME:;
#CHARTSTYLE:;
#CREDIT:Pandemonium X;
#STEPSTYPE:dance-single;
#DESCRIPTION:Pandemonium X;
#DIFFICULTY:Hard;
#METER:13;
#METERF:13;
#RADARVALUES:0,0,0,0,0;
#NOTES:
// measure 0
0000
0000
0000
0000
,  // measure 1
0000
0000
0000
0000
,  // measure 2
0000
0000
0000
0000
,  // measure 3
0000
0000
0000
0000
,  // measure 4
0000
0000
0000
0000
,  // measure 5
0000
0000
0000
0000
,  // measure 6
0000
0000
0000
0000
,  // measure 7
0000
0000
0000
0000
,  // measure 8
0000
0000
0000
0000
,  // measure 9
0002
0103
0020
1030
,  // measure 10
0002
0000
0013
0000
0200
0000
1300
0100
,  // measure 11
0010
0100
1000
0010
,  // measure 12
0100
0000
0001
0000
2000
0000
3001
0010
,  // measure 13
0200
0000
0310
0001
2000
0000
3001
0010
,  // measure 14
0200
0000
0310
0100
2000
0000
3100
0010
,  // measure 15
0001
0000
0000
0001
0000
0000
1000
0000
0000
1000
0000
0000
0001
0000
0100
0000
,  // measure 16
0020
0000
0000
0000
0000
0000
0000
0000
0230
0000
0000
0301
1000
0001
1000
0001
,  // measure 17
2000
3100
0020
0130
,  // measure 18
1000
0010
0002
0013
0100
0002
1003
0001
,  // measure 19
2000
3010
0200
0310
,  // measure 20
1000
0100
0002
0103
0010
0002
1003
0010
,  // measure 21
1000
0010
0001
0010
,  // measure 22
0100
1000
0200
0310
1000
0200
0310
0100
,  // measure 23
2100
3010
0201
0310
,  // measure 24
2001
0000
0000
0000
0000
0000
0000
0000
3100
0010
0000
0010
0100
0010
0100
0010
,  // measure 25
0002
0000
0023
0000
,  // measure 26
0032
0000
2003
0000
,  // measure 27
3020
0000
2030
0000
,  // measure 28
3002
0000
2003
0000
,  // measure 29
3200
0000
0320
0000
,  // measure 30
0230
0000
2300
0000
,  // measure 31
3002
0000
2003
0000
,  // measure 32
3200
0000
2300
0000
,  // measure 33
3002
0103
0020
1030
,  // measure 34
0200
0310
0200
1300
,  // measure 35
0002
0013
0200
0310
,  // measure 36
0002
0000
0103
0000
0020
0000
0130
0001
,  // measure 37
2000
3100
0020
0130
,  // measure 38
2000
3010
0200
0301
,  // measure 39
1000
0000
0000
1000
0000
0000
1000
0000
0000
1000
0000
0000
1000
0000
1000
0001
,  // measure 40
0200
0000
0000
0000
0000
0000
0000
0000
0310
1000
0010
1000
0001
1000
0001
1000
,  // measure 41
0002
0000
0013
0001
0200
0000
0310
1000
,  // measure 42
0002
0000
0013
0100
2000
0000
3100
0010
,  // measure 43
0002
0000
0013
0001
2000
0000
3010
1000
,  // measure 44
0002
0000
0000
0000
1003
0000
0100
0000
0020
0000
0000
0000
0130
0000
1000
0001
,  // measure 45
0200
0000
0301
1000
0020
0000
1030
0100
,  // measure 46
0020
0000
0130
1000
0002
0000
0103
0010
,  // measure 47
2000
0000
3001
0010
0200
0000
0310
0001
,  // measure 48
2000
0000
0000
0000
3010
0000
0100
0000
0002
0000
0000
0000
1003
0000
0100
0010
,  // measure 49
0200
0000
1300
0100
0020
0000
0130
1000
,  // measure 50
0020
0000
0130
0001
2000
0000
3001
0010
,  // measure 51
0200
0000
0310
0001
2000
0000
3100
0010
,  // measure 52
0002
0000
0000
0000
0013
0000
0001
0000
0200
0000
0000
0000
0301
0000
1000
0100
,  // measure 53
2000
0000
3100
0010
0002
0000
1003
0001
,  // measure 54
0200
0000
0301
1000
0002
0000
0013
0100
,  // measure 55
2000
0000
3100
0010
0002
0000
0013
0100
,  // measure 56
1000
0000
1000
0000
0001
0000
0001
0000
1001
0000
1000
0001
0000
0001
1000
0001
,  // measure 57
1000
0000
0000
0100
0000
0000
0010
0000
0000
0100
0000
0000
1000
0000
0010
0100
,  // measure 58
0000
0000
0010
0000
0000
1000
0000
0000
0001
0000
0000
0010
0000
0000
0100
1000
,  // measure 59
0100
0000
0000
0010
0000
0000
0100
0000
0000
1000
0000
0000
0001
0000
0000
0000
,  // measure 60
1000
0000
0000
0010
0000
0000
0100
0010
0100
0000
0000
0010
0000
0000
1000
0001
,  // measure 61
1000
0000
0000
0100
0000
0000
0010
0000
0000
0100
0000
0000
1000
0000
0001
0100
,  // measure 62
0000
0000
0001
0000
0000
0010
0000
0000
0100
0000
0000
0010
0000
0000
0001
1000
,  // measure 63
0001
0000
0000
1000
0000
0000
0100
0000
0000
1000
0000
0000
0010
0000
0100
0010
,  // measure 64
0000
0100
0000
0100
0000
0000
0001
0000
0000
0000
1000
0000
0000
0000
0100
0010
,  // measure 65
0002
0000
0000
1003
0010
0000
0100
0000
0002
0000
0000
0103
0010
0000
1000
0000
,  // measure 66
0002
0000
0000
1003
0100
0000
0010
0000
0002
0000
0000
0013
0100
0000
1000
0000
,  // measure 67
0020
0000
0000
0130
0001
0000
1000
0000
0002
0000
0000
1003
0100
0000
0010
0000
,  // measure 68
0200
0000
0000
0310
0001
0000
1000
0000
0020
0000
0000
0130
0001
0000
1000
0000
,  // measure 69
0002
0000
0000
1003
0100
0000
0010
0000
0200
0000
0000
0310
0001
0000
1000
0000
,  // measure 70
0020
0000
0000
0130
0001
0000
1000
0000
0002
0000
0000
1003
0100
0000
0010
0000
,  // measure 71
0200
0000
0000
0310
0001
0000
0100
0000
0020
0000
0000
0130
0000
0000
0001
1000
,  // measure 72
0000
0001
0000
0000
0000
0000
1000
0000
0020
0000
0000
0130
0001
0100
0001
0100
,  // measure 73
0010
0100
0001
1000
,  // measure 74
0001
0100
0002
1003
0100
0002
0103
1000
,  // measure 75
0010
0100
0001
1000
,  // measure 76
0001
1000
0020
1030
0001
0020
0130
1000
,  // measure 77
0100
0010
0100
0010
0001
0010
0001
0010
,  // measure 78
0001
0100
0002
0103
0010
0200
0310
0100
,  // measure 79
0010
0100
0001
0010
0100
0010
0001
0100
,  // measure 80
0010
1000
0002
1003
0001
0002
1003
0001
;

//---------------dance-single - Pandemonium X---------------
#NOTEDATA:;
#CHARTNAME:;
#CHARTSTYLE:;
#CREDIT:Pandemonium X;
#STEPSTYPE:dance-single;
#DESCRIPTION:Pandemonium X;
#DIFFICULTY:Challenge;
#METER:16;
#METERF:16;
#RADARVALUES:0,0,0,0,0;
#NOTES:
// measure 0
0000
0000
0000
0000
,  // measure 1
0000
0000
0000
0000
,  // measure 2
0000
0000
0000
0000
,  // measure 3
0000
0000
0000
0000
,  // measure 4
0000
0000
0000
0000
,  // measure 5
0000
0000
0000
0000
,  // measure 6
0000
0000
0000
0000
,  // measure 7
0000
0000
0000
0000
,  // measure 8
0000
0000
0000
0000
,  // measure 9
2000
3100
0020
0031
,  // measure 10
2000
3100
0020
0031
,  // measure 11
1000
0001
0010
0001
,  // measure 12
1000
0000
0010
0000
1000
0000
0001
0100
,  // measure 13
0102
0103
1020
1030
,  // measure 14
0102
0103
1020
1030
,  // measure 15
0001
0000
0000
0001
0000
0000
1000
0000
0000
1000
0000
0000
0001
0000
0010
0000
,  // measure 16
0200
0000
0000
0000
0000
0000
0000
0000
2300
0000
0000
3100
0010
0001
1000
0100
,  // measure 17
1000
0100
1000
0100
1000
0010
1000
0010
,  // measure 18
1000
0000
0001
0000
2000
3002
2003
3000
0010
0000
2000
3002
2003
3000
0001
0000
,  // measure 19
0001
0010
0001
0010
0001
0100
0001
0100
,  // measure 20
0001
0000
1000
0000
0002
2003
3002
0003
1000
0000
0002
2003
3002
0003
1000
0000
,  // measure 21
0100
0010
0100
1000
0100
0010
0100
1000
,  // measure 22
0100
0000
0010
0000
0002
2003
3002
0003
0100
0000
0002
2003
3002
0003
1000
0000
,  // measure 23
0100
0000
0010
0000
0001
0000
0010
0000
0100
0010
0100
0010
0001
1000
0001
1000
,  // measure 24
0002
0000
0000
0000
0000
0000
0000
0000
0103
0010
0000
0010
1000
0100
0010
0001
,  // measure 25
2000
0000
0002
3000
,  // measure 26
0200
0003
0020
0300
,  // measure 27
2000
0030
0200
3000
,  // measure 28
0002
0300
0200
0003
,  // measure 29
2000
0300
0020
3000
,  // measure 30
0002
0030
0020
0003
,  // measure 31
0200
0030
2000
0300
,  // measure 32
0200
3000
0002
0300
,  // measure 33
1003
0001
1000
0001
1000
0001
1000
0001
,  // measure 34
0100
0001
0100
0001
0100
0001
0100
0001
,  // measure 35
1000
0010
1000
0010
1000
0010
1000
0010
,  // measure 36
0100
0001
0100
0001
0010
0001
0010
0001
,  // measure 37
1000
0100
1000
0100
0010
0001
0010
0001
,  // measure 38
0100
0001
0100
0001
1000
0010
1000
0010
,  // measure 39
0100
0001
0010
0100
1000
0100
0010
0001
,  // measure 40
1000
0001
1000
0001
1000
0001
1000
0002
0023
0230
0320
0032
2003
3200
0320
0230
,  // measure 41
1300
0000
1000
0001
0000
0010
0001
0000
0010
0100
0000
0010
0001
0000
1000
0001
,  // measure 42
0000
0000
1000
0000
0001
0100
0000
0001
0010
0000
0100
1000
0000
0100
0010
0100
,  // measure 43
1000
0000
0001
1000
0000
0100
1000
0000
0100
0010
0000
0100
1000
0000
0001
0000
,  // measure 44
1000
0000
0001
0100
0000
0001
0010
0100
0010
0000
0001
0100
0000
0010
1000
0001
,  // measure 45
1000
0000
0100
0010
0000
0100
1000
0000
0001
0100
0000
0010
1000
0000
0100
0010
,  // measure 46
0000
0000
0100
0000
1000
0010
0000
0100
0001
0000
0010
0100
0000
0010
0001
1000
,  // measure 47
0001
0000
0010
0100
0000
0010
0001
0000
0100
0010
0000
0100
0001
0000
1000
0001
,  // measure 48
0000
0001
0000
0001
0100
0000
0010
0000
1000
0000
0100
0000
0010
0000
0001
1000
,  // measure 49
0002
0000
0000
0000
0013
0100
1000
0001
2000
0000
0000
0000
3100
0010
0100
1000
,  // measure 50
0002
0000
0000
0000
0013
0100
0010
0001
2000
0000
0000
0000
3001
0010
0100
0010
,  // measure 51
0002
0000
0000
0000
1003
0010
0100
0001
0020
0000
0000
0000
0130
1000
0001
0100
,  // measure 52
0002
0000
0000
0000
0013
0100
0010
0001
2000
0000
0000
0000
3010
0100
0001
1000
,  // measure 53
0020
0000
0000
0000
1030
0001
0010
0001
0200
0000
0000
0000
0301
1000
0100
0010
,  // measure 54
0002
0000
0000
0000
0013
0100
0010
0001
2000
0000
0000
0000
3100
0010
0100
1000
,  // measure 55
0020
0000
0000
0000
0130
0001
1000
0001
0020
0000
0000
0000
0130
1000
0001
0100
,  // measure 56
0001
0000
1000
0000
0101
0000
1010
0000
1002
0003
2000
3002
0003
2000
3002
2003
,  // measure 57
3002
0000
0000
1003
0010
0000
0100
0000
0102
0000
0000
0013
0100
0000
0010
0000
,  // measure 58
0012
0000
0000
1003
0100
0000
1000
0000
1020
0000
0000
0130
0001
0000
1000
0000
,  // measure 59
1200
0000
0000
0310
0100
0000
1000
0000
1002
0000
0000
0103
0001
0000
0010
0000
,  // measure 60
0210
0000
0000
0310
0001
0000
1000
0000
1020
0000
0000
0130
0001
0000
1000
0001
,  // measure 61
2000
0000
0000
3001
0010
0000
1000
0000
0120
0000
0000
0130
1000
0000
0010
0000
,  // measure 62
0210
0000
0000
0301
0100
0000
0001
0000
2001
0000
0000
3001
0010
0000
0100
0000
,  // measure 63
0120
0000
0000
0130
0001
0000
0100
0000
2100
0000
0000
3100
0010
0000
0001
0000
,  // measure 64
1000
0100
0000
0100
0000
0000
1000
0000
0010
0000
0100
0010
0000
0100
0001
1000
,  // measure 65
0001
0000
0100
0000
0001
0000
0010
0000
0001
0100
0010
0100
0001
0010
0100
1000
,  // measure 66
0001
0000
1000
0000
0010
0000
1000
0000
0100
1000
0010
0100
0001
0010
0100
1000
,  // measure 67
0100
0000
1000
0000
0010
0000
1000
0000
0100
1000
0010
0100
0010
1000
0001
1000
,  // measure 68
0100
0000
0010
0000
0100
0000
1000
0000
0001
0100
0010
0100
0001
1000
0001
0010
,  // measure 69
0200
0000
0000
1300
0010
0000
0100
0000
0102
0000
0000
0013
0100
0000
0010
0000
,  // measure 70
0012
0000
0000
1003
0010
0000
0100
0000
0120
0000
0000
0130
0001
0000
1000
0000
,  // measure 71
0001
0010
0001
0000
0010
0100
0010
0000
0100
1000
0100
0000
1000
0001
1000
0100
,  // measure 72
0010
0001
0010
0100
0010
0001
0100
0010
1000
0100
0000
0100
0010
0100
1000
0001
,  // measure 73
1000
0010
1000
0001
0010
0100
0010
0001
,  // measure 74
0100
0000
0001
0000
0002
0203
0302
0003
1000
0000
0200
2300
3200
0300
0000
0000
,  // measure 75
1000
0010
1000
0010
0100
0001
0010
0100
,  // measure 76
1000
0000
0010
0000
2000
3002
2003
3000
0001
0000
0200
0302
0203
0300
0000
0000
,  // measure 77
0001
0010
0001
1000
0010
1000
0001
0010
,  // measure 78
0100
0000
1000
0000
0002
0203
0302
0003
1000
0000
0020
2030
3020
0030
0100
0000
,  // measure 79
0001
0100
0001
0100
0010
0100
0010
0100
0010
1000
0010
1000
0100
1000
0100
1000
,  // measure 80
0001
1000
0001
1000
0020
2030
3002
1003
0001
1000
0020
2030
3002
1003
0001
1000
;

//---------------dance-single - Pandemonium X---------------
#NOTEDATA:;
#CHARTNAME:;
#CHARTSTYLE:;
#CREDIT:Pandemonium X;
#STEPSTYPE:dance-single;
#DESCRIPTION:Pandemonium X;
#DIFFICULTY:Beginner;
#METER:4;
#METERF:4;
#RADARVALUES:0,0,0,0,0;
#NOTES:
// measure 0
0000
0000
0000
0000
,  // measure 1
0000
0000
0000
0000
,  // measure 2
0000
0000
0000
0000
,  // measure 3
0000
0000
0000
0000
,  // measure 4
0000
0000
0000
0000
,  // measure 5
0000
0000
0000
0000
,  // measure 6
0000
0000
0000
0000
,  // measure 7
0000
0000
0000
0000
,  // measure 8
0000
0000
0000
0000
,  // measure 9
1000
0000
0000
0000
,  // measure 10
1000
0000
0000
0000
,  // measure 11
0001
0000
0000
0000
,  // measure 12
0001
0000
0000
0000
,  // measure 13
0100
0000
0000
0000
,  // measure 14
0100
0000
0000
0000
,  // measure 15
0010
0000
0010
0000
,  // measure 16
0010
0000
0000
0000
,  // measure 17
1000
0000
1000
0000
,  // measure 18
1000
0000
0000
0000
,  // measure 19
0001
0000
0001
0000
,  // measure 20
0001
0000
0000
0000
,  // measure 21
0010
0000
0010
0000
,  // measure 22
0010
0000
0000
0000
,  // measure 23
0100
0000
0100
0000
,  // measure 24
0100
0000
0000
0000
,  // measure 25
2000
0000
0000
0000
,  // measure 26
0000
0000
0000
3000
,  // measure 27
0002
0000
0000
0000
,  // measure 28
0000
0000
0000
0003
,  // measure 29
0200
0000
0000
0000
,  // measure 30
0000
0000
0000
0300
,  // measure 31
0020
0000
0000
0000
,  // measure 32
0000
0000
0000
0030
,  // measure 33
1000
0000
0000
0000
,  // measure 34
0001
0000
0000
0000
,  // measure 35
0010
0000
0000
0000
,  // measure 36
0100
0000
1000
0000
,  // measure 37
0001
0000
0000
0000
,  // measure 38
1000
0000
0000
0000
,  // measure 39
0010
0000
0000
0000
,  // measure 40
0200
0000
0300
0000
,  // measure 41
0010
0000
0010
0000
,  // measure 42
0010
0000
0000
0000
,  // measure 43
1000
0000
1000
0000
,  // measure 44
1000
0000
0000
0000
,  // measure 45
0001
0000
0001
0000
,  // measure 46
0001
0000
0000
0000
,  // measure 47
1000
0000
1000
0000
,  // measure 48
1000
0000
0000
0000
,  // measure 49
0010
0000
0100
0000
,  // measure 50
0010
0000
0000
0000
,  // measure 51
1000
0000
0001
0000
,  // measure 52
1000
0000
0000
0000
,  // measure 53
0001
0000
0010
0000
,  // measure 54
0001
0000
0000
0000
,  // measure 55
1000
0000
0100
0000
,  // measure 56
1000
0000
0002
0000
,  // measure 57
0103
0000
0010
0000
,  // measure 58
2000
0000
3000
0000
,  // measure 59
0010
0000
0100
0000
,  // measure 60
0002
0000
0003
0000
,  // measure 61
0010
0000
0100
0000
,  // measure 62
2000
0000
3000
0000
,  // measure 63
0100
0000
0010
0000
,  // measure 64
0002
0000
0003
0000
,  // measure 65
1000
0000
0001
0000
,  // measure 66
0200
0000
0301
0000
,  // measure 67
0100
0000
0001
0000
,  // measure 68
2000
0000
3100
0000
,  // measure 69
1000
0000
0001
0000
,  // measure 70
0200
0000
0310
0000
,  // measure 71
0010
0000
0100
0000
,  // measure 72
0002
0000
0000
0000
,  // measure 73
1003
0000
0000
0000
,  // measure 74
0000
0000
0001
0000
0000
0001
0000
0000
,  // measure 75
0000
0000
0000
0000
,  // measure 76
0000
0000
1000
0000
0000
1000
0000
0000
,  // measure 77
0000
0000
0000
0000
,  // measure 78
0000
0000
0010
0000
0000
0010
0000
0000
,  // measure 79
0000
0000
0000
0000
,  // measure 80
0000
0000
0100
0000
0000
0100
0000
0000
;
