#VERSION:0.83;
#TITLE:Welcome;
#SUBTITLE:;
#ARTIST:Uraken;
#TITLETRANSLIT:;
#SUBTITLETRANSLIT:;
#ARTISTTRANSLIT:;
#GENRE:;
#CREDIT:;
#MUSIC:Welcome.ogg;
#BANNER:banner.png;
#BACKGROUND:banner.png;
#JACKET:jacket.png;
#DISCIMAGE:;
#CDIMAGE:;
#SELECTABLE:YES;
#LYRICSPATH:;
#CDTITLE:cdtitle.png;
#SAMPLESTART:74.364;
#SAMPLELENGTH:23.126;
#OFFSET:1.342;
#BPMS:0.000000=170.000000;
#STOPS:;
#WARPS:;
#DELAYS:;
#SPEEDS:;
#SCROLLS:;
#TICKCOUNTS:;
#TIMESIGNATURES:;
#LABELS:;
#COMBOS:;
#FAKES:;
#BGCHANGES:;
#FGCHANGES:;
#ATTACKS:;

//---------------dance-single - ---------------
#NOTEDATA:;
#CHARTNAME:;
#CHARTSTYLE:;
#CREDIT:Pandemonium X;
#STEPSTYPE:dance-single;
#DESCRIPTION:;
#DIFFICULTY:Beginner;
#METER:5;
#METERF:5;
#RADARVALUES:0,0,0,0,0;
#NOTES:
// measure 0
0000
0000
0000
0000
,  // measure 1
0000
0000
0000
0000
,  // measure 2
0000
0000
0000
0000
,  // measure 3
0000
0000
0000
0000
,  // measure 4
0000
0000
0000
0000
,  // measure 5
0000
0000
0000
0000
,  // measure 6
0001
0000
0000
0000
,  // measure 7
0000
0000
0000
0000
,  // measure 8
1000
0000
0001
0000
,  // measure 9
1000
1000
1000
0000
,  // measure 10
0010
0000
0000
0000
,  // measure 11
0010
0000
0000
0000
,  // measure 12
0010
0000
0000
0000
,  // measure 13
0100
0000
0010
0000
,  // measure 14
0100
0000
0000
0000
,  // measure 15
0100
0000
0000
0000
,  // measure 16
0001
0001
1000
1000
,  // measure 17
0001
1000
0010
0110
,  // measure 18
0001
0000
0000
0000
,  // measure 19
1000
0000
0000
0000
,  // measure 20
0001
0000
0000
0000
,  // measure 21
0010
0000
0000
0000
,  // measure 22
0001
0000
0000
0000
,  // measure 23
1000
0000
0000
0000
,  // measure 24
0010
0000
0000
0000
,  // measure 25
1000
0000
0000
0000
,  // measure 26
0200
0000
0000
0000
,  // measure 27
1300
0000
0001
1000
,  // measure 28
0020
0000
0000
0030
,  // measure 29
0200
0000
0000
0300
,  // measure 30
0002
0000
0000
0003
,  // measure 31
2000
0000
0001
3001
,  // measure 32
0002
0000
0000
0103
0000
0000
0010
0000
,  // measure 33
2000
0000
0000
0000
,  // measure 34
0002
0000
0000
0000
,  // measure 35
0000
0000
0000
0000
,  // measure 36
0000
0000
0000
0000
,  // measure 37
0000
0000
0000
3003
,  // measure 38
0001
1000
0001
0001
,  // measure 39
0000
0000
0000
0000
,  // measure 40
1000
0001
1000
1000
,  // measure 41
0000
0000
0000
0000
,  // measure 42
0001
1000
0001
0001
,  // measure 43
0000
0000
0000
0000
,  // measure 44
1000
0001
1000
1000
,  // measure 45
0001
0000
0100
0000
,  // measure 46
0010
0010
0100
0000
,  // measure 47
0100
0100
0010
0000
,  // measure 48
0110
0000
1001
0000
,  // measure 49
0110
1001
1000
0001
,  // measure 50
0200
0000
0000
0300
0000
0000
0000
0000
,  // measure 51
0020
0000
0000
0030
0000
0000
0000
0000
,  // measure 52
2000
0000
0000
0000
,  // measure 53
3001
0000
0000
1000
,  // measure 54
0200
0000
0000
0300
,  // measure 55
0020
0000
0031
0001
,  // measure 56
1000
0000
1000
0000
,  // measure 57
0001
0000
0100
0000
,  // measure 58
0020
0000
0000
0030
,  // measure 59
2000
0000
3001
0001
,  // measure 60
1000
1000
0001
0001
,  // measure 61
0110
0000
0000
0000
,  // measure 62
1000
0000
0001
0000
,  // measure 63
0100
0000
0001
0000
,  // measure 64
0010
0000
0100
0000
,  // measure 65
1000
1000
1000
0000
,  // measure 66
0001
0000
0100
0000
,  // measure 67
0001
0000
1000
0000
,  // measure 68
0100
0000
0010
0000
,  // measure 69
0002
0000
0003
0000
,  // measure 70
1000
0000
0000
0001
,  // measure 71
0100
0000
0000
0010
,  // measure 72
1000
0010
0000
1000
,  // measure 73
0001
0000
1000
0000
,  // measure 74
0100
0000
0000
0010
,  // measure 75
0100
0000
0000
1000
,  // measure 76
0010
0000
0000
0100
,  // measure 77
0001
0000
0000
1000
,  // measure 78
0001
0000
0000
1000
,  // measure 79
1000
0000
0000
0010
,  // measure 80
0100
0000
0000
0010
,  // measure 81
1000
0000
0001
0000
,  // measure 82
0010
0000
0000
0100
,  // measure 83
0100
0000
0000
0010
,  // measure 84
0010
0000
0000
0000
,  // measure 85
0001
0000
1000
0000
,  // measure 86
0110
0000
0000
0000
;

//---------------dance-single - ---------------
#NOTEDATA:;
#CHARTNAME:;
#CHARTSTYLE:;
#CREDIT:Pandemonium X;
#STEPSTYPE:dance-single;
#DESCRIPTION:;
#DIFFICULTY:Easy;
#METER:8;
#METERF:8;
#RADARVALUES:0,0,0,0,0;
#NOTES:
// measure 0
0000
0000
0000
0000
,  // measure 1
0000
0000
0000
0000
,  // measure 2
0000
0000
0000
0000
,  // measure 3
0000
0000
0000
0000
,  // measure 4
0000
0000
0000
0000
,  // measure 5
0000
0000
0000
0000
,  // measure 6
0001
0000
1000
0000
0001
1000
0001
0000
,  // measure 7
0000
0000
0000
0000
,  // measure 8
1000
1000
0001
0001
,  // measure 9
0100
0010
0100
0010
0100
0000
0000
0000
,  // measure 10
0001
0000
1000
0000
0001
1000
0001
0000
,  // measure 11
1000
0000
0001
0000
1000
0001
1000
0000
,  // measure 12
0001
0000
1000
0000
0001
1000
0001
0000
,  // measure 13
0100
0010
1000
0020
,  // measure 14
1030
0000
0001
0000
1000
0001
1000
0000
,  // measure 15
0001
0000
1000
0000
0001
1000
0001
0000
,  // measure 16
1001
1001
0110
0110
,  // measure 17
0001
1000
0010
0100
0001
0000
1001
0000
,  // measure 18
1000
0000
0000
0000
,  // measure 19
0001
0000
0000
0000
,  // measure 20
0010
0000
0000
0000
,  // measure 21
0001
0000
0000
0000
,  // measure 22
1000
0000
0000
0000
,  // measure 23
0010
0000
0000
0000
,  // measure 24
0100
0000
0000
0000
,  // measure 25
0010
0000
0000
0000
,  // measure 26
2001
0000
0000
0000
,  // measure 27
3002
0000
2003
3002
,  // measure 28
0013
0000
0000
0010
0000
0000
0010
0000
,  // measure 29
0100
0000
0000
0100
0000
0000
0100
0000
,  // measure 30
2000
0000
0000
0000
,  // measure 31
3002
0000
0103
0001
,  // measure 32
0010
0000
0000
0010
0000
0000
0010
0000
,  // measure 33
0200
0000
0000
0000
,  // measure 34
0000
1000
0000
1000
0000
1000
0000
1000
,  // measure 35
0000
1000
0000
1000
0000
1000
0000
1000
,  // measure 36
0000
1000
0000
1000
0000
1000
0000
2000
,  // measure 37
0000
0000
0000
0300
,  // measure 38
3001
0000
0100
0000
0010
1000
0001
0000
,  // measure 39
0000
0000
0000
0000
,  // measure 40
0010
0000
0001
0000
1000
0010
0100
0000
,  // measure 41
0000
0000
0000
0000
,  // measure 42
0010
0000
0100
0000
0001
1000
0100
0000
,  // measure 43
0000
0000
0000
0000
,  // measure 44
0010
0000
0001
0000
1000
0001
0010
0000
,  // measure 45
0100
0010
0100
0010
0100
0010
0200
0000
,  // measure 46
1300
0000
0100
0000
0010
0001
0010
0000
,  // measure 47
0001
0000
0100
0000
0010
1000
0010
0000
,  // measure 48
1000
1000
0001
0001
,  // measure 49
1000
0000
0001
0000
1000
0001
1000
0000
,  // measure 50
0002
0000
0000
0003
0000
0000
0000
0000
,  // measure 51
2000
0000
0000
3000
0000
0000
0000
0000
,  // measure 52
0020
0000
0000
0000
,  // measure 53
0000
0000
0000
0000
0000
0100
0130
0000
,  // measure 54
0002
0000
0000
0003
,  // measure 55
2000
0000
3100
1000
,  // measure 56
0002
0000
0000
1003
0000
0000
0001
0000
,  // measure 57
0020
0000
0000
0230
0000
0000
1300
0000
,  // measure 58
0002
0000
0000
0003
,  // measure 59
0020
0000
0031
0010
,  // measure 60
0001
0100
0001
0100
0001
0100
0001
1000
,  // measure 61
0200
0000
0300
0010
,  // measure 62
0100
1000
0010
0100
,  // measure 63
0001
0010
0100
0001
,  // measure 64
0100
1000
0001
0100
,  // measure 65
1000
0100
0010
1000
,  // measure 66
0001
0010
1000
0010
,  // measure 67
0100
0001
0100
1000
,  // measure 68
0010
0001
0010
2000
,  // measure 69
0002
0000
3003
0110
,  // measure 70
0001
0000
0000
1000
0000
0000
0100
0000
,  // measure 71
0010
0000
0000
0100
,  // measure 72
1000
0010
0000
0100
,  // measure 73
0001
0100
0010
1000
,  // measure 74
1001
0000
0000
0001
,  // measure 75
1000
0100
0000
0100
,  // measure 76
0010
0000
0000
0100
,  // measure 77
0010
0001
0100
0001
,  // measure 78
1000
0001
0100
0001
,  // measure 79
0010
0000
0000
0100
,  // measure 80
0010
0001
0000
0010
,  // measure 81
0100
0100
1000
1000
,  // measure 82
1001
0001
1000
0011
,  // measure 83
0110
0100
0010
0011
,  // measure 84
2000
3100
0020
0031
,  // measure 85
0200
0000
0000
0000
,  // measure 86
0310
0000
0000
0000
;

//---------------dance-single - ---------------
#NOTEDATA:;
#CHARTNAME:;
#CHARTSTYLE:;
#CREDIT:Pandemonium X;
#STEPSTYPE:dance-single;
#DESCRIPTION:;
#DIFFICULTY:Medium;
#METER:12;
#METERF:12;
#RADARVALUES:0,0,0,0,0;
#NOTES:
// measure 0
0000
0000
0000
0000
,  // measure 1
0000
0000
0000
0000
,  // measure 2
0000
0000
0000
0000
,  // measure 3
0000
0000
0000
0000
,  // measure 4
0000
0000
0000
0000
,  // measure 5
0000
0000
0000
0000
,  // measure 6
1001
0000
0101
0000
0001
1000
0100
0000
,  // measure 7
0000
0000
0000
0000
,  // measure 8
1100
0000
0000
0000
1100
0000
0000
0000
0011
0000
0000
0000
0011
0000
0000
0001
,  // measure 9
1000
1000
0001
1000
0002
0000
0103
0000
,  // measure 10
1010
0000
1100
0000
0100
0010
0001
0000
,  // measure 11
0011
0000
0101
0000
0001
0100
0010
0000
,  // measure 12
1010
0000
1100
0000
0100
0010
0001
0000
,  // measure 13
1000
1000
0001
0001
0100
0100
0020
0000
,  // measure 14
1030
0000
1100
0000
1000
0100
0001
0000
,  // measure 15
0100
0000
1100
0000
1000
0100
0001
0000
,  // measure 16
0101
0000
0000
0000
1100
0000
0000
0000
0110
0000
0000
0000
1001
0000
0000
0001
,  // measure 17
1000
1000
0001
1000
0002
0000
0013
0000
,  // measure 18
1200
0000
0000
0000
,  // measure 19
2300
0000
0000
0000
,  // measure 20
3020
0000
0000
0000
,  // measure 21
0230
0000
0000
0000
,  // measure 22
0302
0000
0000
0000
,  // measure 23
2003
0000
0000
0000
,  // measure 24
3020
0000
0000
0000
,  // measure 25
0230
0000
0000
0300
,  // measure 26
0120
0000
0000
0000
,  // measure 27
0230
0000
0302
2003
,  // measure 28
3002
0000
0013
0200
0000
0301
0010
1000
,  // measure 29
0020
0000
0130
2000
0000
3010
0200
0000
,  // measure 30
0320
0000
0000
0000
,  // measure 31
2030
0000
3002
2003
,  // measure 32
3200
0000
0301
0200
0000
0310
0001
1000
,  // measure 33
0020
0000
0000
0000
,  // measure 34
0000
0100
0000
0100
0000
1000
0000
1000
,  // measure 35
0000
0100
0000
0100
0000
1000
0000
1000
,  // measure 36
0000
0100
0000
0100
0000
1000
0000
0200
,  // measure 37
0000
0000
0000
0330
,  // measure 38
1001
0000
1001
0000
0001
0100
0010
0000
,  // measure 39
0000
0000
0000
0000
,  // measure 40
1001
0000
1001
0000
1000
0100
0010
0000
,  // measure 41
0000
0000
0000
0000
,  // measure 42
1001
0000
1001
0000
0001
1000
1010
0000
,  // measure 43
0000
1000
0000
1000
,  // measure 44
1001
0000
1001
0000
1000
0001
0011
0000
,  // measure 45
0001
0001
1000
1000
0010
0010
0200
0000
,  // measure 46
0301
0000
1010
0000
1000
0100
0010
0000
,  // measure 47
0001
0000
1100
0000
1000
0010
0100
0000
,  // measure 48
0001
1100
1000
0011
,  // measure 49
0101
0000
1010
0000
0001
1000
0110
0000
,  // measure 50
0002
0000
0000
0000
0000
0000
0000
0000
1000
0000
0000
1000
0000
0000
1003
0000
,  // measure 51
0200
0000
0000
0000
0000
0000
0000
0000
0010
0000
0000
0010
0000
0000
0310
0000
,  // measure 52
0200
0000
0000
0000
,  // measure 53
1300
0000
0000
0000
0000
0001
0100
0001
,  // measure 54
2000
0100
0100
3100
,  // measure 55
0020
0001
0230
2300
,  // measure 56
3020
0000
0130
2000
0000
3100
0001
1000
,  // measure 57
0100
0000
0000
0100
0000
0000
0100
0000
0010
0100
0000
0010
0000
0100
0010
0000
,  // measure 58
0002
0100
0100
0100
,  // measure 59
2003
0100
3002
2003
,  // measure 60
3001
0010
0001
0100
1000
0100
0001
1000
,  // measure 61
0200
0000
0000
0000
0000
0310
0001
1000
,  // measure 62
0001
0010
0010
0100
1000
1000
0100
0010
,  // measure 63
0001
1000
1000
0010
1000
1000
0001
1000
,  // measure 64
0010
0100
0100
0001
1000
1000
0001
0010
,  // measure 65
0100
0000
0000
0100
0000
0000
0100
0000
0010
0100
0000
0010
0000
0100
0010
0000
,  // measure 66
0001
0001
1000
0010
0010
1000
0001
0010
,  // measure 67
0001
0010
0010
0001
1000
1000
0001
1000
,  // measure 68
0010
1000
1000
0001
0010
0010
0100
2000
,  // measure 69
0002
0000
0000
3003
,  // measure 70
1000
0010
1000
0001
0000
0010
0100
0010
,  // measure 71
0001
1000
0001
0000
0000
1000
0100
0010
,  // measure 72
0100
1000
0001
0000
0000
0010
0100
0010
,  // measure 73
0001
0000
0000
0001
0000
0000
0001
0000
1000
0001
0000
1000
0000
0001
1000
0000
,  // measure 74
0100
0000
0000
0000
0000
0010
0100
0010
,  // measure 75
0100
1000
0100
0010
0000
0100
0010
0000
,  // measure 76
0011
0000
0000
0000
0000
0001
0010
0001
,  // measure 77
0100
0100
0001
1000
0000
0001
0010
0100
,  // measure 78
0010
0010
0100
1000
0000
0100
1000
1000
,  // measure 79
0010
0100
0010
0000
0000
0100
1000
0100
,  // measure 80
0001
1000
0100
0000
0000
0001
0100
1000
,  // measure 81
0010
0000
0000
0010
0000
0000
0010
0000
0100
0010
0000
0100
0000
0010
0100
0000
,  // measure 82
0001
0000
1000
0000
0100
0000
0000
0100
0000
0000
0010
0000
0001
0000
0000
0001
,  // measure 83
0000
0000
1000
0000
0010
0000
0000
0010
0000
0000
0100
0000
0001
0000
0000
0001
,  // measure 84
0000
0000
1000
0000
0100
0000
0000
0010
0000
0000
0001
0000
0010
0000
0000
0100
,  // measure 85
0000
1000
0010
0000
0100
0000
0010
0100
0000
0010
0100
0000
0001
0000
1000
0001
,  // measure 86
0010
0000
0000
0000
;

//---------------dance-single - ---------------
#NOTEDATA:;
#CHARTNAME:;
#CHARTSTYLE:;
#CREDIT:Pandemonium X;
#STEPSTYPE:dance-single;
#DESCRIPTION:;
#DIFFICULTY:Hard;
#METER:13;
#METERF:13;
#RADARVALUES:0,0,0,0,0;
#NOTES:
// measure 0
0000
0000
0000
0000
,  // measure 1
0000
0000
0000
0000
,  // measure 2
0000
0000
0000
0000
,  // measure 3
0000
0000
0000
0000
,  // measure 4
0000
0000
0000
0000
,  // measure 5
0000
0000
0000
0000
,  // measure 6
0201
0000
0310
0000
0100
0001
1000
0000
,  // measure 7
0100
0010
0100
1000
,  // measure 8
1100
0000
0000
0000
1100
0000
0000
0000
0011
0000
0000
0000
0011
0000
0000
0001
,  // measure 9
1000
1000
0001
1000
0010
0100
1001
0000
,  // measure 10
1001
0000
0000
0000
0101
0000
0000
0000
0001
0010
0001
0000
1000
0000
0000
0000
,  // measure 11
1001
0000
0000
0000
1100
0000
0000
0000
1000
0010
1000
0000
0010
0000
0000
0000
,  // measure 12
1001
0000
0000
0000
0011
0000
0000
0000
0010
0001
0010
0000
0001
0000
0000
0000
,  // measure 13
0100
0000
0100
0000
0001
0000
0001
0000
1000
0000
1000
0000
0010
1000
0010
1000
,  // measure 14
0010
0000
0000
0100
0010
0000
0000
0010
1000
0000
0001
0000
0010
0000
0000
0000
,  // measure 15
0100
0000
0000
0100
0010
0000
0000
0010
0001
0000
1000
0000
0010
0000
0000
0000
,  // measure 16
0110
0000
0000
0000
0110
0000
0000
0000
1001
0000
0000
0000
1001
0000
0000
0001
,  // measure 17
0100
0010
0001
0010
1000
0100
0011
0000
,  // measure 18
2001
0000
0000
0000
,  // measure 19
3002
0000
0000
0000
,  // measure 20
0203
0000
0000
0000
,  // measure 21
0302
0000
0000
0000
,  // measure 22
2003
0000
0000
0000
,  // measure 23
3002
0000
0000
0000
,  // measure 24
0023
0000
0000
0000
,  // measure 25
0032
0000
0000
0000
,  // measure 26
0203
0000
0000
0000
,  // measure 27
0320
0000
0230
0302
,  // measure 28
2003
0000
3001
0010
0000
M010
0100
0001
,  // measure 29
2000
0000
3001
0100
0000
010M
2000
0000
,  // measure 30
3002
0000
0000
0000
,  // measure 31
2003
0000
3200
0320
,  // measure 32
0032
0000
1003
0010
0000
M010
0100
1000
,  // measure 33
0002
0000
0000
0000
,  // measure 34
0000
2003
0000
3200
0000
0320
0000
0230
,  // measure 35
0000
2300
0000
3002
0000
0203
0000
0302
,  // measure 36
0000
2003
0000
3200
0000
0320
0000
0400
,  // measure 37
0000
0000
0000
0330
,  // measure 38
1001
0000
0101
0000
0001
0010
1000
0000
,  // measure 39
0000
0000
0000
0000
,  // measure 40
1010
0000
0011
0000
0001
0100
1000
0000
,  // measure 41
0000
0000
0000
0000
,  // measure 42
1100
0000
0101
0000
0001
0010
1000
0000
,  // measure 43
0000
0010
0000
0010
,  // measure 44
1010
0000
0011
0000
0001
0100
1000
0000
,  // measure 45
0100
0000
0100
0000
0010
0000
0010
0000
1000
0000
1000
0000
0001
1000
0001
1000
,  // measure 46
0001
0000
1100
0000
1000
0010
0001
0000
,  // measure 47
0011
0000
1010
0000
0001
0100
1000
0000
,  // measure 48
1100
0101
1100
0101
,  // measure 49
1100
0000
0101
0000
0001
1000
1001
0000
,  // measure 50
0001
0100
0001
0000
1000
0000
0001
0010
0000
0000
0000
0000
0000
0000
0000
0000
,  // measure 51
0100
1000
0100
0000
1000
0000
0001
1000
0000
0000
0000
0000
0000
0000
0000
0000
,  // measure 52
0001
0100
0001
0000
1000
0000
0100
0010
0000
0100
1000
0000
0001
0000
1000
0000
,  // measure 53
0010
0100
0010
0000
0100
0000
0001
1000
0000
0000
0200
0000
0320
0000
0230
0000
,  // measure 54
2300
0100
0001
0100
,  // measure 55
3002
1000
0203
0320
,  // measure 56
1030
0000
1000
0010
0000
M010
0001
1000
,  // measure 57
0010
0000
0000
0010
0000
0000
0010
0000
0100
0010
0000
0100
0000
0010
0100
0000
,  // measure 58
0002
0100
1000
0100
,  // measure 59
0023
0100
0032
2003
,  // measure 60
3001
0010
001M
1000
0010
M010
0001
1000
,  // measure 61
0200
0000
0000
0000
0000
1300
0001
0001
,  // measure 62
1000
0010
M010
0001
0100
010M
1000
0001
,  // measure 63
1000
0100
M100
0001
0010
001M
1000
0001
,  // measure 64
1000
0010
M010
0001
1000
100M
0010
0001
,  // measure 65
1000
0000
0000
1000
0000
0000
1000
0000
0001
0100
0000
0010
0000
1000
0001
0000
,  // measure 66
1000
0010
M010
0001
0100
010M
1000
0001
,  // measure 67
1000
0100
M100
0001
0010
001M
1000
0001
,  // measure 68
0001
0100
010M
1000
0001
M001
0010
1000
,  // measure 69
0100
0000
0010
0001
1000
0000
0001
0000
1000
0000
0000
0000
1200
0000
0000
0000
,  // measure 70
0310
1000
0010
0001
0000
0100
1000
0100
,  // measure 71
0001
0001
1000
0000
0001
1000
0100
0001
,  // measure 72
0100
0100
1000
0000
0100
0010
0010
0001
,  // measure 73
1000
0000
0000
1000
0000
0000
1000
0000
0001
0100
0000
0001
0000
1000
0100
0000
,  // measure 74
1000
0000
0001
0000
0100
0010
0001
0010
,  // measure 75
1000
0001
1000
0100
0000
0001
0100
0000
,  // measure 76
1000
0000
0100
0000
0010
0100
0100
0010
,  // measure 77
0001
0000
1000
0001
0100
0000
0001
0000
0010
0000
0000
0010
0000
0000
0010
0000
,  // measure 78
0100
0001
0100
1000
0000
0001
0100
1000
,  // measure 79
0100
0001
1000
0000
1000
0001
0010
0001
,  // measure 80
1000
1000
0001
0000
1000
0100
0100
0010
,  // measure 81
0011
0000
0000
0101
0000
0000
0011
0000
0000
0000
0001
0000
1000
0000
0001
0000
,  // measure 82
0100
0000
0001
0000
1000
0000
0100
1000
0000
1000
0001
0000
0100
0000
0010
1000
,  // measure 83
0001
1000
0100
0000
1000
0000
0100
0010
0000
0010
0001
0000
1000
0000
0001
0100
,  // measure 84
0010
1000
0001
0000
0010
0000
0100
1000
0000
1000
0001
0000
0100
0000
0001
0000
,  // measure 85
1000
0001
1000
0000
0001
0000
1000
0001
0000
1000
0001
0000
1000
0000
0001
1000
,  // measure 86
0200
0000
0000
0000
,  // measure 87
0300
0000
0000
0000
;

//---------------dance-double - ---------------
#NOTEDATA:;
#CHARTNAME:;
#CHARTSTYLE:;
#CREDIT:Pandemonium X;
#STEPSTYPE:dance-double;
#DESCRIPTION:;
#DIFFICULTY:Easy;
#METER:8;
#METERF:8;
#RADARVALUES:0,0,0,0,0;
#NOTES:
// measure 0
00000000
00000000
00000000
00000000
,  // measure 1
00000000
00000000
00000000
00000000
,  // measure 2
00000000
00000000
00000000
00000000
,  // measure 3
00000000
00000000
00000000
00000000
,  // measure 4
00000000
00000000
00000000
00000000
,  // measure 5
00000000
00000000
00000000
00000000
,  // measure 6
00010000
00000000
00001000
00000000
00010000
00001000
00010000
00000000
,  // measure 7
00000000
00000000
00000000
00000000
,  // measure 8
00000100
00000100
00010000
00010000
,  // measure 9
00001000
01000000
00100000
10010000
,  // measure 10
10000000
00000000
01000000
00000000
00100000
00010000
00100000
00000000
,  // measure 11
00010000
00000000
01000000
00000000
00001000
01000000
00001000
00000000
,  // measure 12
00010000
00000000
00000100
00000000
00001000
00000100
00001000
00000000
,  // measure 13
00000001
00000000
00000100
00000000
00001000
00000000
00000100
00000001
,  // measure 14
00001000
00000000
00000100
00000000
00000010
00000001
00000010
00000000
,  // measure 15
00000100
00000000
00001000
00000000
00000010
00001000
00000010
00000000
,  // measure 16
00001010
00001010
00001100
00001100
,  // measure 17
00000100
00010000
00001000
01000000
00010000
10000000
11000000
00000000
,  // measure 18
02000000
00000000
00000000
03000000
,  // measure 19
00200000
00000000
00000000
00300000
,  // measure 20
00020000
00000000
00000000
00030000
,  // measure 21
02000000
00000000
00000000
03000000
,  // measure 22
00002000
00000000
00000000
00003000
,  // measure 23
00020000
00000000
00000000
00030000
,  // measure 24
00000200
00000000
00000000
00000300
,  // measure 25
00002000
00000000
00000000
00003000
,  // measure 26
00001020
00000000
00000000
00000000
,  // measure 27
00000230
00000000
00000320
00000230
,  // measure 28
00000301
00000000
00000000
00000001
00000000
00000000
00000001
00000000
,  // measure 29
00001000
00000000
00000000
00001000
00000000
00000000
00000100
00000000
,  // measure 30
00020000
00000000
00000000
00000000
,  // measure 31
00032000
00000000
00013000
00001000
,  // measure 32
01000000
00000000
00000000
01000000
00000000
00000000
00100000
00000000
,  // measure 33
20000000
00000000
00000000
00000000
,  // measure 34
00000000
01000000
00000000
01000000
00000000
01000000
00000000
01000000
,  // measure 35
00000000
01000000
00000000
01000000
00000000
01000000
00000000
01000000
,  // measure 36
00000000
01000000
00000000
01000000
00000000
01000000
00000000
02000000
,  // measure 37
00000000
00000000
00000000
33000000
,  // measure 38
10000000
00000000
00010000
00000000
01000000
00100000
01000000
00000000
,  // measure 39
00000000
00000000
00000000
00000000
,  // measure 40
00100000
00000000
01000000
00000000
00010000
01000000
00010000
00000000
,  // measure 41
00000000
00000000
00000000
00000000
,  // measure 42
00100000
00000000
00001000
00000000
00010000
00001000
00010000
00000000
,  // measure 43
00000000
00000000
00000000
00000000
,  // measure 44
00001000
00000000
00010000
00000000
00000100
00010000
00000100
00000000
,  // measure 45
00001000
00000000
00000010
00000000
00000100
00000000
00000001
00000001
,  // measure 46
00001000
00000000
00000001
00000000
00000100
00000010
00000100
00000000
,  // measure 47
00000001
00000000
00001000
00000000
00000010
00000100
00000010
00000000
,  // measure 48
00000001
00001000
00000001
00001000
,  // measure 49
00000001
00000000
00001000
00000000
00000010
00000100
00000010
00000000
,  // measure 50
00002000
00000000
00000000
00003000
00000000
00000000
00000000
00000000
,  // measure 51
00000200
00000000
00000000
00000300
00000000
00000000
00000000
00000000
,  // measure 52
00020000
00000000
00000000
00000000
,  // measure 53
00002000
00000000
00000000
00033000
00000000
00000000
00000000
00000000
,  // measure 54
00201000
00000000
00000000
00000000
,  // measure 55
00320000
00000000
02030000
03200000
,  // measure 56
10300000
00000000
00000000
01000000
00000000
00000000
10000000
00000000
,  // measure 57
00010000
00000000
00000000
01000000
00000000
00000000
00010000
00000000
,  // measure 58
00200000
00000000
00000000
00000000
,  // measure 59
00302000
00000000
00023000
00030200
,  // measure 60
00001300
00000010
00000100
00000001
,  // measure 61
00002002
00000000
00003003
00000001
,  // measure 62
00000100
00000001
00000100
00000001
,  // measure 63
00000100
00000010
00000100
00000010
,  // measure 64
00001000
00000010
00001000
00000010
,  // measure 65
00001000
00000100
00010000
00001000
,  // measure 66
01000000
00010000
01000000
00010000
,  // measure 67
01000000
00100000
01000000
00100000
,  // measure 68
01000000
00010000
10000000
00100000
,  // measure 69
20020000
00000000
30030000
01100000
,  // measure 70
10000000
00010000
00100000
00000000
,  // measure 71
01000000
10000000
00010000
00000000
,  // measure 72
00100000
00001000
00010000
00000000
,  // measure 73
00001000
00010000
00000100
00001000
,  // measure 74
00000010
00000000
00000000
00000100
,  // measure 75
00000001
00001000
00000000
00000100
,  // measure 76
00000010
00000000
00000000
00000100
,  // measure 77
00001000
00001000
00001000
00000001
,  // measure 78
00000100
00000010
00000000
00000100
,  // measure 79
00000001
00000000
00000000
00000010
,  // measure 80
00000100
00001000
00000000
00000100
,  // measure 81
00010000
00001000
01000000
00010000
,  // measure 82
00100000
00000000
00000000
01000000
,  // measure 83
10000000
00000000
00000000
01000000
,  // measure 84
00100000
00000000
00000000
01000000
,  // measure 85
10000000
00000000
00010000
00000000
,  // measure 86
01100000
00000000
00000000
00000000
;

//---------------dance-double - ---------------
#NOTEDATA:;
#CHARTNAME:;
#CHARTSTYLE:;
#CREDIT:Pandemonium X;
#STEPSTYPE:dance-double;
#DESCRIPTION:;
#DIFFICULTY:Medium;
#METER:11;
#METERF:11;
#RADARVALUES:0,0,0,0,0;
#NOTES:
// measure 0
00000000
00000000
00000000
00000000
,  // measure 1
00000000
00000000
00000000
00000000
,  // measure 2
00000000
00000000
00000000
00000000
,  // measure 3
00000000
00000000
00000000
00000000
,  // measure 4
00000000
00000000
00000000
00000000
,  // measure 5
00000000
00000000
00000000
00000000
,  // measure 6
00001000
00000000
00100000
00000000
00001000
00100000
00001000
00000000
,  // measure 7
00000000
00000000
00000000
00000000
,  // measure 8
00011000
00011000
00010100
00010100
,  // measure 9
00000100
00001000
00000001
00000100
00000001
00000000
00001010
00000000
,  // measure 10
00000010
00000000
00000100
00000000
00000100
00000001
00001000
00000000
,  // measure 11
00000100
00000000
00001000
00000000
00001000
00000100
00010000
00000000
,  // measure 12
00001000
00000000
01000000
00000000
01000000
00010000
10000000
00000000
,  // measure 13
01000000
00100000
00010000
00100000
00001000
00100000
00002000
00000000
,  // measure 14
00013000
00000000
00000100
00000000
00000100
00001000
00000001
00000000
,  // measure 15
00000100
00000000
00000010
00000000
00000010
00010000
00001000
00000000
,  // measure 16
00011000
00011000
00110000
00110000
,  // measure 17
00010000
01000000
00100000
10000000
00010000
00100000
00110000
00000000
,  // measure 18
10020000
00000000
00000000
00000000
,  // measure 19
00230000
00000000
00000000
00000000
,  // measure 20
00302000
00000000
00000000
00000000
,  // measure 21
00023000
00000000
00000000
00000000
,  // measure 22
00030200
00000000
00000000
00000000
,  // measure 23
00002300
00000000
00000000
00000000
,  // measure 24
00003020
00000000
00000000
00000000
,  // measure 25
00000200
00000000
00000000
00000330
,  // measure 26
00001002
00000000
00000000
00000000
,  // measure 27
00000203
00000000
00000320
00002030
,  // measure 28
00003100
00000000
00001000
00000100
00000000
00001000
00000100
00010000
,  // measure 29
00001000
00000000
00010000
00001000
00000000
00010000
00001000
00000000
,  // measure 30
02000000
00000000
00000000
00000000
,  // measure 31
03200000
00000000
02300000
03020000
,  // measure 32
10030000
00000000
10000000
01000000
00000000
01000000
00100000
00001000
,  // measure 33
00020000
00000000
00000000
00000000
,  // measure 34
00000000
00032000
00000000
00023000
00000000
00230000
00000000
20300000
,  // measure 35
00000000
32000000
00000000
03200000
00000000
00320000
00000000
00032000
,  // measure 36
00000000
00003200
00000000
00000320
00000000
00000032
00000000
00002000
,  // measure 37
00000000
00000000
00000000
00000003
,  // measure 38
00003100
00000000
00000010
00000000
00000010
00000001
00001000
00000000
,  // measure 39
00000000
00000000
00000000
00000000
,  // measure 40
00000010
00000000
00000100
00000000
00000100
00000010
00001000
00000000
,  // measure 41
00000000
00000000
00000000
00000000
,  // measure 42
00000100
00000000
00001000
00000000
00001000
00000100
00010000
00000000
,  // measure 43
00000000
00000000
00000000
00000000
,  // measure 44
00001000
00000000
01000000
00000000
01000000
00010000
00100000
00000000
,  // measure 45
01000000
10000000
00010000
00100000
01000000
10000000
00020000
00000000
,  // measure 46
01030000
00000000
00010000
00000000
00010000
00100000
00001000
00000000
,  // measure 47
00010000
00000000
00000100
00000000
00000100
00001000
00000001
00000000
,  // measure 48
00000100
00001001
00000100
00001001
,  // measure 49
00000100
00000000
00001001
00000000
00000001
00000100
00000110
00000000
,  // measure 50
00001010
00000000
00000000
00000000
,  // measure 51
00001100
00000000
00000000
00000000
,  // measure 52
00020100
00000000
00000000
00000000
,  // measure 53
00031000
00000000
00000000
00000000
00000000
00001000
00100000
00010000
,  // measure 54
00200000
00000000
00000000
00300000
,  // measure 55
02000000
00000000
23000000
30200000
,  // measure 56
01300000
00000000
00010000
01000000
00000000
00010000
00100000
00001000
,  // measure 57
00010000
00000000
00000000
00010000
00000000
00000000
00010000
00000000
00000100
00001000
00000000
00000100
00000000
00001000
00000100
00000000
,  // measure 58
00000020
00000000
00000000
00000000
,  // measure 59
00000230
00000000
00000310
00000001
,  // measure 60
00000100
00000010
00000100
00000001
00001000
00000001
00001000
00000100
,  // measure 61
00020000
00000000
00000000
00000000
00030000
00001000
01000000
00001000
,  // measure 62
01000000
00100000
01000000
00010000
01000000
00100000
10000000
00000000
,  // measure 63
01000000
00100000
01000000
10000000
00010000
01000000
00010000
00000000
,  // measure 64
00100000
00010000
00100000
00001000
00010000
00001000
01000000
00001000
,  // measure 65
00010000
00000100
00010000
00000100
00001000
00000001
00001000
00000010
,  // measure 66
00000100
00000001
00000100
00000001
00001000
00000100
00000010
00000001
,  // measure 67
00001000
00000010
00001000
00000010
00000100
00000001
00001000
00000100
,  // measure 68
00010000
00001000
01000000
00010000
00100000
01000000
10000000
00010000
,  // measure 69
02020000
00000000
03030000
10100000
,  // measure 70
10000000
01000000
00100000
00010000
00000000
00100000
01000000
10000000
,  // measure 71
00010000
01000000
00010000
00000000
00000000
00100000
00010000
00010000
,  // measure 72
00100000
00001000
00010000
00000000
00000000
00000100
00001000
00000010
,  // measure 73
00000100
00000000
00000000
00000100
00000000
00000000
00000100
00000000
00000010
00000100
00000000
00000010
00000000
00000100
00000010
00000000
,  // measure 74
00001000
00000000
00000000
00000000
00000000
00000001
00000010
00000100
,  // measure 75
00000010
00000010
00000100
00001000
00000000
00001000
00000100
00000000
,  // measure 76
00010100
00000000
00000000
00000000
00000000
00010000
00001000
00100000
,  // measure 77
00010000
00010000
01000000
00001000
00000000
00010000
00000100
00001000
,  // measure 78
00000010
00000010
00000100
00000001
00000000
00000010
00000100
00001000
,  // measure 79
00000100
00010000
00000100
00000000
00000000
00010000
00001000
00010000
,  // measure 80
00000100
00000100
00010000
00000000
00000000
00001000
01000000
01000000
,  // measure 81
00100000
00000000
00000000
00100000
00000000
00000000
00100000
00000000
01000000
00100000
00000000
01000000
00000000
00100000
01000000
00000000
,  // measure 82
00100000
00000000
10000000
00000000
01000000
00000000
00000000
01000000
00000000
00000000
00100000
00000000
00010000
00000000
00000000
00010000
,  // measure 83
00000000
00000000
01000000
00000000
00001000
00000000
00000000
00001000
00000000
00000000
00010000
00000000
00000100
00000000
00000000
00000100
,  // measure 84
00001000
00000000
00000010
00000000
00000100
00000000
00000000
00000001
00000000
00000000
00000010
00000000
00000100
00000000
00000000
00001000
,  // measure 85
00000000
00000000
00000100
00000000
00000100
00000000
00000000
00010000
00000000
00000000
00001000
00000000
00001000
00000000
00000000
00010000
,  // measure 86
00002000
00000000
00000000
00000000
,  // measure 87
00003000
00000000
00000000
00000000
;

//---------------dance-double - ---------------
#NOTEDATA:;
#CHARTNAME:;
#CHARTSTYLE:;
#CREDIT:Pandemonium X;
#STEPSTYPE:dance-double;
#DESCRIPTION:;
#DIFFICULTY:Hard;
#METER:12;
#METERF:12;
#RADARVALUES:0,0,0,0,0;
#NOTES:
// measure 0
00000000
00000000
00000000
00000000
,  // measure 1
00000000
00000000
00000000
00000000
,  // measure 2
00000000
00000000
00000000
00000000
,  // measure 3
00000000
00000000
00000000
00000000
,  // measure 4
00000000
00000000
00000000
00000000
,  // measure 5
00000000
00000000
00000000
00000000
,  // measure 6
00010000
00000000
00001000
00000000
00010000
00000100
00001000
00000000
,  // measure 7
00000000
00000000
00000000
00000000
,  // measure 8
00001010
00000000
00000000
00000000
00000101
00000000
00000000
00000000
00001001
00000000
00000000
00000000
00001001
00000000
00000000
00000001
,  // measure 9
00000100
00001000
00010000
00100000
10000000
00000000
01010000
00000000
,  // measure 10
00210000
00000000
01000000
00000000
00310000
10000000
00100000
00000000
,  // measure 11
10200000
00000000
01000000
00000000
10300000
00010000
00100000
00000000
,  // measure 12
00102000
00000000
00010000
00000000
00103000
00001000
00010000
00000000
,  // measure 13
00001000
00000000
00001000
00000000
00010000
00000000
00010000
00000000
00000100
00000000
00000100
00000000
00001000
00000001
00001000
00000001
,  // measure 14
00002000
00000000
00000001
00000000
00003100
00000010
00000001
00000000
,  // measure 15
00000021
00000000
00000100
00000000
00000031
00001000
00000010
00000000
,  // measure 16
00001010
00000000
00000000
00000000
00001010
00000000
00000000
00000000
00011000
00000000
00000000
00000000
00011000
00000000
00000000
00001000
,  // measure 17
00100000
00010000
10000000
01000000
00100000
00000000
11000000
00000000
,  // measure 18
20000000
00000000
00000000
00000000
,  // measure 19
30200000
00000000
00000000
00000000
,  // measure 20
02300000
00000000
00000000
00000000
,  // measure 21
03020000
00000000
00000000
00000000
,  // measure 22
00230000
00000000
00000000
00000000
,  // measure 23
00302000
00000000
00000000
00000000
,  // measure 24
00023000
00000000
00000000
00000000
,  // measure 25
00002000
00000000
00000000
00033000
,  // measure 26
00201000
00000000
00000000
00000000
,  // measure 27
00320000
00000000
01030000
00010000
,  // measure 28
00100000
00000000
01000000
00100000
00000000
00100000
01000000
10000000
,  // measure 29
00010000
00000000
00010000
01000000
00000000
01000000
00001000
00000000
,  // measure 30
00020000
00000000
00000000
00000000
,  // measure 31
00030200
00000000
00001300
00000010
,  // measure 32
00000100
00000000
00000100
00000010
00000000
00000010
00001000
00000100
,  // measure 33
00020000
00000000
00000000
00000000
,  // measure 34
00000000
00001000
00000000
00000100
00000000
00001000
00000000
00000100
,  // measure 35
00000000
00001000
00000000
00000100
00000000
00001000
00000000
00000100
,  // measure 36
00000000
00001000
00000000
00000100
00000000
00001000
00000000
00000200
,  // measure 37
00000000
00000000
00000000
00030300
,  // measure 38
00010000
00000000
00001000
00000000
01000000
00010000
00100000
00000000
,  // measure 39
00000000
01000000
00000000
01000000
,  // measure 40
10000000
00000000
00100000
00000000
01000000
00010000
00100000
00000000
,  // measure 41
00000000
00010000
00000000
00010000
,  // measure 42
00100000
00000000
00001000
00000000
00010000
00000010
00001000
00000000
,  // measure 43
00000000
00000001
00000000
00000001
,  // measure 44
00000100
00000000
00000010
00000000
00001000
00000100
00000010
00000000
,  // measure 45
00000100
00000000
00000100
00000000
00001000
00000000
00001000
00000000
00000010
00000000
00000010
00000000
00000100
00000001
00000100
00000001
,  // measure 46
00000100
00000000
00000010
00000000
00001000
00000100
00010000
00000000
,  // measure 47
00001000
00000000
01000000
00000000
00010000
01000000
00100000
00000000
,  // measure 48
10100000
01010000
10100000
01010000
,  // measure 49
10100000
00000000
01010000
00000000
00010000
10000000
10010000
00000000
,  // measure 50
10000000
01000000
10000000
00000000
01000000
00000000
00100000
00010000
00000000
00000000
00000000
00000000
00000000
00000000
00000000
00000000
,  // measure 51
00100000
00010000
00100000
00000000
00010000
00000000
00100000
00001000
00000000
00000000
00000000
00000000
00000000
00000000
00000000
00000000
,  // measure 52
00010000
00001000
00010000
00000000
00000100
00000000
00001000
00000010
00000000
00000010
00000100
00000000
00000001
00000000
00001000
00000000
,  // measure 53
00000100
00010000
00001000
00000000
01000000
00000000
00001000
00010000
00000000
00000000
00002000
00000000
02003000
00000000
03020000
00000000
,  // measure 54
00230000
01000000
00010000
01300000
,  // measure 55
00200000
01000000
00302000
00023000
,  // measure 56
00030200
00000000
00001300
00000020
00000000
00000130
00000001
00000010
,  // measure 57
00000100
00000000
00000000
00000100
00000000
00000000
00000100
00000000
00000100
00000010
00000000
00000010
00000000
00000010
00000100
00000000
,  // measure 58
00002000
00000001
00000010
00003001
,  // measure 59
00000020
00000100
00000032
00000203
,  // measure 60
00000310
00001000
00001000
00000100
00010000
00010000
00001000
01000000
,  // measure 61
01010000
00000000
00010000
10000000
01000000
00000000
00100000
00000000
00010000
00000000
00100000
00000000
01000000
00000000
10000000
00000000
,  // measure 62
00010000
01000000
01000000
00010000
00100000
00100000
00010000
00100000
,  // measure 63
00001000
00010000
00010000
00001000
01000000
01000000
00001000
00010000
,  // measure 64
00000100
00001000
00001000
00000010
00000100
00000100
00000001
00000010
,  // measure 65
00000100
00000000
00000000
00000100
00000000
00000000
00000100
00000000
00001000
00000100
00000000
00010000
00000000
00010000
00001000
00000000
,  // measure 66
01000000
00100000
00100000
10000000
00010000
00010000
00100000
00001000
,  // measure 67
00010000
00000100
00000100
00001000
00000001
00000001
00000100
00000010
,  // measure 68
00001000
00000001
00000001
00000010
00000100
00000100
00001000
00000100
,  // measure 69
00010000
00000000
00001000
01000000
00100000
00000000
10000000
00000000
01000000
00000000
00100000
00000000
00210000
00000000
00000000
00000000
,  // measure 70
01300000
00010000
01000000
10000000
00000000
00100000
00010000
00100000
,  // measure 71
01000000
00010000
00100000
00000000
00000000
00100000
00001000
00010000
,  // measure 72
00000010
00001000
00000100
00000000
00000000
00000010
00001000
00000010
,  // measure 73
00000001
00000000
00000000
00000001
00000000
00000000
00000001
00000000
00001000
00000001
00000000
00001000
00000000
00001000
00000001
00000000
,  // measure 74
00000100
00000000
00000000
00000000
00000000
00000010
00000001
00000010
,  // measure 75
00000100
00000010
00001000
00000100
00000000
00010000
00001000
00000000
,  // measure 76
01000000
00000000
00100000
00000000
00000000
01000000
00100000
00100000
,  // measure 77
00010000
00100000
10000000
00010000
00000000
00100000
01000000
10000000
,  // measure 78
01000000
00100000
00010000
00001000
00000000
00010000
00001000
00000100
,  // measure 79
00000010
00000001
00001000
00000000
00000000
00000010
00000100
00001000
,  // measure 80
00010000
00001000
00010000
00000000
00000000
00001000
01000000
00100000
,  // measure 81
10000000
00000000
00000000
10000000
00000000
00000000
00010000
00000000
00000000
00000000
00010000
00000000
10000000
00000000
01000000
00000000
,  // measure 82
00100000
00000000
00010000
00000000
10000000
00000000
00010000
00100000
00000000
00000000
00010000
00000000
00100000
00000000
00001000
00010000
,  // measure 83
00000000
00000000
00001000
00000000
00010000
00000000
00000100
00010000
00000000
00000000
00000100
00000000
00001000
00000000
00000010
00000100
,  // measure 84
00000001
00000000
00001000
00000000
00000100
00000000
00000010
00000001
00000000
00000010
00000100
00000000
00001000
00000000
00000100
00000000
,  // measure 85
00010000
00001000
01000000
00000000
00010000
00000000
01000000
00100000
00000000
01000000
00010000
00000000
10000000
00000000
00010000
00100000
,  // measure 86
01000000
00000000
00000000
00000000
;
