#VERSION:0.83;
#TITLE:バイキングマン;
#SUBTITLE:;
#ARTIST:ブタパンチ;
#TITLETRANSLIT:Vikingman;
#SUBTITLETRANSLIT:;
#ARTISTTRANSLIT:;
#GENRE:;
#CREDIT:;
#MUSIC:Vikingman.ogg;
#BANNER:banner.png;
#BACKGROUND:background.png;
#JACKET:jacket.png;
#DISCIMAGE:;
#CDIMAGE:;
#SELECTABLE:YES;
#LYRICSPATH:;
#CDTITLE:cdtitle.png;
#SAMPLESTART:71.276;
#SAMPLELENGTH:14.370;
#OFFSET:1.468;
#BPMS:0.000000=100.000000,
13.000000=133.000000,
229.000000=100.000000,
240.000000=133.000000
;
#STOPS:240.500000=0.451000;
#WARPS:;
#DELAYS:;
#SPEEDS:;
#SCROLLS:;
#TICKCOUNTS:;
#TIMESIGNATURES:;
#LABELS:;
#COMBOS:;
#FAKES:;
#BGCHANGES:;
#FGCHANGES:;
#ATTACKS:;

//---------------dance-single - ---------------
#NOTEDATA:;
#CHARTNAME:;
#CHARTSTYLE:;
#CREDIT:Pandemonium X;
#STEPSTYPE:dance-single;
#DESCRIPTION:;
#DIFFICULTY:Hard;
#METER:13;
#METERF:13;
#RADARVALUES:0,0,0,0,0;
#NOTES:
// measure 0
0000
0000
0000
0000
,  // measure 1
0000
0000
0000
0000
,  // measure 2
0000
0000
1001
2002
0000
0000
0000
0000
,  // measure 3
0000
3003
0000
0000
,  // measure 4
0000
0201
0310
1200
,  // measure 5
0310
0011
1100
1001
,  // measure 6
0001
1000
1200
0000
0301
0000
0201
0000
,  // measure 7
1300
0011
1100
0011
,  // measure 8
1100
1000
0010
0100
0010
0100
0010
0100
,  // measure 9
0010
0000
0100
0000
0001
1000
0001
1000
0001
1000
0001
1000
0100
0010
0100
0000
,  // measure 10
1000
0000
0010
0100
0001
0000
1000
0000
0001
0000
1000
0000
0001
0000
10M0
0000
,  // measure 11
00M1
0000
10M0
0000
00M1
0000
1M00
0000
0M01
0000
1M00
0000
0001
0010
0100
0000
,  // measure 12
0100
0000
0010
0001
1000
0000
0010
0000
1000
0000
0010
0000
0100
0000
0001
0000
,  // measure 13
1000
0100
1000
0002
0000
0000
0003
0000
,  // measure 14
1000
0010
1000
0000
0001
0000
1000
0000
0001
0000
0010
0000
0001
0000
1000
0100
,  // measure 15
1000
0001
2000
0000
0000
0000
0000
0000
,  // measure 16
3000
0000
0001
0100
0001
0000
0100
0000
0001
0000
0010
0000
1000
0000
0010
0000
,  // measure 17
0001
1000
0100
0001
0100
1000
0010
0000
,  // measure 18
0100
0000
0010
0000
1000
0001
0000
1000
0001
0000
1000
0001
1000
0000
0001
0000
,  // measure 19
1000
0000
0100
0000
1000
0000
0010
0000
0100
0010
1000
0000
0101
0000
0000
0000
,  // measure 20
0001
0100
0010
1000
0001
0000
0000
0000
1000
0000
0000
0000
0001
0000
0000
0000
,  // measure 21
1000
0001
1000
0001
,  // measure 22
1000
0000
0000
0000
0001
0000
0100
0000
0010
1000
0010
1000
0001
0000
1000
0000
,  // measure 23
0100
1000
0100
1000
0001
0000
0000
0000
2000
0000
0000
3001
0200
0000
0000
0000
,  // measure 24
0000
0000
0301
0000
1000
0000
0100
1000
0100
0000
0010
0001
0010
0000
0001
0100
,  // measure 25
0001
0000
1000
0000
0001
0000
1000
0010
1000
0100
1000
0001
0020
0000
0000
0000
,  // measure 26
0130
0000
0000
1000
0100
0000
0100
0000
0010
0000
0001
0000
0100
0000
0100
0000
,  // measure 27
0010
1000
0001
0001
1000
0001
1001
0000
,  // measure 28
1000
0000
0001
0000
1000
0000
0000
0001
1000
0000
0010
0000
0100
0000
0010
0000
,  // measure 29
1000
0100
0010
0000
0110
0000
1001
1000
,  // measure 30
0001
0001
2000
0000
0100
3100
0000
1000
,  // measure 31
0001
0000
1000
0001
0010
0002
0000
0100
,  // measure 32
0103
0000
0001
1000
0001
0020
0000
0100
,  // measure 33
0130
0010
0100
1000
0001
1000
0000
0000
,  // measure 34
1001
0000
0001
0200
0000
0000
0310
0000
1000
0020
0000
0000
,  // measure 35
0130
0000
0000
0000
0000
0000
0000
0000
0010
0000
0000
0000
1000
0000
0000
0000
0000
0000
0001
0000
0000
0010
0000
0000
0001
0000
0000
M010
0000
0000
M001
0000
0000
M010
0000
0000
M100
0000
0000
0000
0000
0000
0000
0000
0000
0000
0000
0000
,  // measure 36
1000
0100
0110
0000
0011
0000
0101
0000
,  // measure 37
1010
0000
0000
0000
1002
0000
0000
0000
0000
0003
1000
0001
2000
0000
0000
0000
,  // measure 38
0000
0000
0000
0000
0000
0000
3001
0000
0000
1000
0000
0000
0001
0000
0000
0000
0000
0000
1000
0000
0000
0001
0000
0000
1000
0000
0000
0000
0001
0000
0000
0000
1000
0000
0000
0000
0001
0000
0000
0000
0000
0000
0000
0000
0000
0000
0000
0000
,  // measure 39
0000
0000
0000
0000
1000
0000
0001
0010
0001
0000
1000
0000
0010
0000
0100
0001
,  // measure 40
0100
0000
0010
0000
1000
0000
0100
0010
0100
0000
0010
0000
0001
0010
0001
0010
,  // measure 41
0100
1000
0100
1000
1001
0000
0000
0101
0000
0000
2002
0000
0000
0000
0000
0000
,  // measure 42
3003
0000
0000
0000
1001
0000
0000
1100
0000
0000
2002
0000
0000
0000
0000
0000
,  // measure 43
3003
0000
0000
0000
0001
0000
0100
0010
0100
0000
0010
0000
1000
0000
0100
1000
,  // measure 44
0100
0000
0010
0000
0110
0000
0100
1000
0100
0000
1000
0000
0001
0100
0001
0100
,  // measure 45
0010
1000
0010
1000
1001
0000
0000
0011
0000
0000
2002
0000
0000
0000
0000
0000
,  // measure 46
3003
0000
0000
0000
1001
0000
0000
1010
0000
0000
2002
0000
0000
0000
0000
0000
,  // measure 47
3003
0000
0001
0100
0001
0100
0001
0100
,  // measure 48
0001
0100
1000
0100
1000
0100
1000
0100
,  // measure 49
1000
0100
0001
0010
0001
0010
0001
0010
,  // measure 50
0001
0010
1000
0010
1000
0010
1000
0010
,  // measure 51
0001
0100
0110
0000
0110
0000
1001
1001
,  // measure 52
0110
0110
1001
0000
1001
0000
1001
1001
,  // measure 53
0110
0000
0000
0110
0000
0000
1001
0000
0000
0000
1000
0000
0100
0000
1000
0000
0001
0000
0100
0000
0010
0000
0100
0000
,  // measure 54
0001
0010
0100
0010
0000
0010
0001
0100
0010
1000
0001
0010
,  // measure 55
0100
1000
0001
1000
0000
0000
0200
0000
0000
0000
0000
0000
,  // measure 56
0000
0300
0000
0000
,  // measure 57
0000
0000
0000
0000
1000
0100
1000
0010
,  // measure 58
0100
0001
0010
0100
0010
0001
0100
0010
,  // measure 59
1000
0001
0010
0100
0010
0001
1000
0010
,  // measure 60
0200
0000
0000
0300
0001
1000
0100
0010
0001
0000
0000
0000
0000
0000
0000
0000
,  // measure 61
2002
0000
0000
0000
0000
0000
0000
0000
0000
0000
0000
0000
0000
0000
0000
0000
0000
0000
0000
0000
0000
0000
0000
0000
0000
0000
0000
0000
3003
0000
0000
M00M
0110
0000
0000
0000
0000
0000
0000
0000
0000
0000
0000
0000
0000
0000
0000
0000
0000
0000
0000
0000
0000
0000
0000
0000
0000
0000
0000
0000
0000
0000
0000
0000
;

//---------------dance-single - ---------------
#NOTEDATA:;
#CHARTNAME:;
#CHARTSTYLE:;
#CREDIT:Pandemonium X;
#STEPSTYPE:dance-single;
#DESCRIPTION:;
#DIFFICULTY:Medium;
#METER:9;
#METERF:9;
#RADARVALUES:0,0,0,0,0;
#NOTES:
// measure 0
0000
0000
0000
0000
,  // measure 1
0000
0000
0000
0000
,  // measure 2
0000
0000
1001
2002
0000
0000
0000
0000
,  // measure 3
0000
3003
0000
0000
,  // measure 4
0000
0101
1001
1100
,  // measure 5
1001
0011
1100
0011
,  // measure 6
0001
0100
0001
0000
1001
0000
1010
0000
,  // measure 7
1001
0011
1100
0011
,  // measure 8
0001
0100
0002
0000
0100
0000
0100
0000
,  // measure 9
0103
0004
4000
0000
0000
0000
0000
0000
,  // measure 10
0000
0000
3003
0000
0000
0000
0000
0220
,  // measure 11
0000
0000
0000
0330
0000
0000
0000
0000
,  // measure 12
0000
0001
1000
0000
0100
0000
1000
0000
,  // measure 13
0010
0100
0010
2000
0000
0000
3000
0000
,  // measure 14
0010
0000
0100
0000
0001
0000
0010
0100
,  // measure 15
0010
0001
2000
0000
0000
0000
0000
0000
,  // measure 16
3000
0000
0001
0001
0001
0000
1000
1000
,  // measure 17
1000
0000
0010
0010
0100
0100
0010
0000
,  // measure 18
0100
0000
0001
0000
1000
0000
0001
0100
,  // measure 19
1000
0100
0001
0010
1000
0010
0001
0000
,  // measure 20
0010
0100
1000
0000
0001
0000
1000
0000
,  // measure 21
0001
1000
0001
1000
,  // measure 22
0001
0000
1000
0010
1000
0010
1000
0001
,  // measure 23
0100
0001
0200
0000
0000
0000
0300
0000
,  // measure 24
0000
0000
0001
0010
0001
0010
0100
1000
,  // measure 25
0100
1000
0002
0000
0000
0000
0000
0000
,  // measure 26
0003
1000
0001
0100
,  // measure 27
0010
0000
1000
0010
0100
0001
0010
0000
,  // measure 28
0100
0010
0001
0100
,  // measure 29
0010
1001
0110
1001
,  // measure 30
0000
0000
0002
0000
1000
1003
0000
0000
,  // measure 31
0000
0000
2000
0000
0001
3001
0000
0000
,  // measure 32
0000
0000
0020
0000
0100
0130
0000
0000
,  // measure 33
0000
0000
0200
0000
0010
0310
0000
0000
,  // measure 34
0110
1001
0000
0110
,  // measure 35
0000
2001
0010
0020
,  // measure 36
3030
0010
0100
0001
,  // measure 37
1000
1001
0000
0110
,  // measure 38
0000
1001
0110
1001
,  // measure 39
0000
0101
0100
0110
,  // measure 40
0010
1010
1000
1100
,  // measure 41
0100
0000
0000
0000
0010
0000
0000
0010
0000
0000
0020
0000
0000
0000
0000
0000
,  // measure 42
0030
0000
0000
0000
0010
0000
0000
0010
0000
0000
0020
0000
0000
0000
0000
0000
,  // measure 43
0030
0011
0001
1001
,  // measure 44
1000
1010
0010
0110
,  // measure 45
0010
0000
0000
0000
0100
0000
0000
0100
0000
0000
0200
0000
0000
0000
0000
0000
,  // measure 46
0300
0000
0000
0000
0100
0000
0000
0100
0000
0000
0200
0000
0000
0000
0000
0000
,  // measure 47
0300
0002
0100
1000
,  // measure 48
0100
2003
0100
0001
,  // measure 49
3100
2000
0010
0001
,  // measure 50
0010
3002
0010
1000
,  // measure 51
0010
0000
1003
0000
1000
0000
0001
0001
,  // measure 52
0001
0001
1000
0000
1000
0000
0001
0001
,  // measure 53
0001
0001
2000
0000
0000
0000
3200
0000
,  // measure 54
0000
0320
0000
0032
,  // measure 55
0000
2000
0000
0000
,  // measure 56
0000
0000
3003
0000
,  // measure 57
0000
0000
0000
0000
0001
1000
0001
0010
,  // measure 58
0001
1000
0100
1000
0001
0100
0001
1000
,  // measure 59
0010
1000
0100
0010
0001
1000
0001
1000
,  // measure 60
0000
0000
0001
0100
0010
0000
0000
0000
,  // measure 61
1020
0000
0130
0000
;

//---------------dance-single - ---------------
#NOTEDATA:;
#CHARTNAME:;
#CHARTSTYLE:;
#CREDIT:Pandemonium X;
#STEPSTYPE:dance-single;
#DESCRIPTION:;
#DIFFICULTY:Easy;
#METER:6;
#METERF:6;
#RADARVALUES:0,0,0,0,0;
#NOTES:
// measure 0
0000
0000
0000
0000
,  // measure 1
0000
0000
0000
0000
,  // measure 2
0000
0000
0010
0020
0000
0000
0000
0000
,  // measure 3
0000
0030
0000
0000
,  // measure 4
0000
0001
0000
1000
,  // measure 5
0000
0001
1000
0001
,  // measure 6
1000
0001
1000
0000
0000
0000
0000
0000
,  // measure 7
0000
0001
1000
0001
,  // measure 8
1000
0001
1000
0000
0000
0000
0000
0000
,  // measure 9
0010
2002
0000
0000
,  // measure 10
0000
3003
0000
0000
,  // measure 11
0000
0000
0000
0000
,  // measure 12
0000
0001
0100
0001
,  // measure 13
1000
0200
0000
0300
,  // measure 14
0010
0100
1000
0001
,  // measure 15
0100
0002
0000
0000
,  // measure 16
0003
1000
0001
1000
,  // measure 17
0010
1000
1000
1000
,  // measure 18
0001
1000
0100
0010
,  // measure 19
0001
0000
1000
0000
0001
0100
0001
0000
,  // measure 20
0100
0001
1000
0000
0001
0000
1000
0000
,  // measure 21
0001
1000
0001
1000
,  // measure 22
0001
1000
1000
0001
,  // measure 23
0001
0200
0320
0200
,  // measure 24
0330
0010
0100
0001
,  // measure 25
1000
0200
0320
0200
,  // measure 26
0330
0010
0000
0001
,  // measure 27
0000
1000
0001
0100
,  // measure 28
0000
0010
0000
0100
,  // measure 29
0000
1001
0110
1001
,  // measure 30
0000
0002
0000
0000
,  // measure 31
0003
2000
0000
0000
,  // measure 32
3000
0020
0000
0000
,  // measure 33
0030
0200
0000
0300
,  // measure 34
0010
0100
0000
0001
,  // measure 35
0000
1000
0200
0300
,  // measure 36
1000
0001
0100
0010
,  // measure 37
1000
1001
0000
1001
,  // measure 38
0000
1001
0110
1001
,  // measure 39
0000
0001
0000
1000
,  // measure 40
0000
0100
0000
0010
,  // measure 41
0001
0200
0000
0000
,  // measure 42
0300
0200
0000
0000
,  // measure 43
0300
0010
0000
0100
,  // measure 44
0000
0001
0000
1000
,  // measure 45
0001
0020
0000
0000
,  // measure 46
0030
0020
0000
0000
,  // measure 47
0030
2200
0000
0000
,  // measure 48
3300
0022
0000
0000
,  // measure 49
0033
2200
0000
0000
,  // measure 50
3300
0022
0000
0000
,  // measure 51
0033
0000
0001
0000
1000
0000
0001
1000
,  // measure 52
0001
1000
0001
0000
1000
0000
0001
1000
,  // measure 53
0001
1000
0001
0000
0000
0000
0100
0000
,  // measure 54
0000
0010
0000
1000
,  // measure 55
0000
0200
0000
0000
,  // measure 56
0000
0000
0000
0000
,  // measure 57
0300
0000
0020
0000
,  // measure 58
0032
0000
0000
2003
,  // measure 59
0000
0000
3020
0000
,  // measure 60
0030
0100
0010
0000
,  // measure 61
1001
0000
1001
0000
;

//---------------dance-single - ---------------
#NOTEDATA:;
#CHARTNAME:;
#CHARTSTYLE:;
#CREDIT:Pandemonium X;
#STEPSTYPE:dance-single;
#DESCRIPTION:;
#DIFFICULTY:Beginner;
#METER:3;
#METERF:3;
#RADARVALUES:0,0,0,0,0;
#NOTES:
// measure 0
0000
0000
0000
0000
,  // measure 1
0000
0000
0000
0000
,  // measure 2
0000
0000
0000
0000
,  // measure 3
0000
0000
0000
0000
,  // measure 4
0000
0001
0000
0001
,  // measure 5
0000
0001
0001
0001
,  // measure 6
0000
1000
0000
1000
,  // measure 7
0000
1000
1000
1000
,  // measure 8
0001
1000
0000
0000
,  // measure 9
0010
2002
0000
0000
,  // measure 10
0000
3003
0000
0000
,  // measure 11
0000
0000
0000
0000
,  // measure 12
0000
0001
0000
1000
,  // measure 13
0000
0001
0000
0000
,  // measure 14
0000
0100
0000
0010
,  // measure 15
0000
0100
0000
0000
,  // measure 16
0000
0010
0000
1000
,  // measure 17
0000
0001
0001
0001
,  // measure 18
0000
1000
0000
0001
,  // measure 19
0000
0100
0010
1001
,  // measure 20
0002
1003
0000
0000
,  // measure 21
0000
0000
0000
0000
,  // measure 22
0000
1000
0000
0001
,  // measure 23
0000
2000
0000
3000
,  // measure 24
0000
0001
0000
1000
,  // measure 25
0000
0002
0000
0003
,  // measure 26
0000
0100
0000
0010
,  // measure 27
0000
1000
0001
1000
,  // measure 28
0000
0100
0000
1000
,  // measure 29
0000
0001
1000
0001
,  // measure 30
0000
0200
0000
0000
,  // measure 31
0300
0020
0000
0000
,  // measure 32
0030
0200
0000
0000
,  // measure 33
0300
0000
0020
0000
0000
0000
0000
0030
,  // measure 34
0000
0100
0000
0010
,  // measure 35
0000
1000
1001
0000
,  // measure 36
0000
0001
0000
1000
,  // measure 37
0000
0010
0000
0010
,  // measure 38
0000
0010
0010
0010
,  // measure 39
0000
1001
0000
0000
,  // measure 40
0000
0110
0000
0000
,  // measure 41
0000
0002
0000
0003
,  // measure 42
0000
2000
0000
3000
,  // measure 43
0000
0110
0000
0000
,  // measure 44
0000
1001
0000
0000
,  // measure 45
0000
2000
0000
0000
,  // measure 46
3000
0002
0000
0000
,  // measure 47
0003
0200
0000
0000
,  // measure 48
0300
0020
0000
0000
,  // measure 49
0030
0200
0000
0000
,  // measure 50
0300
0020
0000
0000
,  // measure 51
0030
1000
1000
0000
,  // measure 52
0000
0001
0001
0000
,  // measure 53
0000
1000
0000
0001
,  // measure 54
0000
0100
0000
0010
,  // measure 55
0000
0100
0000
0000
,  // measure 56
0000
0000
0000
0000
,  // measure 57
0000
0000
0002
0000
,  // measure 58
0000
0000
0000
0000
,  // measure 59
0000
0000
0000
0000
,  // measure 60
0003
0000
0000
0000
,  // measure 61
1001
0000
1001
0000
;

//---------------dance-double - ---------------
#NOTEDATA:;
#CHARTNAME:;
#CHARTSTYLE:;
#CREDIT:Pandemonium X;
#STEPSTYPE:dance-double;
#DESCRIPTION:;
#DIFFICULTY:Easy;
#METER:6;
#METERF:6;
#RADARVALUES:0,0,0,0,0;
#NOTES:
// measure 0
00000000
00000000
00000000
00000000
,  // measure 1
00000000
00000000
00000000
00000000
,  // measure 2
00000000
00000000
00001000
00020000
00000000
00000000
00000000
00000000
,  // measure 3
00000000
00030000
00000000
00000000
,  // measure 4
00000000
00001000
00000000
00010000
,  // measure 5
00000000
00001000
00010000
00001000
,  // measure 6
00010000
00001000
00010000
00000000
00000000
00000000
00000000
00000000
,  // measure 7
00000000
00001000
00010000
00001000
,  // measure 8
00010000
00001000
00010000
00000000
00000000
00000000
00000000
00000000
,  // measure 9
00001000
00022000
00000000
00000000
,  // measure 10
00000000
00033000
00000000
00000000
,  // measure 11
00000000
00000000
00000000
00000000
,  // measure 12
00000000
00001000
00010000
00001000
,  // measure 13
01000000
00002000
00000000
00003000
,  // measure 14
00010000
00001000
00010000
00000100
,  // measure 15
00010000
00002000
00000000
00000000
,  // measure 16
00003000
00100000
00000000
00010000
,  // measure 17
00000000
01000000
01000000
01000000
,  // measure 18
00000000
00100000
00000000
01000000
,  // measure 19
00000000
10010000
01100000
10010000
,  // measure 20
10000000
00010000
10000000
00000000
00010000
00000000
20000000
00000000
,  // measure 21
00000000
30000000
00010000
00200000
,  // measure 22
00300000
00010000
00000000
01000000
,  // measure 23
00000000
00010000
00100000
00020000
,  // measure 24
00030000
00100000
00000000
00001000
,  // measure 25
00000000
00010000
00000100
00002000
,  // measure 26
00003000
00000001
00000000
00000100
,  // measure 27
00000000
00000010
00000100
00000010
,  // measure 28
00000000
00001000
00000000
00000001
,  // measure 29
00000000
00001001
00000110
00001001
,  // measure 30
00000000
00000002
00000000
00000000
,  // measure 31
00000003
00000200
00000000
00000000
,  // measure 32
00000300
00000020
00000000
00000000
,  // measure 33
00000030
00002000
00000000
00000000
,  // measure 34
00003100
00020000
00030000
00002000
,  // measure 35
00003000
00022000
00000000
00033000
,  // measure 36
00001000
00100000
00010000
00100000
,  // measure 37
00001000
00011000
00000000
00011000
,  // measure 38
00000000
00011000
00011000
00011000
,  // measure 39
00000000
00020000
00030100
00001000
,  // measure 40
00000010
00000200
00000302
00002003
,  // measure 41
00003100
00000022
00000000
00000033
,  // measure 42
00000000
00002200
00000000
00003300
,  // measure 43
00000000
00000200
00020300
00000000
,  // measure 44
00030000
00022000
00033000
00000000
,  // measure 45
00000000
02002000
00000000
03003000
,  // measure 46
00000000
00220000
00000000
00000000
,  // measure 47
00330000
00020000
00000000
00000000
,  // measure 48
00000000
20000000
00000000
00000000
,  // measure 49
30030000
20000000
00000000
00000000
,  // measure 50
00000000
00020000
00000000
00000000
,  // measure 51
30030000
10000000
00010000
10010000
,  // measure 52
10010000
00010000
10000000
10010000
,  // measure 53
10010000
00010000
00000000
00100000
,  // measure 54
00000000
00001000
00000000
00010000
,  // measure 55
00000000
00011000
00000000
00000000
,  // measure 56
00000000
00000000
00000000
00000000
,  // measure 57
00000000
00000000
00002000
00000000
,  // measure 58
00023000
00000000
00000000
00032000
,  // measure 59
00000000
00000000
00023000
00000000
,  // measure 60
00030000
00000000
00001000
00010000
00001000
00000000
00000000
00000000
,  // measure 61
00011000
00000000
00011000
00000000
;

//---------------dance-double - ---------------
#NOTEDATA:;
#CHARTNAME:;
#CHARTSTYLE:;
#CREDIT:Pandemonium X;
#STEPSTYPE:dance-double;
#DESCRIPTION:;
#DIFFICULTY:Medium;
#METER:8;
#METERF:8;
#RADARVALUES:0,0,0,0,0;
#NOTES:
// measure 0
00000000
00000000
00000000
00000000
,  // measure 1
00000000
00000000
00000000
00000000
,  // measure 2
00000000
00000000
00011000
00022000
00000000
00000000
00000000
00000000
,  // measure 3
00000000
00000000
00000000
00000000
,  // measure 4
00033000
00001000
00000000
00010000
,  // measure 5
00000000
00001000
00010000
00001000
,  // measure 6
00010000
00001000
00010000
00000000
00011000
00000000
00000000
00000000
,  // measure 7
00011000
00001000
00010000
00001000
,  // measure 8
00010000
00001000
00020000
00000000
00000000
00000000
00000000
00000000
,  // measure 9
00032000
00200000
00000000
00000000
,  // measure 10
00000000
00000000
00303000
00000000
00000000
00000000
00000000
22000000
,  // measure 11
00000000
00000000
00000000
33000000
00000000
00000000
00000000
00000000
,  // measure 12
00000000
10000000
00100000
00000000
01000000
00000000
00010000
00000000
,  // measure 13
00100000
00000000
00001000
00020000
00000000
00000000
00000000
00000000
,  // measure 14
00030100
00001000
00000010
00000000
00000100
00000000
00000001
00000000
,  // measure 15
00000010
00000100
00000020
00000000
00000000
00000000
00000000
00000000
,  // measure 16
00000030
00000100
00000010
00000001
,  // measure 17
00000100
00000000
00000010
00000010
00000100
00000100
00000010
00000000
,  // measure 18
00000100
00000001
00001000
00000100
,  // measure 19
00010000
00000000
00001000
01000000
00010000
00100000
00001000
00000000
,  // measure 20
00010000
00001000
00011000
00000000
00001000
00000000
00020000
00000000
,  // measure 21
00000000
00030000
00001000
00200000
,  // measure 22
00000000
00301000
00010000
00001000
,  // measure 23
00010000
00022000
00000000
00033000
,  // measure 24
00000000
00001000
00010000
00001000
,  // measure 25
00010000
00022000
00000000
00000000
,  // measure 26
00033000
00010000
00000100
00010000
,  // measure 27
00001000
01000000
00001000
00010000
,  // measure 28
00000100
00001000
00000010
00000100
,  // measure 29
00000001
00001001
00000110
00001001
,  // measure 30
00000000
00000000
00002000
00000000
00000000
00003100
00000000
00000000
,  // measure 31
00000000
00000000
00000200
00000000
00000000
00010300
00000000
00000000
,  // measure 32
00000000
00000000
00020000
00000000
00000000
00031000
00000000
00000000
,  // measure 33
00000000
00000000
00002000
00000000
00000000
01003000
00000000
00000000
,  // measure 34
00100000
02000000
03000000
00020000
,  // measure 35
00030000
20000000
00020000
00030000
,  // measure 36
30010000
01000000
00100000
10000000
,  // measure 37
00010000
00110000
00000000
00011000
,  // measure 38
00000000
00001010
00000101
00001001
,  // measure 39
00000000
00000001
00000100
00000010
,  // measure 40
00001000
00000100
00010000
00001000
,  // measure 41
01000000
00000000
00000000
00000000
00010000
00000000
00000000
10000000
00000000
00000000
02000000
00000000
00000000
00000000
00000000
00000000
,  // measure 42
03000000
00000000
00000000
00000000
10000000
00000000
00000000
00010000
00000000
00000000
02000000
00000000
00000000
00000000
00000000
00000000
,  // measure 43
03000000
00000000
00010000
01000000
00100000
00000000
10000000
00000000
,  // measure 44
00010000
00000000
00011000
00000000
00001000
00000000
00010000
00000100
,  // measure 45
00001000
00000000
00000010
00000000
00001000
00000000
00000000
00000001
00000000
00000000
00000020
00000000
00000000
00000000
00000000
00000000
,  // measure 46
00000030
00000000
00000000
00000000
00000001
00000000
00000000
00001000
00000000
00000000
00000020
00000000
00000000
00000000
00000000
00000000
,  // measure 47
00000030
00000200
00000001
00000010
,  // measure 48
00000001
00000320
00001000
00000100
,  // measure 49
00001030
00000200
00001000
00010000
,  // measure 50
00001000
00020300
00001000
00000100
,  // measure 51
00031000
00000000
00011000
00000000
00011000
00000000
00001000
00001000
,  // measure 52
00010000
00010000
00011000
00000000
00011000
00000000
00010000
00010000
,  // measure 53
00001000
00001000
00020000
00000000
00000000
00000000
00030200
00000000
,  // measure 54
00000000
00002300
00000000
00003020
,  // measure 55
00000000
00000000
00000200
00000000
00000000
00000330
00000000
00000000
,  // measure 56
00000000
00000000
00000000
00000000
,  // measure 57
00000000
00000000
00000010
00000100
,  // measure 58
00000001
00001000
00000100
00010000
,  // measure 59
00001000
01000000
00010000
10000000
,  // measure 60
01000000
00000000
00100000
00010000
01000000
00000000
00000000
00000000
,  // measure 61
10200000
00000000
01300000
00000000
;

//---------------dance-double - ---------------
#NOTEDATA:;
#CHARTNAME:;
#CHARTSTYLE:;
#CREDIT:Pandemonium X;
#STEPSTYPE:dance-double;
#DESCRIPTION:;
#DIFFICULTY:Hard;
#METER:13;
#METERF:13;
#RADARVALUES:0,0,0,0,0;
#NOTES:
// measure 0
00000000
00000000
00000000
00000000
,  // measure 1
00000000
00000000
00000000
00000000
,  // measure 2
00000000
00000000
00011000
00022000
00000000
00000000
00000000
00000000
,  // measure 3
00000000
00033000
00000000
00000000
,  // measure 4
00000000
00110000
00000000
00001010
,  // measure 5
00000000
00110000
00001010
00110000
,  // measure 6
00001000
00010000
00001000
00000000
00011000
00000000
00000000
00000000
,  // measure 7
00011000
01010000
00001100
01010000
,  // measure 8
00001000
00010000
00011000
00001000
00010000
00001000
00010000
00001000
,  // measure 9
00010000
00000000
00001000
00000000
00040000
00004000
00000000
00000000
00000000
00000000
00000000
00000000
00000000
00000000
00000000
00000000
,  // measure 10
00000000
00000000
00033000
00000000
00000000
00000000
00000000
00M00000
,  // measure 11
00M00000
00M00000
00M00000
000000M0
000000M0
000000M0
00000000
00000000
,  // measure 12
00000000
00010000
00000100
00000100
00001000
00000010
00000100
00001000
,  // measure 13
00000100
00000001
00001000
00002000
00000000
00000000
00003000
00000000
,  // measure 14
00000100
00010000
00000100
00000000
00010000
00000000
00001000
00000000
01000000
00000000
00100000
00000000
00010000
00000000
00100000
10000000
,  // measure 15
00010000
10000000
02000000
00000000
00000000
00000000
00000000
00000000
,  // measure 16
03000000
00000000
00100000
00010000
00100000
00000000
00010000
00000000
10000000
00000000
00100000
00000000
01000000
00000000
00001000
00000000
,  // measure 17
00010000
00000100
00001000
00001000
00000001
00000001
00000110
00000000
,  // measure 18
00000001
00000000
00001000
00000000
00000010
00000100
00000000
00000010
00000100
00000000
00000010
00000000
00001000
00000000
00000100
00000000
,  // measure 19
00000010
00000000
00000001
00000000
00000100
00000000
00000010
00000000
00010000
00001000
00010000
00000000
00011000
00000000
00000000
00000000
,  // measure 20
00001000
01000000
00010000
01000000
00001000
00000000
00000000
00000000
00010000
00000000
00000000
00000000
00001000
00000000
00000000
00000000
,  // measure 21
00010000
00001000
00010000
00001000
,  // measure 22
00010000
00000000
00000000
00000000
00001000
00000000
01000000
00000000
00010000
01000000
00010000
01000000
00010000
00000000
01000000
00000000
,  // measure 23
00100000
10000000
00100000
10000000
00100000
00000000
00000000
00000000
01000000
00000000
00000000
00010000
00200000
00000000
00000000
00000000
,  // measure 24
00300000
00000000
00000000
00000000
00010000
00000000
10000000
00000000
00010000
00000000
00100000
00001000
00100000
00000000
00001000
00000000
,  // measure 25
00010000
00000000
00000100
00010000
00000100
00000000
00001000
00000010
00001000
00000010
00000100
00000010
00002000
00000000
00000000
00000000
,  // measure 26
00000000
00000000
00003010
00000100
00000001
00000000
00000001
00000000
00001000
00000000
00000100
00000000
00010000
00000000
00010000
00000000
,  // measure 27
00001000
00010000
00000010
00010000
00001000
00100000
00110000
00000000
,  // measure 28
11000000
00000000
00000000
00000000
10010000
00000000
00000000
10000000
00010000
00000000
00100000
00000000
10000000
00000000
00100000
00000000
,  // measure 29
00001000
00010000
00001000
00000000
01000100
00000000
00011000
00000000
,  // measure 30
00000000
00000000
00020000
00000000
00000100
00000200
00000000
00000000
,  // measure 31
00030300
00000100
00020000
00000000
00001000
00002000
00000000
00000000
,  // measure 32
00033000
00000000
00002000
00000000
01000000
02000000
00003000
00000000
,  // measure 33
03001000
00000000
00020000
00000000
00001000
00002000
00033000
00000000
,  // measure 34
00011000
00000000
00010000
00000100
00000000
00000000
00001000
00000000
00000010
00000100
00000000
00000000
,  // measure 35
00000010
00000000
00000100
00000001
00000000
00000000
00020020
00000000
00000000
00030030
00000000
00000000
,  // measure 36
00000010
00001000
00000001
00000000
00000100
00000000
00001000
00000000
,  // measure 37
00010000
00000000
00000000
00000000
00200000
00000000
00000000
00000000
00000000
00000000
01300000
00100000
02000000
00000000
00000000
00000000
,  // measure 38
00000000
00000000
00000000
00000000
00000000
00000000
03100000
00000000
00000000
01000000
00000000
00000000
00100000
00000000
00000000
00000000
00000000
00000000
00100000
00000000
00000000
01000000
00000000
00000000
00100000
00000000
00000000
00000000
01000000
00000000
00000000
00000000
00100000
00000000
00000000
00000000
01000000
00000000
00000000
00000000
00000000
00000000
00000000
00000000
00000000
00000000
00000000
00000000
,  // measure 39
00000000
00000000
00000000
00000000
00010000
00000000
10000000
01000000
10000000
00000000
00010000
00000000
01000000
00000000
00010000
01000000
,  // measure 40
00010000
00000000
01000000
00000000
00001000
00000000
00010000
00000100
00010000
00000000
00000100
00000000
00001000
00000010
00001000
00000010
,  // measure 41
00000100
00000001
00000100
00000001
00001001
00000000
00000000
00011000
00000000
00000000
20020000
00000000
00000000
00000000
00000000
00000000
,  // measure 42
30030000
00000000
00000000
00000000
10010000
00000000
00000000
00011000
00000000
00000000
00002002
00000000
00000000
00000000
00000000
00000000
,  // measure 43
00003003
00000000
00000000
00000000
00000001
00000000
00000100
00000010
00001000
00000000
00000100
00000000
00000010
00000000
00000001
00001000
,  // measure 44
00000010
00000000
00001000
00000000
00011000
00000000
00010000
00001000
00010000
00000000
00001000
00000000
01000000
00010000
01000000
00010000
,  // measure 45
10000000
00100000
10000000
00010000
10010000
00000000
00000000
00011000
00000000
00000000
00002002
00000000
00000000
00000000
00000000
00000000
,  // measure 46
00003003
00000000
00000000
00000000
00001001
00000000
00000000
00011000
00000000
00000000
20020000
00000000
00000000
00000000
00000000
00000000
,  // measure 47
30030000
00000000
00000000
00000000
10000000
00000000
01000000
10000000
01000000
00000000
10000000
00000000
00010000
00000000
01000000
00100000
,  // measure 48
01000000
00000000
00010000
00000000
10000000
00000000
00010000
00100000
00010000
00000000
00100000
00000000
00001000
00010000
00001000
00010000
,  // measure 49
00001000
00010000
00001000
00010000
00001000
00000000
00010000
00000100
00010000
00000000
00000100
00000000
00001000
00000000
00000010
00001000
,  // measure 50
00000010
00000000
00000100
00000000
00000001
00000000
00001000
00000100
00001000
00000000
00000100
00000000
00010000
00001000
00010000
00001000
,  // measure 51
00010000
00001000
00010000
00001000
00020000
00000000
00000000
00000000
00000010
00000000
00000000
00000000
00001000
00000000
00031000
00000000
,  // measure 52
00011000
00011000
00012000
00000000
00100000
00000000
00010000
00013000
,  // measure 53
00011000
00000000
00000000
00011000
00000000
00000000
00010000
00000000
00000000
00000000
00000100
00000000
00001000
00000000
00000010
00000000
00000100
00000000
00000001
00000000
00001000
00000000
00000100
00000000
,  // measure 54
00000010
00000100
00001000
00000001
00000000
00000100
00000010
00001000
00000100
00010000
00001000
01000000
,  // measure 55
00010000
00100000
01000000
10000000
00000000
00000000
00000000
MMMMMMMM
00000000
00000000
00000000
00000000
,  // measure 56
00000000
00000000
00000000
00000000
,  // measure 57
00000000
00000000
00000000
00000000
10000000
01000000
00100000
00010000
,  // measure 58
00001000
00000010
00000001
00001000
00000001
00000100
00001000
00010000
,  // measure 59
00100000
10000000
01000000
00100000
00010000
00001000
00000100
00000010
,  // measure 60
00000002
00000000
00000003
00000000
00000100
00000010
00001000
00000001
00000010
00000000
00000000
00000000
00000000
00000000
00000000
00000000
,  // measure 61
00020200
00000000
00000000
00030300
00001000
00000000
00000000
00000000
;
