#VERSION:0.83;
#TITLE:The Hope of Tomorrow;
#SUBTITLE:;
#ARTIST:Sota Fujimori;
#TITLETRANSLIT:;
#SUBTITLETRANSLIT:;
#ARTISTTRANSLIT:;
#GENRE:;
#CREDIT:;
#MUSIC:The Hope of Tomorrow.ogg;
#BANNER:banner.png;
#BACKGROUND:background.png;
#JACKET:jacket.png;
#DISCIMAGE:;
#CDIMAGE:;
#SELECTABLE:YES;
#LYRICSPATH:;
#CDTITLE:cdtitle.png;
#SAMPLESTART:80.391998;
#SAMPLELENGTH:13.602000;
#OFFSET:1.275;
#BPMS:0.000000=144.000000;
#STOPS:;
#WARPS:;
#DELAYS:;
#SPEEDS:0.000000=1.000000=0.000000=0;
#SCROLLS:0.000000=1.000000;
#TICKCOUNTS:0.000000=4;
#TIMESIGNATURES:0.000000=4=4;
#LABELS:0.000000=Song Start;
#COMBOS:0.000000=1;
#FAKES:;
#BGCHANGES:3=The Hope of Tomorrow.mp4=1.000000=0=0=1=====,
99999=-nosongbg-=1.000000=0=0=0=====
;
#FGCHANGES:;
#ATTACKS:;
#TAGS:;
#PREVIEWVID:;
#KEYSOUNDS:;

//---------------dance-single - Pandemonium X---------------
#NOTEDATA:;
#CHARTNAME:;
#CHARTSTYLE:;
#CREDIT:Pandemonium X;
#STEPSTYPE:dance-single;
#DESCRIPTION:Pandemonium X;
#DIFFICULTY:Beginner;
#METER:2;
#METERF:2;
#RADARVALUES:0.000000,0.000000,0.000000,0.000000,0.000000,0.000000,0.000000,0.000000,0.000000,0.000000,0.000000,0.000000,0.000000,0.000000,0.000000,0.000000,0.000000,0.000000,0.000000,0.000000,0.000000,0.000000,0.000000,0.000000,0.000000,0.000000,0.000000,0.000000;
#CHARTHASH:2147483647;
#BANNER:;
#LASTSECONDHINT:133.725006;
#NOTES:
// measure 0
0000
0000
0000
0000
,  // measure 1
0000
0000
0000
0000
,  // measure 2
0000
0000
0000
0000
,  // measure 3
0000
0000
0000
0000
,  // measure 4
0000
0000
0000
0000
,  // measure 5
1000
0000
0000
0000
,  // measure 6
0001
0000
0000
0000
,  // measure 7
0100
0000
0000
0000
,  // measure 8
0010
0000
0000
0000
,  // measure 9
1000
0000
0000
0000
,  // measure 10
0001
0000
0000
0000
,  // measure 11
0010
0000
0000
0000
,  // measure 12
0100
0000
0000
0000
,  // measure 13
1000
0000
0000
0000
,  // measure 14
0001
0000
0000
0000
,  // measure 15
0100
0000
0000
0000
,  // measure 16
0010
0000
0100
0000
,  // measure 17
0010
0000
0000
0000
,  // measure 18
1000
0000
0000
0000
,  // measure 19
0001
0000
0000
0000
,  // measure 20
0010
0000
0000
0000
,  // measure 21
0100
0000
0000
0000
,  // measure 22
1000
0000
0000
0000
,  // measure 23
0001
0000
0000
0000
,  // measure 24
0200
0000
0300
0000
,  // measure 25
0010
0000
0010
0000
,  // measure 26
0010
0000
0000
0000
,  // measure 27
1000
0000
1000
0000
,  // measure 28
1000
0000
0000
0000
,  // measure 29
0001
0000
1000
0000
,  // measure 30
0100
0000
1000
0000
,  // measure 31
0001
0000
0000
0000
,  // measure 32
1000
0000
0000
0000
,  // measure 33
0010
0000
0000
0000
,  // measure 34
0100
0000
0010
0000
,  // measure 35
0100
0000
0000
0000
,  // measure 36
0001
0000
0000
0000
,  // measure 37
1000
0000
1000
0000
,  // measure 38
0001
0000
0001
0000
,  // measure 39
0100
0000
0100
0000
,  // measure 40
0010
0000
0010
0000
,  // measure 41
2000
0000
3000
0000
,  // measure 42
0002
0000
0003
0000
,  // measure 43
0200
0000
0300
0000
,  // measure 44
0020
0000
0030
0000
,  // measure 45
0200
0000
0300
0000
,  // measure 46
0002
0000
0003
0000
,  // measure 47
2000
0000
3000
0000
,  // measure 48
0020
0000
0000
0000
,  // measure 49
0130
0000
0001
0000
,  // measure 50
1000
0000
0000
0000
,  // measure 51
0100
0000
0000
0000
,  // measure 52
0010
0000
0001
0000
,  // measure 53
1000
0000
0000
0000
,  // measure 54
0001
0000
1000
0000
,  // measure 55
0001
0000
0000
0100
,  // measure 56
0100
0000
0000
0000
,  // measure 57
0010
0000
0000
0000
,  // measure 58
0100
0000
0000
0000
,  // measure 59
0001
0000
0000
1000
,  // measure 60
1000
0000
0000
0000
,  // measure 61
0001
0000
0000
0000
,  // measure 62
0010
0000
0000
0000
,  // measure 63
0100
0000
0000
1000
,  // measure 64
0002
0000
0000
0003
,  // measure 65
1000
0000
0000
0000
,  // measure 66
0001
0000
0000
0000
,  // measure 67
0100
0000
0000
0000
,  // measure 68
0010
0000
0100
0000
,  // measure 69
0010
0000
0000
0000
,  // measure 70
1000
0000
0000
0000
,  // measure 71
0001
0000
0000
0000
,  // measure 72
0010
0000
0100
0000
,  // measure 73
1000
0000
0001
0000
,  // measure 74
0100
0000
0100
0000
,  // measure 75
0001
0000
0000
0000
,  // measure 76
1000
0000
0000
0000
,  // measure 77
0001
0000
1000
0000
,  // measure 78
0010
0000
1000
0000
,  // measure 79
0001
0000
0000
0000
,  // measure 80
2000
0000
0000
0000
,  // measure 81
3000
0000
0000
0000
;

//---------------dance-single - Pandemonium X---------------
#NOTEDATA:;
#CHARTNAME:;
#CHARTSTYLE:;
#CREDIT:Pandemonium X;
#STEPSTYPE:dance-single;
#DESCRIPTION:Pandemonium X;
#DIFFICULTY:Easy;
#METER:6;
#METERF:6;
#RADARVALUES:0.000000,0.000000,0.000000,0.000000,0.000000,0.000000,0.000000,0.000000,0.000000,0.000000,0.000000,0.000000,0.000000,0.000000,0.000000,0.000000,0.000000,0.000000,0.000000,0.000000,0.000000,0.000000,0.000000,0.000000,0.000000,0.000000,0.000000,0.000000;
#CHARTHASH:2147483647;
#BANNER:;
#LASTSECONDHINT:133.725006;
#NOTES:
// measure 0
0000
0000
0000
0000
,  // measure 1
0000
0000
0000
0000
,  // measure 2
0000
0000
0000
0000
,  // measure 3
0000
0000
0000
0000
,  // measure 4
0000
0000
0000
0000
,  // measure 5
0000
0001
0000
1000
,  // measure 6
0000
0001
0000
1000
,  // measure 7
0000
0001
0000
1000
,  // measure 8
0000
0000
0000
0000
0001
0000
0000
0000
0000
1000
0000
0000
1000
0000
0000
0000
,  // measure 9
0020
1030
0020
0130
,  // measure 10
0200
0301
0200
0310
,  // measure 11
2000
3100
0020
0031
,  // measure 12
0020
0130
0200
1300
,  // measure 13
0002
0103
0020
1030
,  // measure 14
0002
0103
0020
1030
,  // measure 15
2000
3100
0020
0031
,  // measure 16
0020
0130
2000
3001
,  // measure 17
0200
0301
0200
0310
,  // measure 18
0200
1300
0200
0310
,  // measure 19
0020
1030
0020
0130
,  // measure 20
0020
0031
0020
0130
,  // measure 21
0002
0203
0320
1030
,  // measure 22
2000
3020
0230
0301
,  // measure 23
0022
0033
2200
3300
,  // measure 24
0220
0000
0000
0330
,  // measure 25
0001
1000
0020
0030
,  // measure 26
1000
0001
1000
0100
,  // measure 27
0020
0030
0200
0300
,  // measure 28
1000
1000
1000
0001
,  // measure 29
0200
0300
0002
0003
,  // measure 30
0020
0030
0200
0300
,  // measure 31
0010
0100
0010
0100
,  // measure 32
1000
0001
1000
0001
,  // measure 33
0200
0300
0002
0003
,  // measure 34
1000
0100
0010
0100
,  // measure 35
2000
3000
0002
0003
,  // measure 36
0200
0300
0020
0030
,  // measure 37
0200
0300
0020
0030
,  // measure 38
2000
3000
0002
0003
,  // measure 39
2000
3000
0200
0300
,  // measure 40
0020
0030
0002
0003
,  // measure 41
2200
0000
0000
3300
0000
0000
0000
0000
,  // measure 42
0022
0000
0000
0033
0000
0000
0000
0000
,  // measure 43
0202
0000
0000
0303
0000
0000
0000
0000
,  // measure 44
2020
0000
0000
3030
0000
0000
0000
0000
,  // measure 45
2000
3002
0103
0000
,  // measure 46
0002
2003
3100
0000
,  // measure 47
2000
3002
0013
0000
,  // measure 48
0220
0000
0000
0330
,  // measure 49
2000
0000
0000
3001
0000
0000
0100
0000
,  // measure 50
0002
0000
2003
0000
,  // measure 51
3100
0000
0000
0100
0000
0000
0000
0000
,  // measure 52
0020
0000
0000
0130
0000
0000
1000
0000
,  // measure 53
0002
0000
0000
0103
0000
0000
0010
0000
,  // measure 54
2000
0000
3001
0000
,  // measure 55
1000
0000
0000
0001
0000
0000
1000
0000
,  // measure 56
0020
0000
0030
0000
,  // measure 57
0200
0000
0000
0301
0000
0000
0100
0000
,  // measure 58
0002
0003
2000
3000
,  // measure 59
0200
0000
0000
0310
0000
0000
0100
0000
,  // measure 60
2000
0000
0000
3010
0000
0000
0100
0000
,  // measure 61
0002
0000
0000
1003
0000
0000
0100
0000
,  // measure 62
0020
0030
0200
0300
,  // measure 63
2000
0000
0000
3001
0000
0000
1000
0000
,  // measure 64
0002
0000
0000
0003
,  // measure 65
0100
0001
1000
0000
,  // measure 66
0001
0010
0100
0000
,  // measure 67
0010
0100
1000
0000
,  // measure 68
0100
1000
0001
0100
,  // measure 69
0001
1000
0100
0000
,  // measure 70
0010
0100
1000
0000
,  // measure 71
0100
0010
0001
0000
,  // measure 72
1000
0001
0100
0000
,  // measure 73
0002
0003
2000
3000
,  // measure 74
0200
0300
0020
0030
,  // measure 75
0200
0300
2000
3000
,  // measure 76
0001
1000
0010
0100
,  // measure 77
0002
0003
2000
3000
,  // measure 78
0020
0030
0200
0300
,  // measure 79
0002
0003
2000
3000
,  // measure 80
0220
0000
0000
0000
,  // measure 81
0330
0000
0000
0000
;

//---------------dance-single - Pandemonium X---------------
#NOTEDATA:;
#CHARTNAME:;
#CHARTSTYLE:;
#CREDIT:Pandemonium X;
#STEPSTYPE:dance-single;
#DESCRIPTION:Pandemonium X;
#DIFFICULTY:Medium;
#METER:9;
#METERF:9;
#RADARVALUES:0.000000,0.000000,0.000000,0.000000,0.000000,0.000000,0.000000,0.000000,0.000000,0.000000,0.000000,0.000000,0.000000,0.000000,0.000000,0.000000,0.000000,0.000000,0.000000,0.000000,0.000000,0.000000,0.000000,0.000000,0.000000,0.000000,0.000000,0.000000;
#CHARTHASH:1270881565;
#BANNER:;
#LASTSECONDHINT:133.725006;
#NOTES:
// measure 0
0000
0000
0000
0000
,  // measure 1
0000
0000
0000
0000
,  // measure 2
0000
0000
0000
0000
,  // measure 3
0000
0000
0000
0000
,  // measure 4
0000
0000
0000
0000
,  // measure 5
0000
0001
0000
1000
,  // measure 6
0000
0010
0000
1000
,  // measure 7
0000
0100
0000
0010
,  // measure 8
0000
0000
0000
0000
0100
0000
0000
0000
0000
0100
0000
0000
0100
0000
0000
0000
,  // measure 9
1000
0000
0000
1000
0000
0000
1000
0000
0001
0000
0000
0001
0000
0000
0001
0000
,  // measure 10
0100
0000
0000
0100
0000
0000
0100
0000
0010
0000
0000
0010
0000
0000
0010
0000
,  // measure 11
0100
0000
0000
0100
0000
0000
0100
0000
0001
0000
0000
0001
0000
0000
0001
0000
,  // measure 12
0010
0000
0000
0010
0000
0000
0010
0000
0100
0000
0000
0100
0000
0000
0100
0000
,  // measure 13
1000
0000
0000
1000
0000
0000
1000
0000
0001
0000
0000
0001
0000
0000
0001
0000
,  // measure 14
0100
0000
0000
0100
0000
0000
0100
0000
0001
0000
0000
0001
0000
0000
0001
0000
,  // measure 15
1000
0000
0000
1000
0000
0000
1000
0000
0100
0000
0000
0100
0000
0000
0100
0000
,  // measure 16
0010
0000
0000
0010
0000
0000
0010
0000
0001
0000
0000
0001
0000
0000
0001
0000
,  // measure 17
1000
0000
0000
1000
0000
0000
1000
0000
0001
0000
0000
0001
0000
0000
0001
0000
,  // measure 18
0100
0000
0000
0100
0000
0000
0100
0000
0010
0000
0000
0010
0000
0000
0010
0000
,  // measure 19
1000
0000
0000
1000
0000
0000
0010
0000
0100
0000
0000
0100
0000
0000
0001
0000
,  // measure 20
0010
0000
0000
0010
0000
0000
0100
0000
1000
0000
0000
1000
0000
0000
0100
0000
,  // measure 21
1000
0000
0000
1000
0000
0000
1000
0000
0001
0000
0000
0001
0000
0000
0001
0000
,  // measure 22
0100
0000
0000
0100
0000
0000
0100
0000
0010
0000
0000
0010
0000
0000
0010
0000
,  // measure 23
0100
0000
0000
0100
0000
0000
0100
0000
0001
0000
0000
0001
0000
0001
0000
0000
,  // measure 24
0000
4000
0400
0000
0000
0000
0000
0000
0000
0000
0000
0000
3300
0000
0000
0000
,  // measure 25
0001
0000
1000
0200
0000
0000
0000
0310
,  // measure 26
0001
0000
0000
0001
0000
0000
0001
0000
1000
0000
0000
1000
0000
0000
1000
0000
,  // measure 27
0020
0000
0000
0130
0002
0000
0000
0103
,  // measure 28
0010
0000
0000
0010
0000
0000
0010
0000
1000
0000
0000
0001
0000
0000
1000
0000
,  // measure 29
0200
0000
0320
0000
,  // measure 30
0032
0000
2003
0000
,  // measure 31
3010
0000
1000
0010
0100
0000
0010
0100
,  // measure 32
0001
0000
0000
0000
0010
0000
0100
0000
1000
0000
0000
1000
0000
0000
1000
0000
,  // measure 33
0001
0000
1000
0200
0000
0000
0300
0010
,  // measure 34
0100
0000
0000
0100
0000
0000
0100
0000
0010
0000
0000
0001
0000
0000
1000
0000
,  // measure 35
0200
0300
2000
3000
,  // measure 36
0020
0030
0200
0300
,  // measure 37
0002
0003
2000
3000
,  // measure 38
0020
0030
0200
0300
,  // measure 39
0020
0030
0200
0300
,  // measure 40
0002
0003
2000
3000
,  // measure 41
0001
1000
0100
0000
,  // measure 42
1000
0001
0100
0000
,  // measure 43
0001
1000
0010
0000
,  // measure 44
1000
0001
0010
0001
,  // measure 45
1000
0001
0100
0000
,  // measure 46
0001
1000
0100
0000
,  // measure 47
1000
0001
0100
0000
,  // measure 48
0220
0000
0000
0330
,  // measure 49
1000
0000
0001
0020
0000
0000
0130
1000
,  // measure 50
0020
0000
0230
0000
,  // measure 51
0320
0000
0000
1030
0000
0000
0000
0010
,  // measure 52
0200
0000
0000
0302
0000
0000
0023
0000
,  // measure 53
0230
0000
0000
2300
0000
0000
3020
0000
,  // measure 54
0230
0000
0302
0000
,  // measure 55
2003
0000
0000
3002
0000
1003
0100
0010
,  // measure 56
0002
0000
0000
0000
0000
0000
0000
0000
0003
0000
0000
0000
1000
0001
0000
0000
,  // measure 57
0200
0000
0000
0320
0000
0000
1030
0100
,  // measure 58
0020
0000
0230
0000
,  // measure 59
2300
0000
0000
3002
0000
0000
0103
0001
,  // measure 60
2000
0000
3100
0020
0000
0000
0230
0000
,  // measure 61
0320
0000
0000
0032
0000
0000
2003
0000
,  // measure 62
3200
0000
0320
0000
,  // measure 63
0032
0000
0000
2003
0000
0000
3001
1000
,  // measure 64
0004
0040
0000
0000
0000
0000
0000
0000
0000
0000
0000
0000
0033
0000
0000
0000
,  // measure 65
1000
0100
1000
0000
0001
0000
0100
0000
,  // measure 66
0010
1000
0010
0000
0100
0000
0001
0000
,  // measure 67
0010
0100
0010
0000
0100
0000
1000
0000
,  // measure 68
0001
0010
0001
0000
1000
0100
1000
0000
,  // measure 69
0001
0100
0001
0000
0100
0000
0010
0000
,  // measure 70
1000
0001
1000
0000
0001
0000
0010
0000
,  // measure 71
0100
0010
0100
0000
0010
0000
0001
0000
,  // measure 72
0100
0010
0100
0000
0010
0100
0010
0000
,  // measure 73
2000
0000
0000
3002
0000
0000
0013
0100
,  // measure 74
2000
0000
3002
0000
,  // measure 75
0203
0000
0000
0320
0000
0000
0130
0010
,  // measure 76
2000
0000
3001
0020
0000
0031
2000
0000
,  // measure 77
3020
0000
0000
0230
0000
0000
0302
0000
,  // measure 78
2003
0000
3002
0000
,  // measure 79
2003
0000
0000
3200
0000
0000
0310
0001
,  // measure 80
0400
0040
0000
0000
0000
0000
0000
0000
0000
0000
0000
0000
0000
0000
0000
0000
,  // measure 81
0330
0000
0000
0000
;

//---------------dance-single - Pandemonium X---------------
#NOTEDATA:;
#CHARTNAME:Pandemonium X;
#CHARTSTYLE:;
#CREDIT:Pandemonium X;
#STEPSTYPE:dance-single;
#DESCRIPTION:Pandemonium X;
#DIFFICULTY:Hard;
#METER:12;
#METERF:12;
#RADARVALUES:0.485073,0.600714,0.134406,0.898396,0.336014,480.000000,461.000000,19.000000,127.000000,0.000000,0.000000,0.000000,0.000000,0.000000,0.485073,0.600714,0.134406,0.898396,0.336014,480.000000,461.000000,19.000000,127.000000,0.000000,0.000000,0.000000,0.000000,0.000000;
#CHARTHASH:2147483647;
#BANNER:;
#LASTSECONDHINT:133.516663;
#NOTES:
// measure 0
0000
0000
0000
0000
,  // measure 1
0000
0000
0000
0000
,  // measure 2
0000
0000
0000
0000
,  // measure 3
0000
0000
0000
0000
,  // measure 4
0000
0000
0000
0000
,  // measure 5
1000
1001
0001
1001
,  // measure 6
1000
0110
0001
0110
,  // measure 7
1000
1010
0001
0011
,  // measure 8
0000
0000
0000
0000
0001
0000
0000
0000
0000
0001
0000
0000
0001
0000
0000
0000
,  // measure 9
2000
0000
0000
3200
0000
0000
1300
0000
0002
0000
0000
0203
0000
0000
0301
0000
,  // measure 10
0020
0000
0000
0230
0000
0000
0310
0000
0002
0000
0000
2003
0000
0000
3010
0000
,  // measure 11
0200
0000
0000
0302
0000
0000
1003
0100
2000
0000
0000
3002
0000
0000
0013
0000
,  // measure 12
0200
0000
0000
2300
0000
0000
3001
0000
0200
0000
0000
0302
0000
0000
1003
0000
,  // measure 13
0002
0000
0000
2003
0000
0000
3001
0000
2000
0000
0000
3200
0000
0000
1300
0000
,  // measure 14
0002
0000
0000
2003
0000
0000
3001
0000
2000
0000
0000
3020
0000
0000
1030
0000
,  // measure 15
0002
0000
0000
0023
0000
0000
0130
0000
2000
0000
0000
3002
0000
0000
0103
0000
,  // measure 16
0020
0000
0000
2030
0000
0000
3010
0000
0200
0000
0000
0302
0000
0000
1003
0000
,  // measure 17
0200
0000
0000
0320
0000
0000
0031
0000
2000
0000
0000
3002
0000
0000
0103
0000
,  // measure 18
0020
0000
0000
0230
0000
0000
0301
0000
2000
0000
0000
3200
0000
0000
1300
0000
,  // measure 19
0002
0000
0000
2003
0000
0000
3001
0010
0002
0000
0000
0023
0000
0000
0130
0000
,  // measure 20
0020
0000
0000
0032
0000
0000
1003
0000
0200
0000
0000
2300
0000
0000
3001
0000
,  // measure 21
0200
0000
0000
0320
0000
0000
1030
0000
0002
0000
0000
0023
0000
0000
0130
0000
,  // measure 22
0020
0000
0000
0032
0000
0000
1003
0000
0020
0000
0000
0230
0000
0000
0301
0000
,  // measure 23
2000
0000
0000
3200
0000
0000
0310
0000
0002
0000
0000
2003
0000
0000
3010
0000
,  // measure 24
0000
0100
0010
0100
0001
1000
0100
1000
0200
0000
0010
0000
0000
0000
1000
0000
,  // measure 25
2300
0000
3100
0010
0001
0000
0010
0100
,  // measure 26
2000
0000
0000
3001
0000
0000
0100
0000
0002
0000
0000
1003
0000
0000
0100
0000
,  // measure 27
0020
0000
0031
1000
0020
0000
0130
0001
,  // measure 28
2000
0000
0000
3001
0000
0000
0010
0000
0200
0000
0000
0310
0000
0000
0001
0000
,  // measure 29
2000
0000
3001
0010
2000
0000
3010
0001
,  // measure 30
0200
0000
0310
1000
0002
0000
1003
0000
,  // measure 31
0201
0000
0000
0310
0000
0000
1000
0000
1020
0000
0000
0130
0000
0000
0001
0000
,  // measure 32
0201
0000
0000
0310
0000
0000
1000
0000
1020
0000
0000
0130
0000
0000
0001
0000
,  // measure 33
2000
0000
3001
0010
0100
0000
0010
0100
,  // measure 34
1000
0000
0000
0100
0000
0000
1000
0000
0001
0000
0100
0010
0000
0010
0100
0000
,  // measure 35
0002
0000
0000
0000
0000
0000
1003
0100
2000
0000
0000
0000
0000
0000
3001
0010
,  // measure 36
0002
0000
0000
0000
0000
0000
1003
0010
2000
0000
0000
0000
0000
0000
3001
0100
,  // measure 37
0002
0000
0103
0010
2000
0000
3010
0100
,  // measure 38
0002
0000
1003
0100
2000
0000
3100
0001
,  // measure 39
0200
0000
1300
0100
2000
0000
3010
0001
,  // measure 40
0020
0000
0000
0000
0130
0000
0001
0000
1000
0000
0000
1000
0000
0000
1000
0000
,  // measure 41
0001
0000
0100
0000
0001
0000
0100
0001
0000
0000
0000
0000
0000
0000
0000
0000
,  // measure 42
1000
0000
0010
0000
1000
0000
0010
1000
0000
0000
0000
0000
0000
0000
0000
0000
,  // measure 43
0001
0000
1000
0000
0001
0000
1000
0001
0000
0000
0000
0000
0000
0000
0000
0000
,  // measure 44
0010
0000
0100
0000
0010
0000
0100
0010
0000
0010
0000
0010
0100
0000
0000
0000
,  // measure 45
1000
0000
0100
0000
0010
0000
0001
1000
0000
0000
0000
0000
0000
0000
0000
0000
,  // measure 46
0001
0000
0100
0000
0010
0000
1000
0001
0000
0000
0000
0000
0000
0000
0000
0000
,  // measure 47
1000
0000
0001
0000
0010
0000
0100
1000
0000
0000
0000
0000
0000
0000
0000
0000
,  // measure 48
0200
0000
0000
0000
,  // measure 49
0320
0000
0031
1000
0002
0000
0103
0010
,  // measure 50
1002
0103
2001
3100
,  // measure 51
0020
0000
0130
0010
0001
0000
0010
0100
,  // measure 52
2000
0000
3001
0200
0000
0310
2000
0000
,  // measure 53
3002
0000
0013
0100
2000
0000
3100
1000
,  // measure 54
0002
0000
0103
0001
2000
0000
3100
0010
,  // measure 55
0002
0000
1003
0020
0000
0130
0001
0020
,  // measure 56
0200
0000
0330
0000
,  // measure 57
1002
0000
0103
0001
2000
0000
3100
1000
,  // measure 58
0002
0000
0103
0001
2000
0000
3001
0000
,  // measure 59
2000
0000
3100
0010
0200
0000
0310
0001
,  // measure 60
2000
0000
3001
0200
0000
0310
2000
0000
,  // measure 61
3002
0000
0013
0001
0020
0000
0031
1000
,  // measure 62
0200
0000
0310
0100
2000
0000
3100
0000
,  // measure 63
0020
0000
0130
2000
0000
0000
3001
0100
,  // measure 64
0102
0000
0000
0000
0100
0000
0000
0000
0100
0000
0000
0100
0000
0000
0103
0000
,  // measure 65
0001
0000
0100
0000
0001
1000
0000
0100
0000
0010
0100
0000
1000
0000
0001
0000
,  // measure 66
1000
0000
0010
0000
0100
0001
0000
1000
0000
0001
1000
0000
0001
0000
0010
0000
,  // measure 67
0100
0000
0010
0000
0100
1000
0000
0100
0000
0100
0010
0000
0100
0000
1000
0000
,  // measure 68
0001
0000
0010
0000
0100
0010
0000
0010
0000
0100
0010
0000
0001
0000
1000
0001
,  // measure 69
1000
0000
0001
0000
0100
0010
0000
0010
0000
1000
0001
0000
0010
0000
0100
0000
,  // measure 70
0010
0000
0001
0000
1000
0100
0000
0100
0000
0010
0100
0000
1000
0000
0001
0000
,  // measure 71
0100
0000
0010
0000
0100
0001
0000
0001
0000
1000
0100
0000
0010
0000
0100
0000
,  // measure 72
1000
0000
0001
0000
1000
0100
0000
0100
0000
0010
0100
0000
1000
0001
1000
0001
,  // measure 73
2000
0000
3100
0010
0002
0000
0013
0100
,  // measure 74
2000
3001
0200
0310
,  // measure 75
2001
0000
3001
0100
0000
0010
1000
0001
,  // measure 76
0010
0100
0010
0002
0000
1000
1003
0000
,  // measure 77
0002
0000
0013
0100
2000
0000
3100
0010
,  // measure 78
0002
0000
1003
0010
0200
0000
0310
0100
,  // measure 79
2001
0000
0000
3001
0000
0000
0100
0010
,  // measure 80
1000
0001
1000
0100
0010
0001
0100
0001
0100
0000
0000
0100
0010
0000
0010
0000
;

//---------------dance-double - Pandemonium X---------------
#NOTEDATA:;
#CHARTNAME:;
#CHARTSTYLE:;
#CREDIT:Pandemonium X;
#STEPSTYPE:dance-double;
#DESCRIPTION:Pandemonium X;
#DIFFICULTY:Hard;
#METER:12;
#METERF:12;
#RADARVALUES:0,0,0,0,0;
#NOTES:
// measure 0
00000000
00000000
00000000
00000000
,  // measure 1
00000000
00000000
00000000
00000000
,  // measure 2
00000000
00000000
00000000
00000000
,  // measure 3
00000000
00000000
00000000
00000000
,  // measure 4
00000000
00000000
00000000
00000000
,  // measure 5
00010000
11000000
10000000
01010000
,  // measure 6
00010000
11000000
10000000
01010000
,  // measure 7
00010000
11000000
10000000
01010000
,  // measure 8
00000000
00000000
00000000
00000000
01010000
00000000
00000000
00000000
00000000
01010000
00000000
00000000
00101000
00000000
00000000
00000000
,  // measure 9
00200000
00000000
00000000
00302000
00000000
00000000
00013000
00000000
00000200
00000000
00000000
00002300
00000000
00000000
00003001
00000000
,  // measure 10
00000200
00000000
00000000
00001300
00000000
00000000
00000100
00000000
00000002
00000000
00000000
00001003
00000000
00000000
00000100
00000000
,  // measure 11
00020000
00000000
00000000
00031000
00000000
00000000
00100000
00010000
00200000
00000000
00000000
01300000
00000000
00000000
10000000
00000000
,  // measure 12
02000000
00000000
00000000
03100000
00000000
00000000
00010000
00000000
02000000
00000000
00000000
03100000
00000000
00000000
10000000
00000000
,  // measure 13
00020000
00000000
00000000
00230000
00000000
00000000
00302000
00000000
00023000
00000000
00000000
00030200
00000000
00000000
00002300
00000000
,  // measure 14
00003002
00000000
00000000
00000203
00000000
00000000
00002300
00000000
00003200
00000000
00000000
00000302
00000000
00000000
00002003
00000000
,  // measure 15
00003002
00000000
00000000
00000203
00000000
00000000
00000320
00000000
00000230
00000000
00000000
00000320
00000000
00000000
00020030
00000000
,  // measure 16
00032000
00000000
00000000
00023000
00000000
00000000
00030200
00000000
00020300
00000000
00000000
00032000
00000000
00000000
02003000
00000000
,  // measure 17
03020000
00000000
00000000
00130000
00000000
00000000
01000000
00000000
20000000
00000000
00000000
30010000
00000000
00000000
10000000
00000000
,  // measure 18
00200000
00000000
00000000
01300000
00000000
00000000
00001000
00000000
00020000
00000000
00000000
00030100
00000000
00000000
00001000
00000000
,  // measure 19
00000002
00000000
00000000
00000103
00000000
00000000
00000001
00001000
00000002
00000000
00000000
00000013
00000000
00000000
00000100
00000000
,  // measure 20
00002000
00000000
00000000
00003100
00000000
00000000
00001000
00000000
00000200
00000000
00000000
00010300
00000000
00000000
00001000
00000000
,  // measure 21
02000000
00000000
00000000
03020000
00000000
00000000
00230000
00000000
00302000
00000000
00000000
00023000
00000000
00000000
00030020
00000000
,  // measure 22
00000230
00000000
00000000
00000302
00000000
00000000
00002003
00000000
00003200
00000000
00000000
00002300
00000000
00000000
00003200
00000000
,  // measure 23
00020300
00000000
00000000
00032000
00000000
00000000
02003000
00000000
03020000
00000000
00000000
00230000
00000000
00000000
02300000
00000000
,  // measure 24
03000000
40000000
00040000
00000000
00000000
00000000
00000000
00000000
00000000
30030000
00000000
00000000
00000000
00000000
00000000
00000000
,  // measure 25
10000000
00000000
00100000
01000000
00010000
00000000
10000000
01000000
,  // measure 26
00100000
00000000
00000000
00100000
00000000
00000000
00100000
00000000
00001000
00000000
00000000
00001000
00000000
00000000
00010000
00000000
,  // measure 27
00000100
00000000
00001000
00000001
00000100
00000000
00000100
00000001
,  // measure 28
00001000
00000000
00000000
00001000
00000000
00000000
00001000
00000000
00000100
00000000
00000000
00010000
00000000
00000000
00000100
00000000
,  // measure 29
00002000
00000010
00003002
00000100
,  // measure 30
00002003
00000100
00003020
00010000
,  // measure 31
00001030
00000000
00000001
00000100
00000001
00000000
00001000
00000100
,  // measure 32
00001000
00000000
00000000
00000000
00000100
00000000
00010000
00000000
00001000
00000000
00000000
00001000
00000000
00000000
00001000
00000000
,  // measure 33
00010000
00000000
00001000
01000000
00010000
00000000
01000000
00010000
,  // measure 34
10000000
00000000
00000000
10000000
00000000
00000000
10000000
00000000
00010000
00000000
00000000
00010000
00000000
00000000
00010000
00000000
,  // measure 35
00200000
00000000
00000000
01300000
21000000
00000000
00000000
30100000
,  // measure 36
02100000
00000000
00000000
03010000
01020000
00000000
00000000
00130000
,  // measure 37
00002000
00000000
00013000
00000100
00002000
00000000
00003010
00000100
,  // measure 38
00000002
00000000
00000013
00000100
00002000
00000000
00003010
00001000
,  // measure 39
00000200
00000000
00010300
00001000
00200000
00000000
01300000
10000000
,  // measure 40
00200000
00000000
02000000
03300000
,  // measure 41
00100000
00000000
01000000
00000000
00100000
00000000
01000000
00010000
00000000
00000000
00000000
00000000
00000000
00000000
00000000
00000000
,  // measure 42
00100000
00000000
00001000
00000000
00100000
00000000
00001000
00010000
00000000
00000000
00000000
00000000
00000000
00000000
00000000
00000000
,  // measure 43
00000100
00000000
00001000
00000000
00000100
00000000
00001000
00000001
00000000
00000000
00000000
00000000
00000000
00000000
00000000
00000000
,  // measure 44
00000100
00000000
00000001
00000000
00000100
00000000
00000001
00000100
00000000
00000001
00000000
00000100
00000010
00000000
00001000
00000000
,  // measure 45
00000100
00000000
00000010
00000000
00000100
00000000
00000010
00000001
00000000
00000000
00000000
00000000
00000000
00000000
00000000
00000000
,  // measure 46
00000010
00000000
00000100
00000000
00000010
00000000
00000100
00001000
00000000
00000000
00000000
00000000
00000000
00000000
00000000
00000000
,  // measure 47
00000100
00000000
00010000
00000000
00000100
00000000
00010000
00001000
00000000
00000000
00000000
00000000
00000000
00000000
00000000
00000000
,  // measure 48
00022000
00000000
00000000
00033000
,  // measure 49
00200000
00000000
00310000
02000000
00000000
03100000
10000000
01000000
,  // measure 50
00200000
00010000
02300000
10000000
,  // measure 51
03100000
00010000
01000000
00001000
00010000
00000000
00001000
00000000
,  // measure 52
00020000
00000000
00000000
00030200
00000000
00000000
00000320
00000000
,  // measure 53
00000031
00000000
00001000
00000002
00000000
00000013
00000200
00000000
,  // measure 54
00010300
00000000
00001000
01000000
00020000
00000000
00130000
01000000
,  // measure 55
20000000
00000000
00000000
30010000
00000000
10000000
01000000
00100000
,  // measure 56
00020000
00000000
00000000
00000000
00030000
00000000
00100000
00001000
,  // measure 57
00020000
00000000
00030100
00002000
00000000
00003001
00000100
00000001
,  // measure 58
00002000
00000100
00003002
00000103
,  // measure 59
00000020
00000000
00010000
00010030
00000000
00000000
00001000
01000000
,  // measure 60
00020000
00000000
00130000
20000000
00000000
30100000
00020000
00000000
,  // measure 61
01030000
00000000
00100000
20000000
00000000
31000000
00200000
00000000
,  // measure 62
00302000
00000000
00013000
00000100
00002000
00000000
00003010
00000100
,  // measure 63
00000002
00000000
00000000
00002000
00000003
00000000
00003001
00000100
,  // measure 64
00000040
00004000
00000000
00000000
00000000
00000000
00000000
00000000
00000000
00000000
00000000
00000000
00003030
00000000
00000000
00000000
,  // measure 65
00000001
00000000
00001000
00000000
00000100
00010000
00000000
00001000
00000000
00010000
00001000
00000000
00100000
00000000
00000000
00000000
,  // measure 66
01000000
00000000
10000000
00000000
00010000
01000000
00000000
00010000
00000000
01000000
00001000
00000000
00010000
00000000
00001000
00000000
,  // measure 67
00010000
00000000
00000100
00000000
00001000
00000001
00000000
00000100
00000000
00000001
00001000
00000000
00000100
00000000
00000000
00000000
,  // measure 68
00001000
00000000
00000100
00000000
00010000
00001000
00000000
01000000
00000000
00010000
00100000
00000000
01000000
00000000
10000000
00000000
,  // measure 69
00010000
00000000
10000000
00000000
00100000
01000000
00000000
00010000
00000000
01000000
00001000
00000000
00010000
00000000
00000000
00000000
,  // measure 70
00001000
00000000
00010000
00000000
00000100
00001000
00000000
00000010
00000000
00010000
00001000
00000000
00010000
00000000
00000100
00000000
,  // measure 71
00001000
00000000
00000100
00000000
00001000
00000001
00000000
00000010
00000000
00000100
00000010
00000000
00000001
00000000
00000000
00000000
,  // measure 72
00000100
00000000
00000010
00000000
00001000
00000100
00000000
00010000
00000000
00001000
00010000
00000000
00001000
00000000
01000000
00000000
,  // measure 73
00020000
00000000
01030000
00002000
00000000
00013000
00000100
00001000
,  // measure 74
00020000
00230000
20300000
30010000
,  // measure 75
20000000
00000000
31000000
00200000
00000000
01300000
00100000
00010000
,  // measure 76
00002000
00000000
00013000
00000200
00000000
00001000
00001300
00000000
,  // measure 77
00000002
00000000
00000103
00000020
00000000
00000130
00000002
00000000
,  // measure 78
00000103
00000000
00000100
00001000
00020000
00000000
00031000
01000000
,  // measure 79
00200000
00000000
00000000
10300000
00000000
00000000
01000000
00100000
,  // measure 80
00004000
00040000
00000000
00000000
00000000
00000000
00000000
00000000
00000000
00000000
00000000
00000000
00000000
00000000
00000000
00000000
,  // measure 81
00033000
00000000
00000000
00000000
;

//---------------dance-double - Pandemonium X---------------
#NOTEDATA:;
#CHARTNAME:;
#CHARTSTYLE:;
#CREDIT:Pandemonium X;
#STEPSTYPE:dance-double;
#DESCRIPTION:Pandemonium X;
#DIFFICULTY:Medium;
#METER:10;
#METERF:10;
#RADARVALUES:0,0,0,0,0;
#NOTES:
// measure 0
00000000
00000000
00000000
00000000
,  // measure 1
00000000
00000000
00000000
00000000
,  // measure 2
00000000
00000000
00000000
00000000
,  // measure 3
00000000
00000000
00000000
00000000
,  // measure 4
00000000
00000000
00000000
00000000
,  // measure 5
00000000
10100000
00000000
01010000
,  // measure 6
00000000
00110000
00000000
00011000
,  // measure 7
00000000
00001100
00000000
00000110
,  // measure 8
00000000
00000000
00000000
00000000
00001001
00000000
00000000
00000000
00000000
00000110
00000000
00000000
00001001
00000000
00000000
00000000
,  // measure 9
00000001
00000000
00000000
00000001
00000000
00000000
00001000
00000000
00000100
00000000
00000000
00000100
00000000
00000000
00010000
00000000
,  // measure 10
00001000
00000000
00000000
00001000
00000000
00000000
01000000
00000000
00010000
00000000
00000000
00010000
00000000
00000000
10000000
00000000
,  // measure 11
01000000
00000000
00000000
01000000
00000000
00000000
00100000
00000000
00010000
00000000
00000000
00010000
00000000
00000000
10000000
00000000
,  // measure 12
00100000
00000000
00000000
00100000
00000000
00000000
00100000
00000000
10000000
00000000
00000000
10000000
00000000
00000000
10000000
00000000
,  // measure 13
00010000
00000000
00000000
00100000
00000000
00000000
00001000
00000000
00010000
00000000
00000000
00001000
00000000
00000000
00100000
00000000
,  // measure 14
00001000
00000000
00000000
00010000
00000000
00000000
00000010
00000000
00001000
00000000
00000000
00000010
00000000
00000000
00000100
00000000
,  // measure 15
00000001
00000000
00000000
00001000
00000000
00000000
00000100
00000000
00000010
00000000
00000000
00000001
00000000
00000000
00001000
00000000
,  // measure 16
00000100
00000000
00000000
00010000
00000000
00000000
00001000
00000000
01000000
00000000
00000000
00010000
00000000
00000000
10000000
00000000
,  // measure 17
01000000
00000000
00000000
01000000
00000000
00000000
10000000
00000000
00010000
00000000
00000000
00010000
00000000
00000000
01000000
00000000
,  // measure 18
00001000
00000000
00000000
00001000
00000000
00000000
00010000
00000000
00000100
00000000
00000000
00000100
00000000
00000000
00001000
00000000
,  // measure 19
00000001
00000000
00000000
00000001
00000000
00000000
00000100
00000000
00000010
00000000
00000000
00000010
00000000
00000000
00001000
00000000
,  // measure 20
00000100
00000000
00000000
00000100
00000000
00000000
00000100
00000000
00010000
00000000
00000000
00010000
00000000
00000000
00010000
00000000
,  // measure 21
00001000
00000000
00000000
01000000
00000000
00000000
00001000
00000000
00010000
00000000
00000000
00001000
00000000
00000000
00010000
00000000
,  // measure 22
00000100
00000000
00000000
00010000
00000000
00000000
00000100
00000000
00001000
00000000
00000000
00000100
00000000
00000000
00001000
00000000
,  // measure 23
00000010
00000000
00000000
00000100
00000000
00000000
00000001
00000000
00001000
00000000
00000000
00000100
00000000
00000000
00010000
00000000
,  // measure 24
00001000
00020000
00002000
00000000
00000000
00000000
00000000
00000000
00000000
00000000
00000000
00000000
00033000
00000000
00000000
00000000
,  // measure 25
00010000
00000000
00000100
00002000
00000000
00000000
00000000
00003001
,  // measure 26
00000100
00000000
00000000
00000100
00000000
00000000
00000100
00000000
00000010
00000000
00000000
00000010
00000000
00000000
00000010
00000000
,  // measure 27
00002000
00000000
00000100
00000000
,  // measure 28
00003001
00000000
00000000
00000001
00000000
00000000
00000001
00000000
00001000
00000000
00000000
00000100
00000000
00000000
00000100
00000000
,  // measure 29
00020000
00031000
00002000
01003000
,  // measure 30
02000000
03100000
00200000
10300000
,  // measure 31
01000000
00000000
00000000
01000000
00000000
00000000
01000000
00000000
00100000
00000000
00000000
00100000
00000000
00000000
00100000
00000000
,  // measure 32
00001000
00000000
00000000
00001000
00000000
00000000
00001000
00000000
00010000
00000000
00000000
00000100
00000000
00000000
00001000
00000000
,  // measure 33
00000001
00000000
00000100
00000010
00000200
00000000
00000301
00001000
,  // measure 34
00000001
00000000
00000000
00000001
00000000
00000000
00000001
00000000
00001000
00000000
00000000
00001000
00000000
00000000
00001000
00000000
,  // measure 35
00000200
00010000
00002300
00000010
,  // measure 36
00003002
00000000
00000100
00000000
00002003
00000000
00003100
00010000
,  // measure 37
00002000
01003000
00200000
10300000
,  // measure 38
02000000
13000000
00020000
00130000
,  // measure 39
02000000
13000000
00020000
01030000
,  // measure 40
00200000
00000000
00000000
00000000
01300000
00000000
00000000
00000000
00010000
00000000
00000000
00010000
00000000
00000000
00010000
00000000
,  // measure 41
00100000
00001000
00100000
00001000
00100000
00000000
00000000
00000000
,  // measure 42
00001000
00010000
00001000
00010000
00001000
00000000
00000000
00000000
,  // measure 43
00010000
00000010
00010000
00000010
00010000
00000000
00000000
00000000
,  // measure 44
00000010
00000000
00000100
00000000
00000010
00000000
00000000
00000100
00000000
00000100
00000000
00000100
00000010
00000000
00000000
00000000
,  // measure 45
00000100
00000001
00000100
00000001
00000100
00000000
00000000
00000000
,  // measure 46
00000010
00001000
00000010
00001000
00000010
00000000
00000000
00000000
,  // measure 47
00001000
00000100
00001000
00000100
00001000
00000000
00000000
00000000
,  // measure 48
00022000
00000000
00000000
00033000
,  // measure 49
00002000
00000000
00000000
02003000
00000000
00000000
03100000
10000000
,  // measure 50
00020000
00000000
00230000
00000000
,  // measure 51
00320000
00000000
00000000
01030000
00000000
00000000
00000000
00100000
,  // measure 52
02000000
00000000
00000000
03000000
00002000
00000000
00013000
00000000
,  // measure 53
00000200
00000000
00000000
00001300
00000000
00000000
00001000
00000000
,  // measure 54
00000020
00000000
00000230
00000000
,  // measure 55
00000301
00000000
00000000
00001000
00000000
00000001
00000100
00000010
,  // measure 56
00002000
00000000
00003000
00000000
,  // measure 57
00000200
00000000
00000000
00020300
00000000
00000000
00031000
01000000
,  // measure 58
00020000
00000000
00230000
00000000
,  // measure 59
02300000
00000000
00000000
13000000
00000000
00000000
01000000
10000000
,  // measure 60
00020000
00000000
10030000
02000000
00000000
03100000
00020000
00000000
,  // measure 61
02030000
00000000
00000000
03002000
00000000
00000000
00013000
00000000
,  // measure 62
00000200
00000000
00002300
00000000
,  // measure 63
00003002
00000000
00000000
00000100
00000000
00000000
00001003
00000200
,  // measure 64
00020000
00000000
00000000
00030300
,  // measure 65
00010000
00001000
00010000
00000000
00001000
00000000
01000000
00000000
,  // measure 66
00010000
01000000
00010000
00000000
10000000
00000000
01000000
00000000
,  // measure 67
00100000
00010000
00100000
00000000
00001000
00000000
00010000
00000000
,  // measure 68
00000100
00010000
00000100
00000000
00001000
00000100
00001000
00000000
,  // measure 69
00000001
00000100
00000001
00000000
00000100
00000000
00000010
00000000
,  // measure 70
00001000
00000100
00001000
00000000
00000010
00000000
00000100
00000000
,  // measure 71
00000001
00001000
00000001
00000000
00001000
00000000
00000100
00000000
,  // measure 72
00010000
00001000
00010000
00000000
00001000
00000000
01000000
00010000
,  // measure 73
20000000
00000000
31000000
00200000
00000000
01300000
10000000
00010000
,  // measure 74
02000000
03001000
00020000
00030100
,  // measure 75
00001000
00000001
00001000
00000100
00000000
00000000
00001000
00000001
,  // measure 76
00000200
00000000
00000301
00002000
00000000
00003100
00020000
00000000
,  // measure 77
00031000
00000000
01000000
00020000
00000000
00130000
02000000
00000000
,  // measure 78
03200000
00301000
00020000
00031000
,  // measure 79
00200000
00000000
00000000
00301000
00000000
00000000
00010000
00000100
,  // measure 80
00002000
00000000
00000000
00000000
00000100
00000000
00000000
00000000
00003100
00000000
00000000
00000100
00001000
00000000
00000001
00000000
;

//---------------dance-double - Pandemonium X---------------
#NOTEDATA:;
#CHARTNAME:;
#CHARTSTYLE:;
#CREDIT:Pandemonium X;
#STEPSTYPE:dance-double;
#DESCRIPTION:Pandemonium X;
#DIFFICULTY:Easy;
#METER:5;
#METERF:5;
#RADARVALUES:0,0,0,0,0;
#NOTES:
// measure 0
00000000
00000000
00000000
00000000
,  // measure 1
00000000
00000000
00000000
00000000
,  // measure 2
00000000
00000000
00000000
00000000
,  // measure 3
00000000
00000000
00000000
00000000
,  // measure 4
00000000
00000000
00000000
00000000
,  // measure 5
00000000
00010000
00000000
00100000
,  // measure 6
00000000
00010000
00000000
00100000
,  // measure 7
00000000
01000000
00000000
10000000
,  // measure 8
00000000
00000000
00000000
00000000
01000000
00000000
00000000
00000000
00000000
10000000
00000000
00000000
10000000
00000000
00000000
00000000
,  // measure 9
00020000
01030000
00100000
10000000
,  // measure 10
00020000
00130000
00001000
00010000
,  // measure 11
00000020
00010030
00001000
00010000
,  // measure 12
00000200
00001300
00000100
00000010
,  // measure 13
00000002
00001003
00000010
00001000
,  // measure 14
00000020
00010030
00001000
00010000
,  // measure 15
00000020
00001030
00000200
00010300
,  // measure 16
00002000
01003000
00020000
10030000
,  // measure 17
20010000
31000000
00100000
00001000
,  // measure 18
00020000
00030100
00001000
00000001
,  // measure 19
00000200
00000301
00000100
00000010
,  // measure 20
00002000
00003100
00000010
00000100
,  // measure 21
00000200
00010300
00002000
01003000
,  // measure 22
02000000
03010000
20000000
31000000
,  // measure 23
00200000
00301000
00020000
00030100
,  // measure 24
00022000
00000000
00000000
00033000
,  // measure 25
00001000
00010000
00000200
00000300
,  // measure 26
00001000
00000000
00000001
00000000
,  // measure 27
00000100
00000000
00000010
00000000
,  // measure 28
00001000
00000010
00001000
00000000
,  // measure 29
00000200
00000300
00020000
00030000
,  // measure 30
00002000
00003000
02000000
03000000
,  // measure 31
00100000
00000000
10000000
00000000
,  // measure 32
01000000
00000000
00100000
00001000
,  // measure 33
00020000
00000000
00030200
00000000
,  // measure 34
00001300
00000000
00000010
00000100
,  // measure 35
00000002
00000003
00002000
00003000
,  // measure 36
00000200
00000300
00020000
00030000
,  // measure 37
00002000
00003000
02000000
03000000
,  // measure 38
00200000
00300000
02000000
03000000
,  // measure 39
00020000
00030000
00200000
00300000
,  // measure 40
00002000
00003000
00020000
00030000
,  // measure 41
00000200
00000000
00000000
00000300
00000000
00000000
00000000
00000000
,  // measure 42
00000020
00000000
00000000
00000030
00000000
00000000
00000000
00000000
,  // measure 43
00000002
00000000
00000000
00000003
00000000
00000000
00000000
00000000
,  // measure 44
00002000
00000000
00000000
00003000
00000000
00000000
00000000
00000000
,  // measure 45
00000200
00000000
00000000
00000300
00000000
00000000
00000000
00000000
,  // measure 46
00020000
00000000
00000000
00030000
00000000
00000000
00000000
00000000
,  // measure 47
00002000
00000000
00000000
00003000
00000000
00000000
00000000
00000000
,  // measure 48
00022000
00000000
00000000
00033000
,  // measure 49
00001000
00000000
00000000
01000000
00000000
00000000
00010000
00000000
,  // measure 50
20000000
30000000
00020000
00030000
,  // measure 51
01000000
00000000
00000000
01000000
00000000
00000000
00000000
00000000
,  // measure 52
00100000
00000000
00000000
10000000
00000000
00000000
00010000
00000000
,  // measure 53
00100000
00000000
00000000
00100000
00000000
00000000
00001000
00000000
,  // measure 54
00020000
00030000
00002000
00003000
,  // measure 55
00011000
00000000
00010000
00000100
,  // measure 56
00002000
00000000
00003000
00000000
,  // measure 57
00000010
00000000
00000100
00000000
,  // measure 58
00000002
00000003
00002000
00003000
,  // measure 59
00000200
00000000
00000000
00000300
00000000
00000000
00000010
00000000
,  // measure 60
00000001
00000000
00000000
00001000
00000000
00000000
00000001
00000000
,  // measure 61
00001000
00000000
00000100
00000000
,  // measure 62
00020000
00030000
00002000
00003000
,  // measure 63
00200000
00000000
00300000
01000000
,  // measure 64
20020000
00000000
00000000
30030000
,  // measure 65
10000000
00010000
01000000
00000000
,  // measure 66
00010000
00100000
00001000
00000000
,  // measure 67
00010000
00000100
00001000
00000000
,  // measure 68
00000001
00000100
00000001
00001000
,  // measure 69
00000100
00001000
00000001
00000000
,  // measure 70
00001000
00000100
00010000
00000000
,  // measure 71
00001000
01000000
00010000
00000000
,  // measure 72
00100000
00001000
00010000
00000000
,  // measure 73
00000200
00000300
00002000
00003000
,  // measure 74
00000002
00000003
00000200
00000300
,  // measure 75
00000002
00000000
00000000
00000003
00000000
00000000
00001000
00000000
,  // measure 76
00000200
00000000
00000000
00000300
,  // measure 77
00020000
00030000
00002000
00003000
,  // measure 78
02000000
03000000
00020000
00030000
,  // measure 79
20000000
00000000
30000000
01000000
,  // measure 80
20020000
00000000
00000000
00000000
,  // measure 81
30030000
00000000
00000000
00000000
;
