#TITLE:TRIP THE DEEP;
#SUBTITLE:;
#ARTIST:Qlarabelle;
#MUSIC:TRIP THE DEEP.ogg;
#BANNER:;
#BACKGROUND:;
#LYRICSPATH:;
#CDTITLE:;
#SAMPLESTART:38.027;
#SAMPLELENGTH:13.787;
#OFFSET:-0.712;
#BPMS:0.000000=135.000000;
#STOPS:98.000000=0.222000,
98.500000=0.222000,
147.000000=3.111000
;
#TIMESIGNATURES:;
#BGCHANGES:;
#FGCHANGES:;
#ATTACKS:;
#SPEEDS:;
#SCROLLS:;

//---------------dance-single - Pandemonium X---------------
#NOTES:
     dance-single:
     Pandemonium X:
     Beginner:
     3:
     0,0,0,0,0:
// measure 0
0000
0000
0000
0000
,  // measure 1
0000
0000
0000
0000
,  // measure 2
0000
0000
0000
0000
,  // measure 3
0000
0000
0000
0000
,  // measure 4
0000
0000
0000
0000
,  // measure 5
0000
0000
0001
0000
,  // measure 6
0000
0000
1000
0000
,  // measure 7
0000
0000
0000
0000
,  // measure 8
0000
0010
0000
0000
,  // measure 9
0100
0100
0100
0000
,  // measure 10
0010
0010
0010
0000
,  // measure 11
1000
1000
1000
0000
,  // measure 12
0000
0000
0000
0110
,  // measure 13
0001
0000
0001
0000
,  // measure 14
0001
0000
0001
0000
,  // measure 15
1000
0000
1000
0000
,  // measure 16
1000
0000
1000
0000
,  // measure 17
0001
0000
1000
0000
,  // measure 18
0010
0000
0100
0000
,  // measure 19
0001
0000
1000
0000
,  // measure 20
0010
0000
0100
0000
,  // measure 21
0001
0000
0001
0000
,  // measure 22
1000
0000
1000
0000
,  // measure 23
0010
0000
0010
0000
,  // measure 24
0100
0000
0020
0130
,  // measure 25
0000
0010
0000
1000
,  // measure 26
0000
0001
0000
0200
,  // measure 27
0000
0000
0000
0000
,  // measure 28
0000
0000
0000
0000
0000
0300
0010
0000
,  // measure 29
0000
0000
0000
1000
,  // measure 30
0000
0000
0000
0001
,  // measure 31
0000
1000
0000
0001
,  // measure 32
0000
0000
0000
1000
,  // measure 33
0000
0000
0000
0010
,  // measure 34
0000
0000
0000
0100
,  // measure 35
0000
0010
0000
0100
,  // measure 36
0000
0000
0000
1001
,  // measure 37
1000
0000
0000
0000
,  // measure 38
0000
0000
0000
0000
,  // measure 39
0001
0000
0000
0000
,  // measure 40
0000
0000
0000
0000
,  // measure 41
0100
0000
0000
0000
,  // measure 42
0010
0000
0000
0000
,  // measure 43
1001
0000
0110
0000
,  // measure 44
1001
0000
0000
0000
,  // measure 45
0000
0000
0000
0000
,  // measure 46
0000
0000
0000
0000
,  // measure 47
0001
0000
0001
0000
,  // measure 48
0001
0000
0001
0000
,  // measure 49
1000
0000
1000
0000
,  // measure 50
1000
0000
1000
0001
,  // measure 51
0100
0000
0100
0000
,  // measure 52
0100
0000
0100
0000
,  // measure 53
0010
0000
0010
0000
,  // measure 54
0010
0000
0010
0000
,  // measure 55
0100
0000
0010
0000
,  // measure 56
1000
0000
0001
0000
,  // measure 57
1000
0000
0100
0000
,  // measure 58
0010
0000
0100
0000
,  // measure 59
1000
0000
0001
0000
,  // measure 60
0100
0000
0010
0000
,  // measure 61
1001
0000
0110
0000
,  // measure 62
1001
0000
0110
0000
,  // measure 63
0001
0000
0000
0000
,  // measure 64
1000
0000
0000
0000
,  // measure 65
0010
0000
0010
0000
,  // measure 66
0000
0000
0100
0100
;

//---------------dance-single - Pandemonium X---------------
#NOTES:
     dance-single:
     Pandemonium X:
     Easy:
     7:
     0,0,0,0,0:
// measure 0
0000
0000
0000
0000
,  // measure 1
0000
0000
0000
0000
,  // measure 2
0000
0000
0000
0000
,  // measure 3
0000
0000
0000
0000
,  // measure 4
0000
0000
0000
0000
,  // measure 5
0000
0000
0000
0000
0001
1000
0020
0000
,  // measure 6
0000
0000
0030
0000
1000
0001
0010
0100
,  // measure 7
0000
0000
0000
0000
,  // measure 8
0000
1000
0001
2000
0000
0000
0000
3000
,  // measure 9
0001
0001
0001
0000
,  // measure 10
1000
1000
1000
0000
,  // measure 11
0001
0001
0001
0000
,  // measure 12
0000
0000
0000
MMMM
,  // measure 13
1000
0001
1000
0001
,  // measure 14
1000
0001
1000
0001
,  // measure 15
0100
0010
0100
0010
,  // measure 16
0100
0010
0100
0010
,  // measure 17
1000
1000
0001
0001
,  // measure 18
1000
0000
0001
0000
1000
0001
1000
0000
,  // measure 19
0101
0000
1100
0000
,  // measure 20
0011
0000
1001
0000
,  // measure 21
1000
0001
0100
0001
,  // measure 22
1000
0100
1000
0001
,  // measure 23
1000
0010
1000
0001
,  // measure 24
0010
0000
0001
0000
1001
0110
1001
0000
,  // measure 25
0001
0100
0001
1000
,  // measure 26
0100
1000
0001
0220
,  // measure 27
0000
0000
0000
0000
,  // measure 28
0000
0000
0000
0000
0000
0330
0000
2000
,  // measure 29
0000
0000
0000
0000
0000
3000
0000
0002
,  // measure 30
0000
0000
0000
0000
0000
0003
0000
0000
,  // measure 31
0200
0300
0020
0030
,  // measure 32
0000
0200
0302
1003
,  // measure 33
0100
0010
0002
0013
,  // measure 34
0100
1000
0200
0310
,  // measure 35
0200
1300
0020
0130
,  // measure 36
0100
0000
0010
0100
0010
0000
1001
0000
,  // measure 37
1000
0000
0000
0001
0000
0000
0100
0000
,  // measure 38
0000
0010
0000
0000
0000
0000
0000
0000
,  // measure 39
0010
0000
0000
0100
0000
0000
0001
0000
,  // measure 40
0000
1000
1000
0100
,  // measure 41
1000
0001
1000
0001
,  // measure 42
1000
0001
1000
0001
,  // measure 43
2002
3003
0220
0330
,  // measure 44
2002
0000
0000
0000
,  // measure 45
3003
0002
0000
0003
2000
0000
3000
0020
,  // measure 46
0000
0030
0200
0000
0000
0000
0000
0300
,  // measure 47
0001
1000
0001
0100
,  // measure 48
0010
1000
0100
0000
,  // measure 49
0010
0100
1000
0100
,  // measure 50
0010
0001
1000
1010
,  // measure 51
1001
0001
0100
0001
,  // measure 52
1000
0000
0100
0000
0010
0000
0001
1000
,  // measure 53
0001
1000
0100
1000
,  // measure 54
0001
0001
1000
0001
,  // measure 55
0100
0001
0010
0100
,  // measure 56
0010
0000
0100
0000
1000
0000
0010
0100
,  // measure 57
0001
1000
0100
0010
,  // measure 58
0100
0000
0100
0000
1000
0001
1000
0001
,  // measure 59
1000
0010
1000
0100
,  // measure 60
0010
0001
0010
0100
,  // measure 61
1100
0000
0011
0000
,  // measure 62
0101
0000
1010
0000
,  // measure 63
0001
1000
0020
0000
,  // measure 64
1030
0001
0200
0000
,  // measure 65
0300
0002
0003
2000
,  // measure 66
0000
3000
0000
0000
0000
0000
0000
0000
0000
0000
0000
0000
0000
0000
0000
0000
0000
0000
0000
0000
0000
0000
0000
0000
0020
0000
0000
0000
0000
0000
0000
0000
0000
0000
0000
0000
0200
0000
0000
0000
0000
0000
0000
0000
0000
0000
0000
0000
,  // measure 67
0330
0000
0000
0000
;

//---------------dance-single - Pandemonium X---------------
#NOTES:
     dance-single:
     Pandemonium X:
     Medium:
     12:
     0,0,0,0,0:
// measure 0
0000
0000
0000
0000
,  // measure 1
0000
0000
0000
0000
,  // measure 2
0000
0000
0202
0000
,  // measure 3
0000
0000
0000
0000
,  // measure 4
0000
0000
0000
0000
0000
0000
0000
0303
,  // measure 5
0000
0000
0000
0000
0001
1000
0020
0000
,  // measure 6
0000
0000
0030
0000
1000
0001
0100
0020
,  // measure 7
0000
0000
0000
0030
,  // measure 8
0000
0100
0001
2000
0000
0000
3001
0000
,  // measure 9
0201
0000
0000
0000
0000
0000
0000
0000
0000
0000
0000
0000
0000
0000
0000
0000
1000
0000
0000
0000
0000
0000
0000
0000
0000
0000
0000
0000
0000
0000
0000
0000
0002
0000
0000
0000
0000
0000
0000
0000
0000
0000
0000
0000
0000
0000
0000
0000
0003
0300
0000
0000
0000
0000
0000
0000
0000
0000
0000
0000
0000
0000
0000
0000
,  // measure 10
0021
1000
0002
0033
,  // measure 11
0201
1000
0002
0303
,  // measure 12
0000
0000
0000
MMMM
,  // measure 13
0001
0100
0001
0100
,  // measure 14
0010
1000
0010
1000
,  // measure 15
0100
1000
0100
1000
,  // measure 16
0001
0000
0010
0000
0001
0000
0010
0001
,  // measure 17
0100
0001
0010
0100
1000
1000
0100
1000
,  // measure 18
0010
0010
0100
0100
0010
0100
1001
0000
,  // measure 19
0001
0100
0010
0000
0000
0000
0000
0000
0100
0010
1000
0000
0000
0000
0000
0000
,  // measure 20
0001
0010
0100
0000
0000
0000
0010
0000
0100
1000
0001
0000
0000
0000
0000
0000
,  // measure 21
1001
0000
1000
0100
0000
1000
0100
0000
1000
0000
1000
0000
0010
0000
0010
0000
,  // measure 22
0100
0000
0001
0010
0000
0001
0010
0000
0001
0010
0000
0010
0100
0000
0010
0000
,  // measure 23
0100
0000
0010
0001
0000
0001
0100
0000
0010
0100
0010
0000
1000
0000
0001
0000
,  // measure 24
0100
0000
0010
1000
0000
1000
0100
0000
2000
0000
3002
0000
2003
0000
3100
0010
,  // measure 25
0000
0100
0010
0000
0100
0000
1000
0000
0001
0000
0100
0000
0010
0000
0100
0010
,  // measure 26
0000
0100
0010
0000
0100
0000
0001
0000
0100
0000
0010
0000
2020
0000
0000
0000
,  // measure 27
0000
0000
0000
0000
,  // measure 28
0000
0000
0000
0000
0000
0030
3001
0000
,  // measure 29
0100
0000
0010
0000
0100
0100
0000
0000
,  // measure 30
0010
0000
1000
0000
0100
0100
0000
0010
,  // measure 31
0002
0000
0003
0010
2000
0000
3000
0000
,  // measure 32
0000
0010
0000
0100
0000
1000
0000
0001
0200
0000
0000
0000
0310
0000
0000
0000
,  // measure 33
0100
0000
0001
0000
1000
1000
0100
0000
,  // measure 34
0010
0000
0001
0000
0010
0010
0001
1000
,  // measure 35
0200
0000
0300
0001
0200
0000
0300
0000
,  // measure 36
0000
0010
0000
0001
0000
0100
0000
0010
2000
0000
0000
0000
3001
0000
0000
0000
,  // measure 37
1000
0010
0010
1000
0001
0001
1000
0010
,  // measure 38
0010
1000
0001
0001
0000
0000
0000
0000
,  // measure 39
0001
0100
0100
0001
1000
1000
0001
0100
,  // measure 40
0100
0001
1000
1000
0001
0010
0100
1000
,  // measure 41
0001
0010
0001
0000
1000
0100
1000
0000
,  // measure 42
0001
0010
0001
0000
1000
0100
1000
0000
,  // measure 43
0202
0003
2000
3000
,  // measure 44
0002
0000
0000
0000
,  // measure 45
0003
0000
0301
1000
0100
0020
0000
0000
0130
1000
0001
0200
0000
0000
0310
0100
,  // measure 46
0001
0020
0000
0000
0130
1000
0010
0200
0000
0000
0000
0000
0000
0000
0000
0000
,  // measure 47
0310
0000
0100
0010
0100
0000
0010
0000
0100
0010
0100
0000
0010
0000
0100
0010
,  // measure 48
0100
0000
0010
0000
0100
0010
0100
0010
0100
0000
0000
0000
0000
0000
0000
0000
,  // measure 49
1001
0000
1000
0001
1000
0000
0001
0000
1000
0001
1000
0000
0001
0000
1000
0001
,  // measure 50
1000
0000
0001
0000
1000
0001
1000
0001
1000
0000
0001
0000
0010
0100
0000
0100
,  // measure 51
1000
0000
0100
0010
0100
0000
0010
0000
0001
0100
0001
0000
0100
0000
0010
1000
,  // measure 52
0010
0000
0100
0000
0010
0100
0010
0100
0010
0000
0000
0000
1000
0000
1000
0000
,  // measure 53
0001
0000
0010
0100
0010
0000
0100
0000
1000
0010
1000
0000
0010
0000
0100
0001
,  // measure 54
0100
0000
0000
0000
0000
0000
0010
0000
0000
0000
0000
0000
0100
0000
0000
0010
0000
0000
0100
0000
0000
0010
0000
0000
0100
0000
0000
0000
0010
0000
0000
0000
0100
0000
0000
0000
0001
0000
0000
0000
1000
0000
0000
0000
0001
0000
0000
0000
,  // measure 55
0100
0001
0010
0100
1000
1000
0100
1000
,  // measure 56
0010
0010
0100
0100
0010
0100
0001
0001
,  // measure 57
1000
0001
0100
0001
0010
0010
0100
1000
,  // measure 58
0100
0000
0010
0000
0010
0000
0100
0000
0010
0000
0010
0000
0001
0100
0000
0100
,  // measure 59
0010
0100
0001
1000
0100
0100
0010
0100
,  // measure 60
0010
0010
0001
0001
1000
1000
0001
1000
,  // measure 61
0001
0100
0010
0000
0000
0000
0000
0000
0100
0010
1000
0000
0000
0000
0000
0000
,  // measure 62
0100
0010
0001
0000
0000
0000
0010
0000
0100
1000
0001
0000
0000
0000
0000
0000
,  // measure 63
1000
0000
0010
0000
0100
0000
0010
0010
,  // measure 64
0000
0000
0100
0000
0001
0000
0010
0010
,  // measure 65
0000
0100
2000
0000
3000
0100
0002
0000
,  // measure 66
0003
0000
0000
0000
0000
0001
0000
0100
0000
1000
0000
0010
0200
0000
0000
0000
,  // measure 67
0300
0000
0000
0000
;

//---------------dance-single - Pandemonium X---------------
#NOTES:
     dance-single:
     Pandemonium X:
     Hard:
     15:
     0,0,0,0,0:
// measure 0
0000
0000
0000
0000
,  // measure 1
0000
0000
0000
0000
,  // measure 2
0000
0000
0000
0000
0000
0000
0000
0000
0040
0400
0000
0000
0000
0000
0000
0000
,  // measure 3
0000
0000
0000
0000
,  // measure 4
0000
0000
0000
0000
0000
0000
0330
1001
,  // measure 5
0000
0000
0000
0000
0000
0000
0000
0000
0000
0000
0000
0000
0000
0000
0000
0000
0000
0000
0001
0000
0000
0000
0000
0000
1000
0000
0100
0000
1000
0000
0100
0000
0000
1000
0000
0000
0200
0000
0000
0000
0000
0000
0000
0000
0000
0000
0000
0000
,  // measure 6
0000
0000
0000
0000
0000
0000
0000
0000
0000
0000
0000
0000
0000
0000
0000
0000
0000
0000
1300
0000
0000
0000
0000
0000
0001
0000
0100
0000
0001
0000
0100
0000
0000
0001
0000
0000
0100
0000
0000
0001
0000
0000
0020
0000
0000
0000
0000
0000
,  // measure 7
0000
0000
0000
0030
,  // measure 8
0000
0000
0000
0000
0000
0000
0001
0000
0010
0000
0001
0000
0010
0000
0000
0001
0000
0000
0010
0000
0000
0001
0000
0000
0010
0000
0000
0000
0000
0000
0001
0000
0000
0000
0000
0000
1000
0000
0000
0000
0000
0000
0000
0000
0000
0000
0000
0000
,  // measure 9
1100
0101
1100
0000
,  // measure 10
1010
0011
1010
0000
,  // measure 11
1001
0110
1001
0000
,  // measure 12
0000
0000
0000
MMMM
,  // measure 13
0001
0001
0001
0001
,  // measure 14
0001
0000
0000
0000
0001
0000
0000
0000
0001
0000
1000
0100
1000
0100
0000
0100
,  // measure 15
1000
0001
1000
0001
1000
0001
1000
0001
,  // measure 16
1000
0000
0001
0000
1000
0000
0001
0000
1000
0000
0001
0010
0001
0010
0100
1000
,  // measure 17
0010
0000
0010
0100
0001
0000
0001
0010
0100
0000
0100
0000
0010
0000
0100
0010
,  // measure 18
0001
1000
0001
1000
0010
1000
0010
1000
0010
0100
0001
1000
0100
0000
0000
0000
,  // measure 19
1000
0100
0001
0000
0100
0000
1000
0000
0010
0001
0010
0000
1000
0000
0100
0000
,  // measure 20
0001
0000
0000
0100
0000
0000
1000
0000
0000
0000
0000
0000
0010
0000
0000
0000
0000
0000
0100
0000
0000
0000
0000
0000
1000
0000
0000
0000
0100
0000
0000
0000
0001
0000
0000
0000
1000
0000
0000
0000
0000
0000
0000
0000
0000
0000
0000
0000
,  // measure 21
1001
0000
0001
0100
0000
0001
0010
0000
0001
0100
0001
0000
0001
0000
0001
1000
,  // measure 22
0100
0010
0100
1000
0000
0100
1000
0000
1000
0001
0000
1000
0001
0000
1000
0001
,  // measure 23
0100
0000
0010
0100
0000
0010
0100
0001
0000
0001
1000
0000
0001
1000
0000
0001
,  // measure 24
1000
0001
1000
0000
0100
0010
0000
0010
0001
0000
1010
0000
0101
0000
0001
0100
,  // measure 25
0000
0100
0001
0000
0010
0100
0010
0000
0100
0000
0100
0010
0001
1000
0001
1000
,  // measure 26
0000
0001
1000
0000
1000
0100
0000
0100
0010
0000
0010
0001
0400
0040
0000
0000
,  // measure 27
0000
0000
0000
0000
,  // measure 28
0000
0000
0000
0000
0000
0330
0000
1000
,  // measure 29
0001
0000
0000
0000
0000
0000
1000
0000
0000
0001
0000
0000
0000
0000
0000
0020
0030
0000
0000
0000
0000
0020
0030
0000
1000
0000
0000
0000
0000
0000
0001
0000
0000
0000
0000
0000
0000
0000
0000
0000
0000
0000
0001
0000
0000
0000
0000
0000
,  // measure 30
1000
0000
0000
0000
0000
0000
0001
0000
0000
1000
0000
0000
0000
0000
0000
0200
0300
0000
0000
0000
0000
0200
0300
0000
0001
0000
0000
0000
0000
0000
1000
0000
0000
0000
0000
0000
0000
0000
0000
0000
0000
0000
0001
0000
0000
0000
0000
0000
,  // measure 31
2020
0000
3000
1030
0022
0000
0033
0000
,  // measure 32
0000
0001
0000
1000
0000
0001
0000
0100
0002
0000
0000
0000
0013
0000
0100
0000
,  // measure 33
1000
0000
1000
0100
0000
0100
0000
0100
0010
0000
0010
0001
1000
0000
0001
0000
,  // measure 34
0010
0000
0010
0001
0000
0001
0000
0001
1000
0000
1000
0001
1000
0000
0100
0000
,  // measure 35
2200
0000
3000
0000
1300
0000
0010
0000
0201
0000
0000
0310
1000
0000
0000
0010
,  // measure 36
1000
0001
0000
0100
0000
0010
0000
1000
0001
0000
0000
0000
MMMM
0000
0000
0000
,  // measure 37
1000
0000
0001
0010
0001
0010
0001
0000
1000
0010
1000
0010
1000
0000
0001
1000
,  // measure 38
0001
1000
0001
0000
1000
0010
1000
0010
0000
0000
0000
0000
0000
0000
0000
0000
,  // measure 39
0100
0000
0001
0100
0001
0100
0010
0000
1000
0100
1000
0100
0010
0000
0100
0010
,  // measure 40
0100
0010
0001
0000
0100
0010
0100
0010
1000
0000
0001
0000
0100
0001
0100
0001
,  // measure 41
1000
0010
1000
0010
1000
0010
1000
0010
1000
0010
1000
0010
1000
0000
0000
0000
,  // measure 42
0001
0010
0001
0010
0001
0010
0001
0010
0001
0010
0001
0010
0001
0000
0000
0000
,  // measure 43
0100
0001
0100
0001
0100
0001
0100
0001
1000
0001
1000
0001
1000
0001
1000
0001
,  // measure 44
1000
0100
1000
0100
1000
0100
1000
0100
1000
0100
1000
0100
1000
0100
1000
0100
,  // measure 45
0000
0000
0000
1000
0100
1000
0200
0000
0000
0000
0000
0000
0310
0001
0010
0002
0000
0000
0000
0000
0000
1003
0010
1000
,  // measure 46
0020
0000
0000
0000
0000
0000
0130
0001
0100
0002
0000
0000
0000
0000
0000
0000
0000
0000
0000
0000
0000
0003
0000
0000
,  // measure 47
1001
0000
0001
0100
0001
0100
0010
0000
1000
0010
1000
0010
0100
0000
0001
1000
,  // measure 48
0001
1000
0100
0000
0010
0001
0010
0001
2000
0000
0000
0000
0000
0000
0000
0000
,  // measure 49
3001
0000
1000
0010
1000
0010
0100
0000
0010
0100
0010
0100
0001
0000
0010
0100
,  // measure 50
0010
0000
0000
0100
0000
0000
1000
0000
0000
0000
0000
0000
0001
0000
0000
0100
0000
0000
0001
0000
0000
0100
0000
0000
0010
0000
0000
0000
0000
0000
1000
0000
0000
0000
0000
0000
0001
0000
0000
0020
0030
0000
0000
0000
0000
0020
0030
0000
,  // measure 51
1000
0000
0100
0010
0001
0100
0010
0000
0100
0010
1000
0100
0010
0000
0100
0010
,  // measure 52
0001
0100
0010
0000
0100
0010
0100
0001
0200
0000
0000
0000
0001
0000
0301
0000
,  // measure 53
1010
0000
1000
0100
0010
0001
0100
0000
0001
0010
0100
1000
0010
0000
1000
0010
,  // measure 54
0100
0000
0000
0001
0000
0000
1000
0000
0000
0000
0000
0000
0001
0000
0000
0100
0000
0000
0010
0000
0000
1000
0000
0000
0001
0000
0000
0000
0001
0000
0000
0000
0001
0000
0000
0000
1000
0000
0000
0000
1000
0000
0000
0000
1000
0000
0000
0000
,  // measure 55
1001
0000
0001
0100
0010
0000
0010
1000
0100
0000
0010
0000
0100
0000
1000
0001
,  // measure 56
1000
0010
1000
0010
0100
0010
0100
0010
0100
0001
0100
0010
0100
0000
0001
0000
,  // measure 57
1000
0100
1000
0100
1000
0000
0001
1000
0001
0000
1000
0000
0020
0000
0000
0000
,  // measure 58
0130
0000
0001
0100
0010
1000
0001
0000
0010
0001
0000
0001
1000
0000
0000
0100
,  // measure 59
1000
0000
0100
1000
0010
0000
0010
0000
0100
0010
0000
0100
0001
1000
0001
1000
,  // measure 60
0001
0010
0100
0010
0001
0010
0100
0010
0100
1000
0100
1000
0001
0000
0000
0000
,  // measure 61
1000
0100
0001
0000
0100
0000
1000
0000
0010
0001
0010
0000
1000
0000
0100
0000
,  // measure 62
0001
0100
1000
0000
0010
0000
0100
0000
1000
0000
0100
0001
0000
0001
0010
0000
,  // measure 63
0001
0000
0000
0000
0000
0000
1000
0000
0000
0000
0000
0000
0001
0000
0000
0000
0000
0000
1000
0000
0000
0020
0030
0000
0000
0000
0000
0020
0030
0000
0000
0000
0000
0001
0000
0000
1000
0000
0000
0000
0000
0000
0200
0000
0000
0000
0000
0000
,  // measure 64
0300
0000
0000
0000
0000
0000
1000
0000
0000
0000
0000
0000
0001
0000
0000
0000
0000
0000
1000
0000
0000
0200
0300
0000
0000
0000
0000
0200
0300
0000
0000
0000
0000
0001
0000
0000
2000
0000
0000
0000
0000
0000
3001
0000
0000
0000
0000
0000
,  // measure 65
0000
2000
0002
0000
3003
0002
2000
0000
,  // measure 66
3003
0000
0000
0000
0000
0001
0000
0100
0000
0001
0000
1000
0200
0000
0000
0000
,  // measure 67
0300
0000
0000
0000
;

//---------------dance-double - Pandemonium X---------------
#NOTES:
     dance-double:
     Pandemonium X:
     Easy:
     6:
     0,0,0,0,0:
// measure 0
00000000
00000000
00000000
00000000
,  // measure 1
00000000
00000000
00000000
00000000
,  // measure 2
00000000
00000000
00022000
00000000
,  // measure 3
00000000
00000000
00000000
00000000
,  // measure 4
00000000
00000000
00000000
00000000
00000000
00000000
00000000
00033000
,  // measure 5
00000000
00000000
00010000
00000200
,  // measure 6
00000000
00000300
00001000
00000020
,  // measure 7
00000000
00000000
00000030
00000000
,  // measure 8
00000000
00000200
00000000
00000300
,  // measure 9
00000001
00001000
00000001
00000000
,  // measure 10
00000001
00001000
00000001
00000000
,  // measure 11
00000001
00001000
00000001
00000000
,  // measure 12
00000000
00000000
00000000
00000110
,  // measure 13
00001000
00001000
00000100
00000100
,  // measure 14
00001000
00001000
00000100
00001000
,  // measure 15
00000100
00000100
00010000
00010000
,  // measure 16
00001000
00001000
01000000
01000000
,  // measure 17
00010000
10000000
01000000
10000000
,  // measure 18
00010000
01000000
00010000
00110000
,  // measure 19
11000000
00000000
00110000
00000000
,  // measure 20
01010000
00000000
10100000
00000000
,  // measure 21
10000000
00010000
10000000
00010000
,  // measure 22
00100000
00001000
00010000
00001000
,  // measure 23
00010000
00000100
00001000
00000001
,  // measure 24
00001000
00000000
00001000
00000000
00001001
00000110
00001001
00000000
,  // measure 25
00000001
00001000
00001000
00000001
,  // measure 26
00000100
00000010
00000010
00020000
,  // measure 27
00000000
00000000
00000000
00000000
,  // measure 28
00000000
00000000
00000000
00000000
00000000
00030000
00000000
00001000
,  // measure 29
00000000
00000000
00000000
00000000
00000000
00000000
00000000
00010000
,  // measure 30
00000000
00000000
00000000
00000000
,  // measure 31
00000100
00000000
00001000
00000000
,  // measure 32
00000000
00000000
00000010
00000000
00010000
00000000
00000000
00001000
,  // measure 33
00000000
00000000
00000000
00000000
00000000
00000000
00000000
00010000
,  // measure 34
00000000
00000000
00000000
00000000
,  // measure 35
00001000
00000000
01000000
00000000
,  // measure 36
00000000
00010000
10000000
01100000
,  // measure 37
10000000
00000000
00000000
01000000
00000000
00000000
00100000
00000000
,  // measure 38
00000000
00010000
00000000
00000000
00000000
00000000
00000000
00000000
,  // measure 39
01000000
00000000
00000000
00010000
00000000
00000000
00100000
00000000
,  // measure 40
00000000
00001000
00000000
00000000
00010000
00000000
00001000
00000000
,  // measure 41
00010100
00000000
00000000
00000000
,  // measure 42
00001100
00000000
00000000
00000000
,  // measure 43
00001001
00000000
00000110
00000000
,  // measure 44
00002002
00000000
00000000
00000000
,  // measure 45
00003003
00000000
00000000
00000000
,  // measure 46
00000000
00000000
00000000
00000000
,  // measure 47
00000001
00000100
00000010
00001000
,  // measure 48
00000100
00001000
00001000
00000000
,  // measure 49
00000100
00010000
00001000
01000000
,  // measure 50
00010000
00100000
00010000
00110000
,  // measure 51
10010000
10000000
00010000
01000000
,  // measure 52
00010000
00000000
00100000
00000000
00001000
00000000
00010000
00001000
,  // measure 53
00010000
00000100
00001000
00000010
,  // measure 54
00000110
00000110
00002000
00003002
,  // measure 55
00000013
00000100
00000010
00000001
,  // measure 56
00000100
00001000
00000100
00000010
,  // measure 57
00001000
00000100
00010000
00001000
,  // measure 58
01001000
00000000
01010000
00000000
,  // measure 59
00010000
10000000
00100000
00010000
,  // measure 60
00100000
01000000
00010000
00100000
,  // measure 61
00101000
00000000
00011000
00000000
,  // measure 62
00010100
00000000
00001100
00000000
,  // measure 63
00002000
00000000
00000000
00003000
,  // measure 64
00000002
00000000
00000000
00000003
,  // measure 65
00000000
00000100
00000000
00000010
,  // measure 66
00000000
00000000
00000100
00000002
,  // measure 67
00000003
00000000
00000000
00000000
;

//---------------dance-double - Pandemonium X---------------
#NOTES:
     dance-double:
     Pandemonium X:
     Medium:
     11:
     0,0,0,0,0:
// measure 0
00000000
00000000
00000000
00000000
,  // measure 1
00000000
00000000
00000000
00000000
,  // measure 2
00000000
00000000
00022000
00000000
,  // measure 3
00000000
00000000
00000000
00000000
,  // measure 4
00000000
00000000
00000000
00000000
00000000
00000000
00000000
00033000
,  // measure 5
00000000
00000000
00000000
00010000
00000100
00001000
00000010
00000200
,  // measure 6
00000000
00000000
00000300
00000010
00000100
00000001
00001000
00000200
,  // measure 7
00000000
00000000
00000300
00000000
,  // measure 8
00000000
00001000
00000100
00020000
00000000
00000000
00000000
00031000
,  // measure 9
00011000
00110000
01100000
00000000
,  // measure 10
11000000
10100000
10010000
00000000
,  // measure 11
01010000
00110000
00011000
00000000
,  // measure 12
00020000
00000000
00000000
00030000
,  // measure 13
00001000
00010000
00001000
00010000
,  // measure 14
00001000
00010000
00001000
00010000
,  // measure 15
00000100
00000100
00001000
00001000
,  // measure 16
00000001
00000001
00000100
00000100
,  // measure 17
00000010
00000000
00000100
00000000
00000001
00000100
00000001
00000000
,  // measure 18
00000100
00000010
00001000
00000100
00010000
00001000
00200000
00000000
,  // measure 19
01300000
10000000
01000000
00000000
00000000
00000000
00000000
00000000
10000000
00100000
10000000
00000000
00000000
00000000
00000000
00000000
,  // measure 20
00010000
01000000
00010000
00000000
00000000
00000000
10000000
00000000
00010000
00100000
00010000
00000000
00000000
00000000
00000000
00000000
,  // measure 21
00100000
00000000
00000000
00001000
00000000
00000000
00001000
00000000
00000000
00010000
00001000
00000000
00000000
00000000
00010000
00000000
,  // measure 22
00000100
00000000
00000000
00001000
00000000
00000000
00001000
00000000
00000000
00000001
00000000
00000001
00001000
00000000
00000001
00000000
,  // measure 23
00000100
00000000
00000000
00000010
00000000
00000000
00000100
00000000
00000000
00000010
00001000
00000000
00000100
00000000
00010000
00000000
,  // measure 24
00001000
00000000
00100000
00000000
00010000
00000000
00000000
00000000
00110000
00000000
11000000
00000000
10010000
00000000
00000000
00010000
,  // measure 25
00000000
00000000
10000000
00000000
00000000
01000000
10000000
00000000
00000000
00000000
01000000
00000000
00100000
00000000
00000000
00010000
,  // measure 26
00000000
00000000
10000000
00000000
00000000
00010000
00000000
01000000
00010000
00000000
00100000
00000000
00102000
00000000
00000000
00000000
,  // measure 27
00000000
00000000
00000000
00000000
,  // measure 28
00000000
00000000
00000000
00000000
00000000
00003000
00000000
00010000
,  // measure 29
00000100
00001000
00000010
00000100
00000001
00000001
00000000
00000100
,  // measure 30
00000010
00001000
00000100
00010000
00001000
00001000
00000000
00010000
,  // measure 31
00000200
00000000
00000000
00010300
00002000
00000000
00000000
00000000
,  // measure 32
00003000
00010000
00000000
00001000
00000000
00010000
00000000
00001000
00010000
00000000
00000000
00000000
00010000
00000000
00001000
00000000
,  // measure 33
00100000
00010000
01000000
00100000
10000000
10000000
00000000
00100000
,  // measure 34
01000000
00010000
00100000
00001000
00010000
00010000
00000000
00001000
,  // measure 35
00200000
00000000
00000000
00301000
00020000
00000000
00000000
00000000
,  // measure 36
00030000
00001000
00000000
00010000
00000000
00001000
00000000
00010000
00001000
00000000
00000000
00000000
00011000
00000000
00000000
00000000
,  // measure 37
00020000
00030200
00002300
00023000
,  // measure 38
00230000
00000000
00310000
10000000
00000000
00000000
00000000
00000000
,  // measure 39
02000000
03200000
20300000
30200000
,  // measure 40
00320000
00000000
00031000
00010000
00002000
00000000
00013000
00000100
,  // measure 41
00002000
00000010
00000001
00003100
,  // measure 42
00001002
00000010
00000100
00001003
,  // measure 43
00001001
00000000
00011000
00000000
,  // measure 44
20020000
00000000
00000000
00000000
00000000
00000000
00000000
30030000
,  // measure 45
00000000
02000000
00000000
00000000
00002000
00000000
03000000
00020000
,  // measure 46
00000000
00003000
00000200
00000000
00000000
00000000
00000000
00030300
,  // measure 47
00010100
00000100
00001000
00000010
,  // measure 48
00000100
00000001
00001000
00000000
,  // measure 49
00000001
00001000
00000100
00010000
,  // measure 50
00001000
00000000
00000000
00000000
01000000
00000000
00000000
00000000
00010000
00000000
00000000
00000000
00100000
01000000
00000000
01000000
,  // measure 51
10000000
00010000
01000000
00010000
,  // measure 52
00100000
00000000
00001000
00000000
00010000
00000000
00000100
00001000
,  // measure 53
00000001
00000100
00000001
00001000
,  // measure 54
00001001
00000000
00000000
00001001
00000000
00000000
00000001
00000100
00000010
00001000
00000100
00000010
,  // measure 55
00000001
00000000
00000010
00000000
00000001
00000100
00000010
00000000
,  // measure 56
00000100
00000000
00000010
00000000
00001000
00000000
00000100
00000100
,  // measure 57
00010000
00000000
00001000
00000000
01000000
00010000
10000000
00000000
,  // measure 58
00010000
00000000
01000000
00000000
00010000
00000000
10000000
00000000
01000000
00000000
10000000
00000000
01000000
00100000
00000000
00100000
,  // measure 59
00010000
01000000
00010000
00000000
10000000
00010000
10000000
00000000
,  // measure 60
00010000
00100000
00001000
00010000
00000010
00000100
00000001
00000000
,  // measure 61
00001000
00000001
00001000
00000000
00000000
00000000
00000000
00000000
00000010
00001000
00000010
00000000
00000000
00000000
00000000
00000000
,  // measure 62
00001000
00000001
00001000
00000000
00000000
00000000
00000100
00000000
00010000
00001000
00010000
00000000
00000000
00000000
00000000
00000000
,  // measure 63
00002000
00000000
02003000
00000000
03200000
00000000
10000000
10300000
,  // measure 64
00000000
00000000
02000000
00000000
03200000
00000000
00010000
00310000
,  // measure 65
00000000
00100000
00002000
00000000
00003000
00010000
00000020
00000000
,  // measure 66
00000000
00000000
00000030
00000000
00000000
00000100
00000000
00000010
00000000
00001000
00000000
00000001
00002000
00000000
00000000
00000000
,  // measure 67
00003000
00000000
00000000
00000000
;

//---------------dance-double - Pandemonium X---------------
#NOTES:
     dance-double:
     Pandemonium X:
     Hard:
     15:
     0,0,0,0,0:
// measure 0
00000000
00000000
00000000
00000000
,  // measure 1
00001000
00010000
00001000
00010000
,  // measure 2
00001000
00010000
00020100
00001000
,  // measure 3
00000100
00001000
00000100
00001000
,  // measure 4
00000100
00000000
00001000
00000000
00000100
00000000
00031000
00011000
,  // measure 5
00001000
00000000
00000000
00000000
00000000
00000000
00000000
00000000
00000000
00000000
00000000
00000000
01000000
00000000
00000000
00000000
00000000
00000000
00010000
00000000
00000000
00000000
00000000
00000000
10000000
00000000
00010000
00000000
10000000
00000000
00010000
00000000
00000000
10000000
00000000
00000000
00010000
00000000
00000000
00100000
00000000
00000000
01000000
00000000
00000000
00000000
00000000
00000000
,  // measure 6
10000000
00000000
00000000
00000000
00000000
00000000
00000000
00000000
00000000
00000000
00000000
00000000
01000000
00000000
00000000
00000000
00000000
00000000
10000000
00000000
00000000
00000000
00000000
00000000
00100000
00000000
01000000
00000000
00100000
00000000
01000000
00000000
00000000
00100000
00000000
00000000
01000000
00000000
00000000
00010000
00000000
00000000
20000000
00000000
00000000
00000000
00000000
00000000
,  // measure 7
01000000
01000000
00010000
30010000
,  // measure 8
00010000
00000000
00000000
00000000
00000000
00000000
00100000
00000000
00010000
00000000
00100000
00000000
00010000
00000000
00000000
00100000
00000000
00000000
00001000
00000000
00000000
00010000
00000000
00000000
00001000
00000000
00000000
00000000
00000000
00000000
00010000
00000000
00000000
00000000
00000000
00000000
00001000
00000000
00000000
00000000
00000000
00000000
00100000
00000000
00000000
00000000
00000000
00000000
,  // measure 9
00110000
00011000
00001010
00000000
,  // measure 10
00001100
00011000
01010000
00000000
,  // measure 11
00110000
00011000
00001100
00000000
,  // measure 12
00000000
00000000
00000000
MMMMMMMM
,  // measure 13
00000001
00000100
00000010
00001000
,  // measure 14
00000001
00000000
00000000
00000000
00000100
00000000
00000000
00000000
00000010
00000000
00001000
00000100
00001000
00000100
00000000
00000100
,  // measure 15
00010000
00001000
00010000
00001000
00010000
00001000
00010000
00001000
,  // measure 16
00010000
00000000
00001000
00000000
00010000
00000000
00001000
00000000
00010000
00000000
00001000
01000000
00001000
01000000
00010000
10000000
,  // measure 17
01000000
00000000
10000000
00010000
01000000
00000000
00010000
10000000
01000000
00000000
10000000
00000000
00100000
00000000
01000000
00100000
,  // measure 18
01000000
00010000
01000000
00010000
00100000
00010000
00100000
00001000
00010000
00000100
00001000
00000100
00002000
00000000
00000000
00000000
,  // measure 19
00003001
00001000
00000001
00000000
00000100
00000000
00001000
00000000
00010000
00100000
10000000
00000000
01000000
00000000
00100000
00000000
,  // measure 20
00010000
00000000
00000000
00001000
00000000
00000000
00000100
00000000
00000000
00000000
00000000
00000000
00000010
00000000
00000000
00000000
00000000
00000000
00000001
00000000
00000000
00000000
00000000
00000000
00001000
00000000
00000000
00000000
00001000
00000000
00000000
00000000
00001000
00000000
00000000
00000000
00001000
00000000
00000000
00000000
00000000
00000000
00001001
00000000
00000000
00000000
00000000
00000000
,  // measure 21
00001000
00000000
00000100
00010000
00000000
00001000
00010000
00000000
00000000
00001000
00010000
00000000
00010000
00001000
00010000
00001000
,  // measure 22
01000000
00010000
01000000
00010000
00000000
00100000
01000000
00000000
00100000
00010000
00000000
10000000
00100000
00000000
01000000
00010000
,  // measure 23
01000000
00000000
00100000
01000000
00000000
00100000
01000000
00010000
00000000
10000000
00010000
00000000
10000000
01000000
00000000
00100000
,  // measure 24
00010000
00100000
00001000
00000000
00010000
00001000
00000000
00000000
00011000
00000000
00001010
00000000
00000101
00000000
00000100
00000001
,  // measure 25
00000000
00000001
00001000
00000000
00000100
00001000
00000100
00000000
00001000
00000001
00001000
00000001
00001000
00000010
00000100
00000010
,  // measure 26
00000000
00000100
00000010
00000000
00000000
00000010
00000000
00001000
00000100
00000000
00010000
00004000
00040000
00000000
00000000
00000000
,  // measure 27
00000000
00000000
00000000
00000000
,  // measure 28
00000000
00000000
00000000
00000000
00000000
00033000
00000000
00001000
,  // measure 29
00100000
00000000
00010000
10000000
00000000
00100000
00000000
01000000
00001000
00000000
00010000
00000000
00000000
00000000
00001000
00000000
,  // measure 30
00010000
00000000
00000010
00010000
00000000
00001000
00000000
00010000
00000100
00000000
00001000
00000000
00000000
00000000
00000001
00000000
,  // measure 31
00000200
00000000
00000300
00001000
00020000
00000000
00030000
00000000
,  // measure 32
00000000
00001000
00000000
01000000
00000000
00010000
00000000
10000000
02000000
00000000
00000000
00000000
03100000
00000000
00010000
00000000
,  // measure 33
01000000
00000000
00001000
00010000
00000000
00000100
00000000
00001000
00000010
00000000
00000110
00000000
00000000
00000000
00000001
00000000
,  // measure 34
00000010
00000000
00000100
00001000
00000000
00000100
00000000
00010000
00001000
00000000
00101000
00000000
00100000
00000000
00010000
00000000
,  // measure 35
02000000
00000000
00000000
00000000
03100000
00000000
10000000
00000000
00020000
00000000
00000000
10030000
01000000
00000000
00000000
00100000
,  // measure 36
00010000
00100000
00000000
00001000
00000000
00010000
00000000
00001000
00020000
00000000
00000000
00000000
00031000
00000000
00000000
00000000
,  // measure 37
00010000
00000000
00001000
00100000
00001000
00100000
00010000
00000000
00100000
00001000
00100000
00001000
00010000
00000000
00001000
00100000
,  // measure 38
00001000
00100000
00010000
00000000
00100000
00001000
00100000
00001000
00000000
00000000
00000000
00000000
00000000
00000000
00000000
00000000
,  // measure 39
00001000
00000000
00010000
00000100
00010000
00000100
00001000
00000000
00000100
00010000
00000100
00010000
00001000
00000000
00010000
00000100
,  // measure 40
00010000
00000100
00001000
00000000
00000100
00010000
00000100
00010000
00001000
00000000
00010000
00000000
00001000
00010000
00001000
00010000
,  // measure 41
00000100
00001000
00000100
00001000
00000100
00001000
00000100
00001000
00000100
00001000
00000100
00001000
00000100
00000000
00000010
00000000
,  // measure 42
00000001
00000100
00000001
00000100
00000001
00000100
00000001
00000100
00000001
00000100
00000001
00000100
00000001
00000000
00000100
00000000
,  // measure 43
00000010
00001000
00000010
00001000
00000010
00001000
00000010
00001000
00000100
00010000
00000100
00010000
00000100
00010000
00000100
00010000
,  // measure 44
00004000
00040000
00000000
00000000
00000000
00000000
00000000
00000000
00000000
00000000
00000000
00000000
00033000
00000000
00000000
00000000
,  // measure 45
00000000
00000000
00000000
00001000
00010000
00001000
00010000
00002000
00000000
00000000
00000000
00000000
00013000
00000100
00010000
00000100
00020000
00000000
00000000
00000000
00000000
00030100
00001000
00000100
,  // measure 46
00001000
00000200
00000000
00000000
00000000
00000000
00001300
00000001
00001000
00000001
00002000
00000000
00000000
00000000
00000000
00000000
00000000
00000000
00003000
00000000
00000000
00001001
00000000
00000000
,  // measure 47
00000001
00000000
00000100
00000010
00001000
00000100
00000010
00000000
00000100
00001000
00000001
00000100
00000001
00000000
00000100
00000010
,  // measure 48
00001000
00000100
00000010
00000000
00000100
00001000
00000001
00001000
00000100
00000000
00000000
00000000
00000000
00000000
00000000
00000000
,  // measure 49
00011000
00000000
00010000
00001000
01000000
00010000
01000000
00000000
00010000
00100000
01000000
00100000
00010000
00000000
00100000
01000000
,  // measure 50
10000000
00010000
10000000
00000000
00100000
10000000
00010000
10000000
00100000
00000000
01000000
00000000
00010000
00100000
00000000
00001000
,  // measure 51
00010000
00000000
00001000
00010000
00001000
00010000
00000100
00000000
00010000
00001000
00010000
00001000
01000000
00000000
00001000
00010000
,  // measure 52
00001000
00010000
00000100
00000000
00010000
00001000
00010000
00001000
01000000
00000000
00000000
00000000
01000000
00000000
00001000
00000000
,  // measure 53
00011000
00000000
00010000
00001000
00010000
00001000
00100000
00000000
00001000
00010000
00001000
00010000
00000010
00000000
00010000
00001000
,  // measure 54
00010000
00000000
00000000
00011000
00000000
00000000
00001000
00100000
00001000
00010000
00000010
00000100
,  // measure 55
00000001
00000000
00000001
00000100
00000010
00000000
00000010
00001000
00000001
00000000
00001000
00000000
00000100
00000000
00000010
00000100
,  // measure 56
00001000
00000001
00001000
00000001
00000100
00000001
00000100
00000001
00000100
00000010
00001000
00000100
00010000
00000000
00011000
00000000
,  // measure 57
00001000
01000000
00001000
01000000
00010000
00000000
00100000
00010000
00100000
00000000
00010000
00000000
20000000
00000000
00000000
00000000
,  // measure 58
30100000
00000000
00010000
00100000
00010000
00000000
00100000
00000000
10000000
00100000
10000000
00000000
00100000
01000000
00000000
01000000
,  // measure 59
00001000
00000000
00010000
00001000
00100000
00000000
00100000
00000000
00100000
00001000
00000000
00010000
00001000
00010000
00000100
00010000
,  // measure 60
00001000
00010000
00000010
00001000
00000010
00000100
00000010
00001000
00000001
00000100
00000001
00000100
00000001
00000000
00000011
00000000
,  // measure 61
00000001
00000010
00000001
00000000
00000100
00000000
00001000
00000000
00010000
00001000
00010000
00000000
00001000
00000000
01000000
00000000
,  // measure 62
00100000
00010000
00100000
00000000
01000000
00000000
00010000
00000000
10010000
00000000
01000000
00100000
00000000
10000000
00010000
00000000
,  // measure 63
10010000
00000000
10000000
00000000
00010000
00000000
00100000
01000000
00000000
00100000
00000000
00001000
00010000
00000000
00001000
00000000
,  // measure 64
00000000
00000000
00010000
00000000
00000100
00000000
00001000
00000010
00000000
00000100
00000000
00000001
00001000
00000000
00000100
00000000
,  // measure 65
00000000
00000010
00002002
00000000
00003003
00000100
00002002
00000000
,  // measure 66
00003003
00000000
00000000
00000000
00000000
00001000
00000000
00000100
00000000
00010000
00000000
00001000
00020000
00000000
00000000
00000000
,  // measure 67
00030000
00000000
00000000
00000000
;
