#TITLE:THE FALLEN;
#SUBTITLE:;
#ARTIST:L.E.D.-G;
#MUSIC:THE FALLEN.ogg;
#BANNER:banner.png;
#BACKGROUND:background.png;
#LYRICSPATH:;
#CDTITLE:;
#SAMPLESTART:16.179;
#SAMPLELENGTH:22.640;
#OFFSET:-0.371;
#BPMS:0.000000=167.000000;
#STOPS:36.000000=2.515000;
#TIMESIGNATURES:;
#BGCHANGES:;
#FGCHANGES:;
#ATTACKS:;
#SPEEDS:;
#SCROLLS:;

//---------------dance-single - Pandemonium X---------------
#NOTES:
     dance-single:
     Pandemonium X:
     Beginner:
     5:
     0,0,0,0,0:
// measure 0
0000
0000
0000
0000
,  // measure 1
0000
0000
0000
0000
,  // measure 2
0000
0000
0000
0000
,  // measure 3
0000
0000
0000
0000
,  // measure 4
0000
0000
0000
0000
,  // measure 5
1000
0000
0001
0000
,  // measure 6
0100
0000
0010
0000
,  // measure 7
1000
0000
0001
0000
,  // measure 8
0100
0100
0010
0010
,  // measure 9
0000
1000
0000
0001
,  // measure 10
0000
1000
1000
1000
,  // measure 11
0000
0001
0000
1000
,  // measure 12
0000
0010
0010
0010
,  // measure 13
0000
1000
0000
0100
,  // measure 14
0000
1000
1000
1000
,  // measure 15
0000
0001
0000
0010
,  // measure 16
0000
0100
0100
0100
,  // measure 17
0000
0010
0000
0001
,  // measure 18
0000
0100
0100
0100
,  // measure 19
0000
0010
0000
1000
,  // measure 20
0000
0001
0001
0001
,  // measure 21
0000
1000
0000
0001
,  // measure 22
0000
0100
0100
0100
,  // measure 23
0000
0010
0000
0100
,  // measure 24
0000
1001
0000
0000
,  // measure 25
0000
0001
0000
1000
,  // measure 26
0000
0010
0000
0100
,  // measure 27
0000
0001
0000
1000
,  // measure 28
0000
0001
1000
0001
,  // measure 29
0000
1000
0000
0100
,  // measure 30
0000
0010
0000
0001
,  // measure 31
0000
0010
0000
0001
,  // measure 32
0000
1000
0000
0010
,  // measure 33
0010
0010
0000
0100
,  // measure 34
0000
0001
0000
1000
,  // measure 35
0000
0001
0000
1000
,  // measure 36
0000
0100
0100
0100
,  // measure 37
0000
0010
0000
0001
,  // measure 38
0000
1000
0000
0010
,  // measure 39
0000
0100
0000
0010
,  // measure 40
0000
0100
0010
1000
,  // measure 41
0001
1001
0000
0000
,  // measure 42
0000
0000
0000
0000
,  // measure 43
0000
0000
0000
0000
,  // measure 44
0000
0000
0000
0000
,  // measure 45
0000
0001
0000
1000
,  // measure 46
0000
0010
0000
1000
,  // measure 47
0000
0001
0000
0010
,  // measure 48
0000
0100
0000
1000
,  // measure 49
0000
0000
0001
1000
,  // measure 50
0000
0010
0000
1000
,  // measure 51
0000
0100
0000
0010
,  // measure 52
0000
0001
0000
0100
,  // measure 53
0000
0010
0000
0100
,  // measure 54
0000
0001
0000
1000
,  // measure 55
0000
0100
0000
0010
,  // measure 56
0000
0002
0000
0000
,  // measure 57
0000
0003
0000
1000
,  // measure 58
0000
0000
0010
0000
,  // measure 59
0000
0100
0001
0001
,  // measure 60
1000
0000
0000
0001
,  // measure 61
0000
0000
0010
0000
,  // measure 62
0000
0001
0100
0100
,  // measure 63
0010
0000
0000
0100
,  // measure 64
0000
0000
0001
0000
,  // measure 65
0000
1000
0100
0100
,  // measure 66
0100
0000
0000
0010
,  // measure 67
0000
0000
0001
0000
,  // measure 68
0000
1000
0001
0001
,  // measure 69
1000
0110
0000
0000
;

//---------------dance-single - Pandemonium X---------------
#NOTES:
     dance-single:
     Pandemonium X:
     Easy:
     7:
     0,0,0,0,0:
// measure 0
0000
0000
0000
0000
,  // measure 1
0000
0000
0000
0000
,  // measure 2
0000
0000
0000
0000
,  // measure 3
0000
0000
0000
0000
,  // measure 4
0000
0000
0000
0000
,  // measure 5
1000
1000
0001
0001
,  // measure 6
1000
1000
0001
0001
,  // measure 7
1000
0001
1000
0001
,  // measure 8
1001
1001
1001
1001
,  // measure 9
0110
0001
0100
0010
,  // measure 10
1000
0010
0100
0001
,  // measure 11
1000
0100
0010
0100
,  // measure 12
1000
0001
1000
0010
,  // measure 13
1000
0001
0001
1000
,  // measure 14
0001
0010
0100
0010
,  // measure 15
0100
1000
1000
1000
,  // measure 16
0010
0100
0100
0100
,  // measure 17
0020
1030
0010
0100
,  // measure 18
0001
1000
0001
0001
,  // measure 19
0010
0100
0010
0001
,  // measure 20
0100
0010
0010
0100
,  // measure 21
0010
1000
1000
1000
,  // measure 22
0001
1000
1000
0001
,  // measure 23
0010
0100
0100
0010
,  // measure 24
0010
1001
0000
0000
,  // measure 25
0000
0001
0100
1000
,  // measure 26
0100
0001
0001
1000
,  // measure 27
1000
0010
0001
0010
,  // measure 28
1000
0001
0010
0200
,  // measure 29
0000
1300
0100
0001
,  // measure 30
0100
1000
0001
0100
,  // measure 31
1000
0100
0010
0001
,  // measure 32
0010
1010
1010
0101
,  // measure 33
0101
0001
1000
0100
,  // measure 34
1000
0001
0001
1000
,  // measure 35
1000
0001
0100
0010
,  // measure 36
1000
0001
0010
0200
,  // measure 37
0000
0310
0001
0100
,  // measure 38
0010
1000
0001
0010
,  // measure 39
0001
1001
1001
0110
,  // measure 40
0110
1001
0110
1001
,  // measure 41
0110
2002
0000
0000
,  // measure 42
0000
0000
0000
0000
,  // measure 43
0000
3003
0000
0000
,  // measure 44
0000
0000
0000
0000
,  // measure 45
0000
0001
0000
0001
,  // measure 46
0000
1000
0000
1000
,  // measure 47
0000
0010
0000
0010
,  // measure 48
0000
0100
0000
0100
,  // measure 49
0000
0000
1001
0001
,  // measure 50
1000
0010
1000
0001
,  // measure 51
0010
0100
0010
0001
,  // measure 52
0100
0010
1000
0010
,  // measure 53
0100
0001
1000
0100
,  // measure 54
0010
0001
0010
0001
,  // measure 55
0100
0010
1000
0001
,  // measure 56
0010
0200
0000
0000
,  // measure 57
0000
1300
1000
0001
,  // measure 58
0100
0100
0010
1000
,  // measure 59
1000
0010
0100
0001
,  // measure 60
1000
0100
0100
0010
,  // measure 61
0001
0001
0010
0100
,  // measure 62
0100
0010
0001
1000
,  // measure 63
0010
0100
0100
0001
,  // measure 64
0100
0100
0010
0100
,  // measure 65
0100
0001
1000
0200
,  // measure 66
1300
0010
0010
0100
,  // measure 67
0001
0001
1000
0100
,  // measure 68
0100
0010
0100
1000
,  // measure 69
0001
0110
0000
0000
;

//---------------dance-single - Pandemonium X---------------
#NOTES:
     dance-single:
     Pandemonium X:
     Medium:
     11:
     0,0,0,0,0:
// measure 0
0000
0000
0000
0000
,  // measure 1
0000
0000
0000
0000
,  // measure 2
0000
0000
0000
0000
,  // measure 3
0000
0000
0000
0000
,  // measure 4
0000
0000
0000
0000
,  // measure 5
1000
1000
0100
0100
,  // measure 6
0010
0010
0001
0001
,  // measure 7
1000
0100
0010
0001
,  // measure 8
1001
0110
1001
0110
,  // measure 9
1001
0001
1000
0100
,  // measure 10
1000
0010
0100
0001
,  // measure 11
0010
0001
1000
0010
,  // measure 12
0100
0001
0010
0001
,  // measure 13
1000
0000
1000
0001
0000
0000
1000
0000
0000
0001
0000
0000
,  // measure 14
0010
0100
0100
0010
,  // measure 15
0001
1000
1000
0001
,  // measure 16
1000
1010
0101
1010
,  // measure 17
1000
0010
0100
0001
0000
0000
1000
0000
0000
0001
0000
0000
,  // measure 18
0010
0001
1000
0100
,  // measure 19
1000
0001
0001
0100
,  // measure 20
0010
0100
0100
0010
,  // measure 21
1000
0001
0001
1000
,  // measure 22
0100
0010
0010
0100
,  // measure 23
0100
0010
0001
0100
,  // measure 24
0010
2002
0000
0000
,  // measure 25
3003
0001
1000
0010
,  // measure 26
1000
0001
0010
1000
,  // measure 27
0010
0011
0011
1100
,  // measure 28
1100
0000
0000
1001
0000
0000
0001
0100
0010
2000
0000
0000
,  // measure 29
0000
3001
1000
0100
,  // measure 30
1000
0001
0100
0001
,  // measure 31
1000
0100
0010
0100
,  // measure 32
1000
0000
0000
0110
0000
0000
1001
0000
0000
0001
0000
1000
,  // measure 33
0010
0000
0100
0001
0000
0000
0010
0000
0000
0001
0000
0000
,  // measure 34
1000
0010
0010
0100
,  // measure 35
0100
0001
1000
0100
,  // measure 36
0010
0000
0000
0001
0000
0000
0100
0010
1000
0002
0000
0000
,  // measure 37
0000
0000
0000
1003
0000
0000
0100
0000
0100
0010
0000
0000
,  // measure 38
0010
0000
0010
0001
0000
0000
0001
0000
0000
1000
0000
0000
,  // measure 39
1000
0000
0000
0001
0000
0001
0100
0000
0100
0010
0000
0010
,  // measure 40
1000
0000
1000
0100
0000
0100
0010
0000
0010
0001
0000
0001
,  // measure 41
0100
0000
0100
0010
0000
0000
0000
0000
0000
0010
0000
0000
,  // measure 42
0000
0010
0000
0010
,  // measure 43
0000
0010
0000
0010
,  // measure 44
0000
0010
0000
0010
,  // measure 45
0000
0110
0100
0010
,  // measure 46
1000
0010
0001
0010
,  // measure 47
1000
0010
0010
0100
,  // measure 48
0100
0000
0000
0001
0000
0001
0100
0000
0100
0010
0000
0000
,  // measure 49
1000
0100
0011
0101
,  // measure 50
0001
0101
0100
0110
,  // measure 51
0010
1010
1000
1100
,  // measure 52
0100
0110
0010
0011
,  // measure 53
0001
1001
1000
1010
,  // measure 54
0010
0110
0100
0101
,  // measure 55
0001
1001
0010
1001
,  // measure 56
0100
2002
0000
0000
,  // measure 57
3003
0001
1000
1100
,  // measure 58
1000
0001
0101
0001
,  // measure 59
1000
1100
0011
1100
,  // measure 60
0011
1001
1000
1010
,  // measure 61
1000
0001
0011
0001
,  // measure 62
1000
1010
0101
1010
,  // measure 63
1001
0001
1000
1010
,  // measure 64
1000
0001
0101
0001
,  // measure 65
1000
0000
0000
1010
0000
0000
1000
0100
0010
0002
0000
0000
,  // measure 66
0013
0001
0010
0110
,  // measure 67
0100
1000
1010
0010
,  // measure 68
0100
0101
1001
1010
,  // measure 69
1000
0010
0100
0002
0000
0000
0000
0000
0000
0000
0000
0000
,  // measure 70
0000
0003
0000
0000
;

//---------------dance-single - Pandemonium X---------------
#NOTES:
     dance-single:
     Pandemonium X:
     Hard:
     13:
     0,0,0,0,0:
// measure 0
0000
0000
0000
0000
,  // measure 1
0000
0000
0000
0000
,  // measure 2
0000
0000
0000
0000
,  // measure 3
0000
0000
0000
0000
,  // measure 4
0000
0000
0000
0000
,  // measure 5
0001
0001
0100
0100
,  // measure 6
0010
0010
1000
1000
,  // measure 7
0001
0000
1000
0001
0000
0001
1000
0000
1000
0100
0000
0100
,  // measure 8
0010
0000
0000
0000
0001
0000
0000
0000
0010
0000
0000
0000
0100
0000
0000
0000
1000
0000
0000
0000
0100
0000
0000
0000
0010
0000
0000
0100
0000
0000
0010
0000
0000
0100
0000
0000
0010
0000
0000
0001
0000
0000
1000
0000
0000
0010
0000
0000
,  // measure 9
0100
0001
1000
0010
,  // measure 10
1000
0000
1000
0100
0000
0000
0010
0000
0000
0100
0000
0000
,  // measure 11
1000
0000
1000
0001
0000
0000
0001
0000
0001
0010
0000
0010
,  // measure 12
0100
0010
0001
1000
0000
0000
1000
0000
1000
0001
0000
0000
,  // measure 13
0001
0000
0001
0100
0000
0000
0100
0000
0000
0100
0000
0100
,  // measure 14
0010
0000
0010
1000
0000
0000
1000
0000
0000
0100
0000
0000
,  // measure 15
0010
0000
0010
0001
0000
0000
0001
0000
0000
1000
0000
0001
,  // measure 16
1000
0000
1000
0010
0000
0000
0110
0000
0000
1001
0000
0000
,  // measure 17
0001
0100
0010
1000
0000
0000
1000
0000
0000
0001
0000
0000
,  // measure 18
0010
0000
0010
0100
0000
0000
1000
0000
0000
0001
0000
0000
,  // measure 19
0100
0000
0100
0010
0000
0000
0010
0000
0010
0100
0000
0100
,  // measure 20
0001
1000
0100
1000
0000
0000
1000
0000
1000
0001
0000
0000
,  // measure 21
0010
0000
0010
0100
0000
0000
0100
0000
0000
0100
0000
0100
,  // measure 22
0010
0000
0010
0001
0000
0000
0001
0000
0000
1000
0000
0000
,  // measure 23
0010
0000
0010
0100
0000
0000
0100
0000
0100
0010
0000
1000
,  // measure 24
0001
0000
0010
0200
0000
0000
0000
0000
0000
0000
0000
0000
,  // measure 25
0300
0000
0000
1000
0000
1000
0100
0000
0100
0010
0000
0010
,  // measure 26
0001
0000
0001
1000
0000
0000
0001
0000
0000
0100
0000
0000
,  // measure 27
0001
1000
1000
0001
,  // measure 28
1000
0000
0000
0010
0000
0000
1000
0001
0010
0002
0000
0000
,  // measure 29
0000
0000
0000
0013
0000
0000
0100
0000
0100
1000
0000
0000
,  // measure 30
1000
0000
1000
0001
0000
0000
0001
0000
0000
0001
0000
0000
,  // measure 31
1000
0000
1000
0100
0000
0000
0100
0000
0100
0010
0000
0010
,  // measure 32
0001
0000
0001
0100
0000
0000
0110
0000
0000
1001
0000
0002
,  // measure 33
0103
0000
0020
1030
0000
1000
0001
0000
0001
0010
0000
0010
,  // measure 34
0100
0000
0100
0010
0000
0000
0001
0000
0000
0010
0000
0000
,  // measure 35
0001
1010
0010
0100
,  // measure 36
0001
0000
0000
1001
0000
0000
0100
0010
1000
0002
0000
0000
,  // measure 37
1003
0000
1000
0001
0000
0000
0010
0000
0010
0100
0000
0000
,  // measure 38
0100
0000
0100
1000
0000
0000
1000
0000
0000
0001
0000
0000
,  // measure 39
0001
0000
0000
1000
0000
0020
0130
0000
0002
0013
0000
0200
,  // measure 40
1300
0000
0000
0000
0000
0000
0000
0000
0200
0000
0000
0000
0310
0000
0000
0000
0001
0000
0000
0000
0100
0000
0000
0000
0010
0000
0000
0000
1000
0000
0000
0000
0001
0000
0000
0000
0010
0000
0000
0100
0000
0000
0010
0000
0000
0100
0000
0000
,  // measure 41
1000
0001
1000
0001
2000
0000
0000
0000
0000
0000
0000
0000
0001
0000
0000
0000
,  // measure 42
0000
0001
0000
0001
,  // measure 43
0000
3001
0000
0001
,  // measure 44
0000
0001
0000
0001
,  // measure 45
0000
0001
1000
0001
,  // measure 46
0010
0000
0010
0001
0000
0000
1000
0000
1000
0001
0000
0000
,  // measure 47
1000
0000
0000
0001
1000
0001
0010
0100
0010
0100
1000
0100
,  // measure 48
1000
0001
1000
0020
0032
0023
1030
0000
0200
0301
0100
0020
,  // measure 49
0031
2000
3010
0100
0000
0000
0101
0000
0100
0001
0000
0000
,  // measure 50
1000
0000
0001
1000
0000
0000
0100
0000
0010
0001
0000
0000
,  // measure 51
0010
0000
0100
1000
0000
0000
0001
0000
0100
0001
0000
0000
,  // measure 52
1000
0000
0001
0010
0000
0000
0100
0000
0100
0010
0000
0010
,  // measure 53
0001
0000
0001
1000
0000
0000
0010
0000
0100
0001
0000
0000
,  // measure 54
1000
0000
0100
0010
0000
0000
0100
0000
0010
0001
0000
0000
,  // measure 55
1000
0000
0000
0010
0000
0100
0001
0000
0001
1000
0001
1000
,  // measure 56
0001
0000
0000
0000
1000
0000
0000
0000
0001
0000
0000
0000
0100
0000
0000
0010
0000
0000
0100
0000
0000
0010
0000
0000
0100
0000
0000
0010
0000
0000
0100
0000
0000
0010
0000
0000
0100
0000
0000
0010
0000
0000
0100
0000
0000
0010
0000
0000
,  // measure 57
0100
0000
0000
0010
0000
0000
0100
0000
0000
0010
0000
0000
1000
0000
0000
0000
0000
0000
0000
0000
0000
0000
0000
0000
0001
0000
0000
0000
0000
0000
0000
0000
0000
0000
0000
0000
0011
0000
0000
0000
0000
0000
0000
0000
0010
0000
0000
0000
,  // measure 58
0001
0000
0000
1000
0000
0000
1010
0000
0010
1000
0000
0000
,  // measure 59
0010
0000
0000
1000
0100
0010
0001
0000
0000
1010
0000
0000
,  // measure 60
0101
0000
0000
1000
0000
0000
0001
0000
0000
0101
0000
0100
,  // measure 61
0001
0000
0000
1000
0000
0000
1100
0000
0100
1000
0000
0000
,  // measure 62
0100
0000
0000
0110
0000
0010
0100
0000
0100
0010
0000
0010
,  // measure 63
0100
0010
0001
1000
0000
0000
0010
0000
0000
1010
0000
1000
,  // measure 64
0010
0000
0000
0100
0000
0000
0110
0000
0010
0100
0000
0000
,  // measure 65
0100
0000
0000
0010
0100
0001
1000
0001
1000
0200
0000
0000
,  // measure 66
0310
0000
0010
0001
0000
0000
1000
0000
0000
1001
0000
0001
,  // measure 67
1000
0000
0000
0100
0000
0000
1100
0000
0100
0010
0001
1000
,  // measure 68
0010
0100
0010
1000
0001
1000
0010
0000
0000
0010
0000
0000
,  // measure 69
0010
0001
0010
2000
0000
0000
0000
0000
0000
0000
0000
0000
,  // measure 70
0000
3000
0000
0000
;

//---------------dance-single - ---------------
#NOTES:
     dance-single:
     :
     Challenge:
     14:
     0,0,0,0,0:
// measure 0
0000
0000
0000
0000
,  // measure 1
0000
0000
0000
0000
,  // measure 2
0000
0000
0000
0000
,  // measure 3
0000
0000
0000
0000
,  // measure 4
0000
0000
0000
0000
,  // measure 5
1100
0100
0010
0010
,  // measure 6
0001
0001
0100
0100
,  // measure 7
0010
0000
0010
0100
0000
0100
0001
0000
0001
1000
0000
1000
,  // measure 8
0100
0000
0000
0000
0010
0000
0000
0000
1000
0000
0000
0000
0010
0000
0000
0000
0001
0000
0000
0000
0100
0000
0000
0000
0010
0000
0000
0100
0000
0000
0001
0000
0000
1000
0000
0000
0100
0000
0000
0010
0000
0000
0001
0000
0000
1000
0000
0000
,  // measure 9
0010
0101
0101
1001
,  // measure 10
1100
0000
0100
1000
0000
0000
1010
0000
0000
1001
0000
0000
,  // measure 11
0011
0000
0010
0100
0000
0000
1100
0000
0100
0010
0000
0010
,  // measure 12
1000
0010
0001
1000
0000
0000
0010
0000
0010
0100
0000
0000
,  // measure 13
0100
0000
0100
0101
0000
0000
0001
0000
0000
0001
0000
0001
,  // measure 14
1000
0000
1000
1100
0000
0000
0110
0000
0000
1100
0000
0000
,  // measure 15
1001
0000
0000
0000
0010
0000
0100
0000
0000
0000
0000
0000
1001
0000
0000
0000
0001
0000
0020
0030
0000
0000
0020
0030
,  // measure 16
1000
0000
1000
1100
0000
0000
0101
0000
0000
1100
0000
0000
,  // measure 17
0001
0100
0010
1010
0000
0000
1010
0000
0000
1001
0000
0000
,  // measure 18
1100
0000
0100
1000
0000
0000
1100
0000
0000
1001
0000
0000
,  // measure 19
0101
0000
0001
0100
0000
0000
0110
0000
0100
0001
0000
0001
,  // measure 20
0100
1000
0100
0001
0000
0000
1001
0000
0001
0100
0000
0000
,  // measure 21
1001
0000
1000
1100
0000
0000
0101
0000
0000
1100
0000
1000
,  // measure 22
0020
0030
0000
0000
0020
0030
0001
0000
0000
0000
0000
0000
0011
0000
0000
0000
0000
0000
1100
0000
0000
0000
0000
0000
,  // measure 23
1001
0000
0000
0000
0001
0000
0100
0000
0000
0000
0000
0000
1010
0000
0000
0000
1000
0000
0200
0300
0000
0000
0200
0300
,  // measure 24
0001
0000
0001
2002
0000
0000
0000
0000
0000
0000
0000
0000
,  // measure 25
3003
0000
0000
0000
0000
0000
1001
0000
0000
0000
1000
0000
0020
0030
0000
0000
0020
0030
0001
0000
0000
0000
0001
0000
,  // measure 26
0020
0030
0000
0000
0020
0030
1000
0000
0000
0000
0000
0000
1001
0000
0000
0000
0000
0000
1010
0000
0000
0000
0000
0000
,  // measure 27
1001
0201
1300
1200
,  // measure 28
0301
0000
0000
0011
0000
0000
0010
1000
0010
0002
0000
0000
,  // measure 29
0000
0000
1003
1001
0000
0000
0101
0000
0100
1000
0000
0000
,  // measure 30
1100
0000
0100
0001
0000
0000
0011
0000
0000
1010
0000
0000
,  // measure 31
0011
0000
0001
0100
0000
0000
1010
0000
1000
0001
0000
0001
,  // measure 32
0100
0000
0010
0110
0000
0000
0101
0000
0000
1001
0000
0400
,  // measure 33
0310
0000
0000
0000
0004
0000
1003
0000
0000
0000
1000
0000
0200
0300
0000
0000
0200
0300
0001
0000
0000
0000
0001
0000
,  // measure 34
0200
0300
0000
0000
0200
0300
1000
0000
0000
0000
0000
0000
0011
0000
0000
0000
0000
0000
0101
0000
0000
0000
0000
0000
,  // measure 35
1001
1020
0031
0021
,  // measure 36
1030
0000
0000
1100
0000
0000
0100
0001
0100
2000
0000
0001
,  // measure 37
0001
0000
3001
0201
0000
0000
0010
0000
0001
0301
0000
0000
,  // measure 38
0021
0000
0100
0130
0000
0000
0110
0000
0000
1100
0000
0000
,  // measure 39
1001
0000
0000
0001
0100
4000
3100
0001
0040
1030
0010
0004
,  // measure 40
1003
0000
0000
0000
0010
0000
0000
0000
0004
0000
0000
0000
0013
0000
0000
0000
0100
0000
0000
0000
0001
0000
0000
0000
1000
0000
0000
0000
0100
0000
0000
0000
0010
0000
0000
0000
0001
0000
0000
1000
0000
0000
0001
0000
0000
0100
0000
0000
,  // measure 41
0010
1000
0001
1000
0200
0000
0000
0000
0000
0000
0000
0000
0000
0000
0000
0000
,  // measure 42
0000
0000
0000
0000
,  // measure 43
0300
0100
0000
0100
,  // measure 44
0000
0100
0000
0100
,  // measure 45
0000
1100
0100
0110
,  // measure 46
0100
0000
0001
0101
0000
0000
0100
0000
0010
0110
0000
0000
,  // measure 47
0100
0000
1000
0100
0100
1000
0001
0001
0100
0010
0010
1000
,  // measure 48
0001
0001
1000
0100
0010
0001
1000
0000
0010
1000
0100
0001
,  // measure 49
0100
0010
0001
1000
0000
0000
0101
0000
1000
0010
0000
0010
,  // measure 50
0100
0000
0100
0001
0000
0001
1000
0000
1000
0100
0000
0100
,  // measure 51
0010
0000
0010
0001
0000
0001
0010
0000
0010
0100
0000
0100
,  // measure 52
1000
0000
1000
0001
0000
0001
0100
0000
0100
0010
0000
0010
,  // measure 53
1000
0000
1000
0001
0000
1000
0001
0000
0001
1000
0000
1000
,  // measure 54
0100
0010
0100
1000
0000
1000
0001
0000
1000
0001
0000
1000
,  // measure 55
0001
0010
0100
0110
0000
0010
0001
1000
0100
0010
0001
1000
,  // measure 56
0001
0000
0000
0000
0100
0000
0000
0000
0001
0000
0000
0000
1000
0000
0000
0100
0000
0000
1000
0000
0000
0100
0000
0000
0010
0000
0000
0100
0000
0000
0010
0000
0000
0001
0000
0000
0100
0000
0000
0001
0000
0000
0100
0000
0000
0010
0000
0000
,  // measure 57
0100
0000
0000
0010
0000
0000
1000
0000
0000
0001
0000
0000
1000
0000
0000
0000
0000
0000
0000
0000
0000
0000
0000
0000
0100
0000
0000
0000
0000
0000
0000
0000
0000
0000
0000
0000
0110
0000
0000
0000
0000
0000
0000
0000
0100
0000
0000
0000
,  // measure 58
0010
0000
0000
0001
0000
0000
0101
0000
0001
0100
0000
0000
,  // measure 59
0010
0000
0000
1010
1000
0100
0110
0000
0000
0110
0000
0000
,  // measure 60
1001
0000
1000
0001
0000
0000
1000
0000
0000
1100
0000
0100
,  // measure 61
1000
0000
0000
0010
0000
0000
0110
0000
0010
0100
0000
0000
,  // measure 62
0001
0000
0000
0101
0000
0001
1001
0000
1000
1001
0000
0001
,  // measure 63
1001
1000
0100
0010
0000
0000
0011
0000
0000
1001
0000
0001
,  // measure 64
0100
0000
0000
0010
0000
0000
1010
0000
1000
0001
0000
0000
,  // measure 65
0010
0000
0000
0100
0010
0001
0100
1000
0100
0004
0000
0000
,  // measure 66
1003
0000
1000
0100
0000
0000
0010
0000
0000
0011
0000
0010
,  // measure 67
0100
0000
0000
1000
0000
0000
1001
0000
1000
0010
0010
0100
,  // measure 68
0001
0000
0000
0000
0001
0000
0000
0000
0010
0000
0000
0000
0100
0000
0000
0000
0100
0000
0000
0000
1000
0000
0000
0000
0001
0000
0000
0100
0000
0000
0010
0000
0000
1000
0000
0000
0001
0000
0000
0100
0000
0000
0010
0000
0000
1000
0000
0000
,  // measure 69
0001
0010
1000
0020
0000
0000
0000
0000
0000
0000
0000
0000
,  // measure 70
0000
0030
0000
0000
;

//---------------dance-double - Pandemonium X---------------
#NOTES:
     dance-double:
     Pandemonium X:
     Easy:
     8:
     0,0,0,0,0:
// measure 0
00000000
00000000
00000000
00000000
,  // measure 1
00000000
00000000
00000000
00000000
,  // measure 2
00000000
00000000
00000000
00000000
,  // measure 3
00000000
00000000
00000000
00000000
,  // measure 4
00000000
00000000
00000000
00000000
,  // measure 5
00010000
10000000
00010000
10000000
,  // measure 6
00100000
01000000
00100000
01000000
,  // measure 7
00100000
00100000
01000000
01000000
,  // measure 8
00010000
01000000
00100000
10000000
,  // measure 9
10010000
00010000
00100000
00010000
,  // measure 10
01000000
00001000
00001000
00010000
,  // measure 11
00000100
00001000
00001000
00000010
,  // measure 12
00000100
00000001
00000001
00000001
,  // measure 13
00001000
00000001
00000001
00000010
,  // measure 14
00000100
00000010
00000010
00000100
,  // measure 15
00001000
00000100
00000100
00010000
,  // measure 16
00001000
00011000
00011000
00011000
,  // measure 17
00000000
00010000
00000100
00001000
,  // measure 18
00000100
00001000
00000010
00000010
,  // measure 19
00000100
00000001
00000001
00001000
,  // measure 20
00000100
00010000
00010000
00001000
,  // measure 21
01000000
00010000
00010000
10000000
,  // measure 22
01000000
00100000
00100000
01000000
,  // measure 23
10000000
00010000
00010000
00100000
,  // measure 24
00001000
00020000
00000000
00000000
,  // measure 25
00030000
00000100
00001000
00000100
,  // measure 26
00010000
00001000
01000000
00010000
,  // measure 27
00100000
00010000
01000000
00100000
,  // measure 28
10000000
10010000
01100000
10010000
,  // measure 29
00000000
00010000
00100000
00001000
,  // measure 30
00100000
00010000
01000000
00001000
,  // measure 31
00010000
00000100
00001000
00000010
,  // measure 32
00000100
00000001
00000001
00000101
,  // measure 33
00001010
00001001
00000001
00000001
,  // measure 34
00001000
00000001
00000100
00000010
,  // measure 35
00001000
00000100
00000100
00010000
,  // measure 36
00010000
00001000
01000000
00020000
,  // measure 37
00000000
00130000
01000000
10000000
,  // measure 38
01000000
00100000
00100000
00001000
,  // measure 39
00001000
00011000
00011000
00010100
,  // measure 40
00010100
00001100
00001000
00001010
,  // measure 41
00000010
00002002
00000000
00000000
,  // measure 42
00000000
00000000
00000000
00000000
,  // measure 43
00000000
00003003
00000000
00000000
,  // measure 44
00000000
00000000
00000000
00000000
,  // measure 45
00000000
00000001
00000000
00000001
,  // measure 46
00000000
00001000
00000000
00001000
,  // measure 47
00000000
00000100
00000000
00010000
,  // measure 48
00000000
00001000
00000000
01000000
,  // measure 49
00000000
00000000
10010000
00010000
,  // measure 50
00010000
10000000
10000000
00100000
,  // measure 51
00100000
01000000
01000000
00010000
,  // measure 52
00010000
00100000
00100000
00001000
,  // measure 53
00010000
00001000
00001000
00010000
,  // measure 54
00010000
00000100
00000100
00001000
,  // measure 55
00001000
00000010
00000010
00000100
,  // measure 56
00000100
00000002
00000000
00000000
,  // measure 57
00000000
00001003
00001000
00001100
,  // measure 58
00000100
00000100
00010100
00010000
,  // measure 59
00010000
00011000
01001000
01001000
,  // measure 60
01001000
00001000
01000000
01100000
,  // measure 61
00100000
10000000
11000000
01000000
,  // measure 62
00100000
00110000
10010000
10010000
,  // measure 63
10010000
10000000
00010000
00110000
,  // measure 64
00100000
00001000
00011000
00010000
,  // measure 65
00000100
00001100
00001001
00001001
,  // measure 66
00001001
00000001
00000100
00000110
,  // measure 67
00000010
00001000
00001100
00000100
,  // measure 68
00010000
00010100
00011000
00011000
,  // measure 69
00011000
00022000
00000000
00000000
,  // measure 70
00000000
00033000
00000000
00000000
;

//---------------dance-double - Pandemonium X---------------
#NOTES:
     dance-double:
     Pandemonium X:
     Medium:
     11:
     0,0,0,0,0:
// measure 0
00000000
00000000
00000000
00000000
,  // measure 1
00000000
00000000
00000000
00000000
,  // measure 2
00000000
00000000
00000000
00000000
,  // measure 3
00000000
00000000
00000000
00000000
,  // measure 4
00000000
00000000
00000000
00000000
,  // measure 5
00010000
00010000
01000000
01000000
,  // measure 6
00010000
00010000
00100000
00100000
,  // measure 7
00001000
00001000
00010000
00010000
,  // measure 8
00001000
00000000
00001000
00010000
00000000
00010000
00000200
00000000
00000000
00002300
00000000
00000000
,  // measure 9
00003010
00001000
00000001
00000010
,  // measure 10
00000001
00000000
00000001
00000100
00000000
00000000
00000010
00000000
00000000
00001000
00000000
00000000
,  // measure 11
00000100
00000000
00000100
00010000
00000000
00000000
00001000
00000000
00001000
00010000
00000000
00000000
,  // measure 12
00010000
00000000
00010000
00001000
00000000
00000000
00100000
00000000
00100000
00010000
00000000
00000000
,  // measure 13
10000000
00000000
10000000
00010000
00000000
00000000
00010000
00000000
00000000
10000000
00000000
00000000
,  // measure 14
01000000
00100000
00100000
01000000
,  // measure 15
10000000
00000000
10000000
00100000
00000000
00000000
00100000
00000000
00000000
01000000
00000000
01000000
,  // measure 16
00100000
01100000
10100000
10010000
,  // measure 17
10000000
01000000
00100000
00010000
00000000
00000000
01000000
00000000
00000000
00010000
00000000
00000000
,  // measure 18
00100000
00000000
00100000
01000000
00000000
00000000
00100000
00000000
00000000
00001000
00000000
00000000
,  // measure 19
00010000
00000000
00010000
00001000
00000000
00000000
00010000
00000000
00010000
00000100
00000000
00000000
,  // measure 20
00000100
00000000
00000100
00001000
00000000
00000000
00000001
00000000
00000000
00000100
00000000
00000000
,  // measure 21
00000001
00000000
00000000
00000010
00000000
00000000
00000010
00000000
00000000
00000010
00000000
00000010
,  // measure 22
00000100
00000000
00000100
00001000
00000000
00000000
00000001
00000000
00000000
00000100
00000000
00000000
,  // measure 23
00000001
00000000
00000000
00001100
00000000
00000000
00000100
00000000
00000000
00010000
00000000
00001000
,  // measure 24
00010000
00000000
00010000
00002000
00000000
00000000
00000000
00000000
00000000
00000000
00000000
00000000
,  // measure 25
00003000
00010000
00001000
01000000
,  // measure 26
00010000
00110000
11000000
00110000
,  // measure 27
10010000
00010000
00010000
10000000
,  // measure 28
10000000
00000000
00000000
10100000
00000000
00000000
00100000
01000000
00010000
20000000
00000000
00000000
,  // measure 29
00000000
30010000
00100000
01100000
,  // measure 30
01000000
01100000
00110000
01010000
,  // measure 31
01001000
00011000
00011000
00010100
,  // measure 32
00010100
00000000
00000000
00001100
00000000
00000000
00000011
00000000
00000000
00001100
00000000
00000001
,  // measure 33
00000100
00000000
00000010
00001000
00000000
00000000
00000001
00000000
00000000
00000100
00000000
00000000
,  // measure 34
00000010
00001100
00000011
00000101
,  // measure 35
00001010
00001001
00001001
00000110
,  // measure 36
00000110
00000000
00000000
00000101
00000000
00000000
00000001
00000100
00000010
00002000
00000000
00000000
,  // measure 37
00000000
00000000
00000000
00003100
00000000
00000000
00000100
00000000
00000100
00010000
00000000
00000000
,  // measure 38
00010000
00000000
00010000
00001000
00000000
00000000
00001000
00000000
00000000
01000000
00000000
00000000
,  // measure 39
01000000
01010000
10100000
11000000
,  // measure 40
00110000
00101000
00011000
00001100
,  // measure 41
00000110
00001002
00000000
00001000
,  // measure 42
00000000
00001000
00000000
00001000
,  // measure 43
00000000
00001003
00000000
00001000
,  // measure 44
00000000
00001000
00000000
00001000
,  // measure 45
00000000
00001000
00000001
00000100
,  // measure 46
00000001
00001000
00000010
00001000
,  // measure 47
00000100
00010000
00001000
01000000
,  // measure 48
00010000
00000000
00000000
10000000
01000000
00100000
01000000
00000000
01000000
00100000
00000000
00000000
,  // measure 49
00001000
00000000
00000000
00000000
00000000
00000000
00001001
00000000
00000001
00000100
00000000
00000000
,  // measure 50
00000001
00000000
00001000
00000100
00000000
00000000
00000010
00000000
00000001
00000010
00000000
00000000
,  // measure 51
00000001
00000000
00000100
00000010
00000000
00000000
00001000
00000000
00000100
00001000
00000000
00000000
,  // measure 52
00000100
00000000
00010000
00001000
00000000
00000000
01000000
00000000
00010000
00100000
00000000
00100000
,  // measure 53
01000000
00000000
01000000
10000000
00000000
00000000
10000000
00000000
00000000
10000000
00000000
00000000
,  // measure 54
00100000
01000000
01000000
01000000
,  // measure 55
00010000
00110000
00110000
00101000
,  // measure 56
00101000
00022000
00000000
00000000
,  // measure 57
00033000
00010000
00000100
00001100
,  // measure 58
00001000
00000010
00000110
00000100
,  // measure 59
00000001
00000011
00001001
00000110
,  // measure 60
00001001
00001000
00000001
00000101
,  // measure 61
00000001
00000100
00000110
00001000
,  // measure 62
00000100
00001100
00011000
00001100
,  // measure 63
00011000
00001000
01000000
01010000
,  // measure 64
00010000
01000000
10100000
00100000
,  // measure 65
01000000
00000000
00000000
10010000
00000000
00000000
10000000
01000000
00100000
00020000
00000000
00000000
,  // measure 66
00100000
10030000
01000000
01100000
,  // measure 67
00100000
00001000
00011000
00010000
,  // measure 68
00000100
00001100
00001010
00000101
,  // measure 69
00000001
00000100
00000010
00002000
00000000
00000000
00000000
00000000
00000000
00000000
00000000
00000000
,  // measure 70
00000000
00003000
00000000
00000000
;

//---------------dance-double - Pandemonium X---------------
#NOTES:
     dance-double:
     Pandemonium X:
     Hard:
     14:
     0,0,0,0,0:
// measure 0
00000000
00000000
00000000
00000000
,  // measure 1
00000000
00000000
00000000
00000000
,  // measure 2
00000000
00000000
00000000
00000000
,  // measure 3
00000000
00000000
00000000
00000000
,  // measure 4
00000000
00000000
00000000
00000000
,  // measure 5
10000000
10000000
00010000
00010000
,  // measure 6
00100000
00100000
00001000
00001000
,  // measure 7
00010000
00000000
00001000
00010000
00000000
00010000
00000100
00000000
00000100
00001000
00000000
00001000
,  // measure 8
00000010
00000000
00000000
00000000
00000100
00000000
00000000
00000000
00000010
00000000
00000000
00000000
00001000
00000000
00000000
00000000
00000001
00000000
00000000
00000000
00000100
00000000
00000000
00000000
00000010
00000000
00000000
00001000
00000000
00000000
00000010
00000000
00000000
00001000
00000000
00000000
00000001
00000000
00000000
00000100
00000000
00000000
00000010
00000000
00000000
00001000
00000000
00000000
,  // measure 9
00000001
00001001
00001000
00000100
,  // measure 10
00000100
00000000
00000100
00010000
00000000
00000000
00001000
00000000
00000000
00100000
00000000
00000000
,  // measure 11
00010000
00000000
00010000
01000000
00000000
00000000
01000000
00000000
01000000
00100000
00000000
00100000
,  // measure 12
00010000
00100000
10000000
00010000
00000000
00000000
00010000
00000000
00010000
10000000
00000000
00000000
,  // measure 13
10000000
00000000
10000000
01000000
00000000
00000000
01000000
00000000
00000000
01000000
00000000
00100000
,  // measure 14
00010000
00000000
00010000
01000000
00000000
00000000
01000000
00000000
01000000
00001000
00000000
00000000
,  // measure 15
00001000
00000000
00001000
00010000
00000000
00000000
00010000
00000000
00000000
00010000
00000000
00010000
,  // measure 16
00000100
00000000
00000100
00001000
00000000
00000000
00000011
00000000
00000000
00000101
00000000
00000000
,  // measure 17
00000001
00000100
00000010
00001000
00000000
00000000
00001000
00000000
00000000
00000001
00000000
00000000
,  // measure 18
00000010
00000000
00000010
00000100
00000000
00000000
00000010
00000000
00000000
00000001
00000000
00000000
,  // measure 19
00001000
00000000
00001000
00000010
00000000
00000000
00000010
00000000
00000010
00000100
00000000
00000100
,  // measure 20
00000010
00001000
00000100
00010000
00000000
00000000
00010000
00000000
00010000
00001000
00000000
00000000
,  // measure 21
00001000
00000000
00001000
01000000
00000000
00000000
01000000
00000000
00000000
01000000
00000000
01000000
,  // measure 22
00100000
00000000
10000000
00010000
00000000
00000000
00010000
00000000
00000000
10000000
00000000
00000000
,  // measure 23
01000000
00000000
01000000
10000000
00000000
00000000
10000000
00000000
10000000
00100000
00000000
00100000
,  // measure 24
01000000
00000000
00001000
00020000
00000000
00000000
00000000
00000000
00000000
00000000
00000000
00000000
,  // measure 25
00030000
00000000
00000000
00001000
00000000
00001000
00010000
00000000
00010000
00000100
00000000
00000100
,  // measure 26
00010000
00000000
00010000
00001000
00000000
00000000
01000000
00000000
00000000
00010000
00000000
00000000
,  // measure 27
00100000
01100000
00110000
01100000
,  // measure 28
11000000
00000000
00000000
00110000
00000000
00000000
00010000
01000000
00010000
00200000
00000000
00000000
,  // measure 29
00000000
00000000
00000000
01300000
00000000
00000000
01000000
00000000
01000000
10000000
00000000
00000000
,  // measure 30
10000000
00000000
10000000
00100000
00000000
00000000
00100000
00000000
00000000
01000000
00000000
00000000
,  // measure 31
01000000
00000000
00000000
00010000
00000000
00000000
00010000
00000000
00010000
00100000
00000000
00000000
,  // measure 32
00010000
00000000
10000000
01000000
00000000
00000000
11000000
00000000
00000000
00110000
00000000
00200000
,  // measure 33
00301000
00000000
00002000
00013000
00000000
00010000
00000100
00000000
00000100
00001000
00000000
00001000
,  // measure 34
00000010
00000000
00000010
00000100
00000000
00000000
00000010
00000000
00000000
00000100
00000000
00000000
,  // measure 35
00000001
00000101
00001001
00001010
,  // measure 36
00001100
00000000
00000000
00001001
00000000
00000000
00000001
00000100
00000001
00000010
00000000
00000010
,  // measure 37
00000001
00000000
00001000
00000001
00000000
00000000
00000100
00000000
00000100
00000010
00000000
00000000
,  // measure 38
00000010
00000000
00000010
00010000
00000000
00000000
00011000
00000000
00000000
00001000
00000000
00000000
,  // measure 39
00011000
00000000
00000000
00010000
00001000
02000000
03001000
00010000
00000200
00010300
00001000
02000000
,  // measure 40
03010000
00000000
00000000
00000000
01000000
00000000
00000000
00000000
00002000
00000000
00000000
00000000
00013000
00000000
00000000
00000000
00000100
00000000
00000000
00000000
00010000
00000000
00000000
00000000
00000100
00000000
00000000
00000000
00001000
00000000
00000000
00000000
00000100
00000000
00000000
00000000
00001000
00000000
00000000
00000001
00000000
00000000
00001000
00000000
00000000
00000001
00000000
00000000
,  // measure 41
00001000
00000001
00001000
00000001
00000200
00000000
00000000
00000000
00000000
00000000
00000000
00000000
00000000
00000000
00000000
00000000
,  // measure 42
00000000
00000000
00000000
00000000
,  // measure 43
00000300
00000010
00000000
00000010
,  // measure 44
00000000
00000010
00000000
00000010
,  // measure 45
00000000
00000110
00000100
00000110
,  // measure 46
00000010
00000000
00001000
00000001
00000000
00000000
00001000
00000000
00000001
00001000
00000000
00000000
,  // measure 47
00000010
00000000
00001000
00000010
00000100
00000001
00001000
00000010
00000100
00000001
00001000
00000010
,  // measure 48
00000100
00000001
00001000
00000010
00010000
00001000
00010000
00000000
00010000
00001000
01000000
00010000
,  // measure 49
00100000
10000000
00100000
00010000
00000000
00000000
11000000
00000000
10000000
01000000
00000000
01000000
,  // measure 50
00100000
00000000
00100000
00010000
00000000
00010000
01000000
00000000
01000000
00001000
00000000
00001000
,  // measure 51
00010000
00000000
00010000
00000100
00000000
00000100
00001000
00000000
00001000
00000010
00000000
00000010
,  // measure 52
00000100
00000000
00000100
00000001
00000000
00000001
00001000
00000000
00001000
00000100
00000000
00000010
,  // measure 53
00000001
00000000
00001000
00000100
00000000
00000100
00001000
00000000
00001000
00000001
00000000
00000001
,  // measure 54
00000100
00000001
00001000
00000100
00000000
00000100
00010000
00000000
00010000
00001000
00000000
00001000
,  // measure 55
01000000
00010000
10000000
01000000
00000000
00100000
01000000
00000000
01000000
00100000
00010000
01000000
,  // measure 56
00001000
00000000
00000000
00000000
00010000
00000000
00000000
00000000
00000100
00000000
00000000
00000000
00010000
00000000
00000000
00001000
00000000
00000000
00010000
00000000
00000000
00001000
00000000
00000000
00010000
00000000
00000000
00001000
00000000
00000000
00010000
00000000
00000000
00001000
00000000
00000000
00010000
00000000
00000000
00001000
00000000
00000000
00010000
00000000
00000000
00001000
00000000
00000000
,  // measure 57
00010000
00000000
00000000
00001000
00000000
00000000
00010000
00000000
00000000
00001000
00000000
00000000
00010000
00000000
00000000
00000000
00000000
00000000
00000000
00000000
00000000
00000000
00000000
00000000
00001000
00000000
00000000
00000000
00000000
00000000
00000000
00000000
00000000
00000000
00000000
00000000
00101000
00000000
00000000
00000000
00000000
00000000
00000000
00000000
00001000
00000000
00000000
00000000
,  // measure 58
00100000
00000000
00000000
00100000
00000000
00000000
00110000
00000000
00100000
01000000
00000000
00000000
,  // measure 59
01000000
00000000
00000000
01000000
10000000
00010000
01000000
00000000
00000000
01010000
00000000
00000000
,  // measure 60
00110000
00000000
00100000
00001000
00000000
00000000
00010000
00000000
00000000
00010010
00000000
00001000
,  // measure 61
00000010
00000000
00000000
00001000
00000000
00000000
00001100
00000000
00000100
00010000
00000000
00000000
,  // measure 62
00001000
00000000
00000000
00011000
00000000
00010000
00000010
00000000
00000010
00001000
00000000
00000010
,  // measure 63
00000100
00000001
00001000
00000100
00000000
00000000
00000010
00000000
00000000
00001100
00000000
00001000
,  // measure 64
00000100
00000000
00000000
00010000
00000000
00000000
00110000
00000000
10000000
01000000
00000000
00000000
,  // measure 65
00100000
00000000
00000000
00100000
01000000
10000000
00010000
01000000
00100000
20000000
00000000
00000000
,  // measure 66
30010000
00000000
00010000
10000000
00000000
00000000
10000000
00000000
00000000
00110000
00000000
00100000
,  // measure 67
00001000
00000000
00000000
00001000
00000000
00000000
00101000
00000000
00100000
00010000
00001000
00000100
,  // measure 68
00000001
00000000
00000000
00000000
00000100
00000000
00000000
00000000
00001000
00000000
00000000
00000000
00010000
00000000
00000000
00000000
00100000
00000000
00000000
00000000
10000000
00000000
00000000
00000000
00010000
00000000
00000000
10000000
00000000
00000000
00010000
00000000
00000000
10000000
00000000
00000000
00010000
00000000
00000000
10000000
00000000
00000000
00010000
00000000
00000000
10000000
00000000
00000000
,  // measure 69
00010000
00100000
00002000
00020000
00000000
00000000
00000000
00000000
00000000
00000000
00000000
00000000
,  // measure 70
00000000
00033000
00000000
00000000
;
