#VERSION:0.83;
#TITLE:Stolen Memory;
#SUBTITLE:;
#ARTIST:Pierre Blanche;
#TITLETRANSLIT:;
#SUBTITLETRANSLIT:;
#ARTISTTRANSLIT:;
#GENRE:;
#CREDIT:;
#MUSIC:Stolen Memory.ogg;
#BANNER:banner.png;
#BACKGROUND:background.png;
#JACKET:jacket.png;
#DISCIMAGE:;
#CDIMAGE:;
#SELECTABLE:YES;
#LYRICSPATH:;
#CDTITLE:cdtitle.png;
#SAMPLESTART:77.719002;
#SAMPLELENGTH:20.204000;
#OFFSET:1.143;
#BPMS:0.000000=190.000000,
174.000000=185.000000,
238.000000=190.000000,
310.000000=200.000000
;
#STOPS:132.000000=0.158000,
132.500000=0.158000,
133.000000=0.158000,
133.500000=0.158000
;
#WARPS:;
#DELAYS:;
#SPEEDS:0.000000=1.000000=0.000000=0;
#SCROLLS:0.000000=1.000000;
#TICKCOUNTS:0.000000=4;
#TIMESIGNATURES:0.000000=4=4;
#LABELS:0.000000=Song Start;
#COMBOS:0.000000=1;
#FAKES:;
#BGCHANGES:0=background.png=1.000000=0=0=1=====,
3.75=Stolen Memory.mp4=1.000000=0=0=1=====,
99999=-nosongbg-=1.000000=0=0=0=====
;
#FGCHANGES:;
#ATTACKS:;
#TAGS:;
#PREVIEWVID:;
#KEYSOUNDS:;

//---------------dance-double - Pandemonium X---------------
#NOTEDATA:;
#CHARTNAME:;
#CHARTSTYLE:;
#CREDIT:Pandemonium X;
#STEPSTYPE:dance-double;
#DESCRIPTION:Pandemonium X;
#DIFFICULTY:Easy;
#METER:8;
#METERF:8;
#RADARVALUES:0.000000,0.000000,0.000000,0.000000,0.000000,0.000000,0.000000,0.000000,0.000000,0.000000,0.000000,0.000000,0.000000,0.000000,0.000000,0.000000,0.000000,0.000000,0.000000,0.000000,0.000000,0.000000,0.000000,0.000000,0.000000,0.000000,0.000000,0.000000;
#CHARTHASH:346195372;
#BANNER:;
#NOTES:
// measure 0
00000000
00000000
00000000
00000000
,  // measure 1
00000000
00000000
00000000
00000000
,  // measure 2
00000000
00000000
00000000
00000000
,  // measure 3
00000000
00000000
00000000
00000000
,  // measure 4
00000000
00000000
00000000
00000000
,  // measure 5
00000000
00000000
00000000
00000000
,  // measure 6
00000000
00000000
00000000
00000000
,  // measure 7
00000000
00000000
00000000
00000000
,  // measure 8
20000000
00000000
00000000
00000000
,  // measure 9
31000000
00000000
10000000
00000000
00000000
00100000
00000000
01000000
,  // measure 10
00000000
00000000
00000000
00000000
00000000
00100000
00000000
10000000
,  // measure 11
00020000
00000000
00000000
00030000
,  // measure 12
00100000
00000000
00000000
00010000
00000000
00000000
01000000
00000000
,  // measure 13
00001000
00000000
00010000
00000000
00000000
00000100
00000000
00001000
,  // measure 14
00000000
00000000
00000000
00000000
00000000
00000002
00000000
00000000
,  // measure 15
00000200
00000000
00000000
00000000
,  // measure 16
00000000
00000000
00000000
00000303
,  // measure 17
00000001
00000000
00000100
00000000
,  // measure 18
00000010
00000000
00001000
00000000
,  // measure 19
00000100
00000000
00010000
00000000
,  // measure 20
00001000
00000000
01000000
00000000
,  // measure 21
00010000
00000000
00100000
00000000
,  // measure 22
00001000
00000000
00010000
00000000
,  // measure 23
00000100
00001000
00000010
00000100
,  // measure 24
00000001
00000000
00001000
00000000
,  // measure 25
00000001
00000000
00000100
00000000
,  // measure 26
00000010
00000000
00002000
00000000
,  // measure 27
00003100
00010000
00001000
00000000
,  // measure 28
00010000
00001000
01000000
00000000
,  // measure 29
00010000
10000000
00010000
10000000
00010000
00000000
00000000
00000000
,  // measure 30
10000000
10000000
00010000
00000000
,  // measure 31
00100000
00000000
01000000
00000000
,  // measure 32
00100000
00010000
01000000
00000000
,  // measure 33
00200000
00000000
00000000
00300000
01000000
00000000
00000000
00000000
,  // measure 34
00100000
10000000
00010000
11000000
,  // measure 35
01000000
01000000
10000000
00000000
,  // measure 36
00100000
00000000
01000000
00000000
00010000
01000000
00010000
00000000
,  // measure 37
00100000
00010000
10000000
00010000
00100000
00000000
00000000
00000000
,  // measure 38
00001000
00010000
00000100
00010000
,  // measure 39
00001000
00000000
00001000
00000000
00010000
00000000
00000000
00000100
,  // measure 40
00001000
00000000
00000010
00000000
00000100
00000010
00000100
00000000
,  // measure 41
00000010
00000100
00000001
00001000
00000200
00000000
00000000
00000000
,  // measure 42
00000000
00000000
00000000
00000000
,  // measure 43
00000000
00000000
00010300
00000000
,  // measure 44
00000000
00000000
00001000
00000000
,  // measure 45
00000000
00000000
00010000
00000000
,  // measure 46
00000000
00000000
00000000
00000000
,  // measure 47
00000000
00000000
00000100
00000000
,  // measure 48
00000000
00000000
00001000
00000000
,  // measure 49
00000000
00000000
00000001
00000000
,  // measure 50
00000000
00000000
00000000
00000000
,  // measure 51
00000000
00000000
00000100
00000000
,  // measure 52
00000000
00000000
00000010
00000010
,  // measure 53
00000010
00000000
00001000
00001000
,  // measure 54
00001000
00000000
00000100
00000100
,  // measure 55
00000100
00000000
00010000
00000000
,  // measure 56
00000000
00000000
00001000
00001000
,  // measure 57
00001000
00000000
00000000
00000000
00100000
00000000
00000000
00100000
,  // measure 58
00000000
00010000
01000000
00200000
,  // measure 59
00000000
00000000
00300000
00000000
,  // measure 60
00000000
01000000
01100000
10010000
,  // measure 61
01100000
00000000
20000000
00000000
,  // measure 62
00000000
30000000
00020000
00000000
,  // measure 63
00000000
00000000
00000000
00130000
02000000
00000000
00000000
00000000
,  // measure 64
00000000
00000000
00000000
00000000
13000000
00000000
00000000
00100000
,  // measure 65
00000000
01000000
00002000
00000000
,  // measure 66
00000000
00003000
00020000
00000000
,  // measure 67
00000000
00000000
00000000
00030100
00002000
00000000
00000000
00000000
,  // measure 68
00000000
00000000
00003010
00000100
,  // measure 69
00000001
00000000
00001000
00000001
00000100
00000000
00000100
00000000
,  // measure 70
00000100
00000100
00000010
00000010
,  // measure 71
00000010
00000000
00000010
00000100
00000001
00000000
00000001
00000000
,  // measure 72
00000001
00000000
00000001
00000000
00001000
00000000
00000000
00000100
,  // measure 73
00000000
00000000
00010000
00000000
00001000
01000000
00001000
00000000
,  // measure 74
01000000
00000000
00010000
00100000
00010000
00000000
00100000
00000000
,  // measure 75
01000000
10000000
00010000
00000000
10000000
00000000
10100000
00000000
,  // measure 76
10000000
10010000
00020000
00000000
,  // measure 77
00000000
00000000
00130000
01000000
,  // measure 78
10000000
00000000
01000000
00100000
,  // measure 79
00002000
00000000
00013000
00000100
,  // measure 80
00001000
00000000
00000010
00000100
,  // measure 81
00000001
00000000
00000001
00000000
00001000
00000100
00001000
00000100
,  // measure 82
00001000
00000000
00000001
00000100
,  // measure 83
00000010
00000000
00000100
00000001
,  // measure 84
00001000
00000000
00000000
00000000
00000100
00000000
00000000
00000100
,  // measure 85
00000000
00000100
00001000
00000010
,  // measure 86
00001000
00000010
00010000
00001000
,  // measure 87
00010000
00001000
01000000
00001000
,  // measure 88
01000000
00001000
01000000
00010000
,  // measure 89
01000000
00100000
10000000
01000000
,  // measure 90
00100000
00010000
01000000
00001000
,  // measure 91
00010000
00000100
00001000
00001000
,  // measure 92
00000001
00000001
00000100
00000010
,  // measure 93
00000100
00000010
00001000
00000001
00000000
00000000
00000000
00000000
;

//---------------dance-double - Pandemonium X---------------
#NOTEDATA:;
#CHARTNAME:;
#CHARTSTYLE:;
#CREDIT:Pandemonium X;
#STEPSTYPE:dance-double;
#DESCRIPTION:Pandemonium X;
#DIFFICULTY:Medium;
#METER:13;
#METERF:0;
#RADARVALUES:0.539562,0.843908,0.336640,0.156004,0.123161,460.000000,419.000000,41.000000,19.000000,0.000000,0.000000,2.000000,0.000000,0.000000,0.539562,0.843908,0.336640,0.156004,0.123161,460.000000,419.000000,41.000000,19.000000,0.000000,0.000000,2.000000,0.000000,0.000000;
#CHARTHASH:3343928925;
#BANNER:;
#LASTSECONDHINT:117.054962;
#NOTES:
// measure 0
00000000
00000000
00000000
00000000
,  // measure 1
00000000
00000000
00000000
00000000
,  // measure 2
00000000
00000000
00000000
00000000
,  // measure 3
00000000
00000000
00000000
00000000
,  // measure 4
00000000
00000000
00000000
00000000
,  // measure 5
00000000
00000000
00000000
00000000
,  // measure 6
00000000
00000000
00000000
00000000
,  // measure 7
00000000
00000000
00000000
00000000
,  // measure 8
20000000
00000000
00000000
00000000
,  // measure 9
31000000
00000000
10000000
00000000
00000000
01000000
10000000
00000000
,  // measure 10
00010000
00000000
01000000
00000000
00000000
00010000
01000000
00000000
,  // measure 11
00010000
00000000
00100000
00000000
00000000
00010000
00100000
00000000
,  // measure 12
00010000
00000000
00100000
00001000
00000000
00010000
00000010
00001000
,  // measure 13
00000001
00000000
00000100
00000000
00000000
00000001
00000100
00000000
,  // measure 14
00000010
00000000
00001000
00000000
00000000
00000010
00001000
00000000
,  // measure 15
00000100
00000000
00001000
00000000
00000000
00000100
00001000
00000000
,  // measure 16
00000100
00000000
00000000
00000000
00000000
00000000
00000000
00000000
00010000
00000000
00001000
00010000
00001000
00000000
00000000
00000000
,  // measure 17
00210000
00000000
00301000
00000000
,  // measure 18
00021000
00000000
00030010
00000000
,  // measure 19
00001020
00000000
00010030
00000000
,  // measure 20
00012000
00000000
00103000
00000000
,  // measure 21
02010000
00000000
03001000
00000000
,  // measure 22
00021000
00000000
00030100
00000000
,  // measure 23
00001100
00000110
00000011
00001001
,  // measure 24
00000201
00000000
00001000
00000000
,  // measure 25
00000301
00000000
00000100
00000001
00001000
00000000
00000100
00000010
,  // measure 26
00000001
00000000
00000000
00000010
00000000
00000000
00000100
00000000
00000000
00000000
00000000
00000000
00010000
00000000
00001000
00000000
00010000
00000000
00001000
00000000
00010000
00000000
00001000
00000000
,  // measure 27
00010000
00001000
00100000
00010000
10000000
00000000
00100000
10000000
,  // measure 28
01000000
00000000
00100000
00010000
01000000
00000000
01010000
00000000
,  // measure 29
00010000
00100000
00010000
00100000
00010000
00000000
00010000
00000000
10000000
00000000
00000000
00000000
00100000
00000000
10000000
00000000
,  // measure 30
00020000
00000000
00000000
00000000
00000000
00000000
20030000
00000000
00000000
00000000
00000000
00000000
31000000
00000000
00000000
10000000
00000000
00000000
00100000
00000000
01000000
00000000
00010000
00000000
,  // measure 31
10000000
00000000
00010000
00000000
11000000
00000000
01000000
10000000
,  // measure 32
10100000
00000000
01010000
00000000
00010000
00100000
00001000
00000000
,  // measure 33
00020000
00032000
00023000
00031000
00011000
00000000
00000000
00010000
,  // measure 34
00000100
00000000
00001000
00000010
00000100
00000000
00000001
00000000
,  // measure 35
00001000
00000000
00000001
00000000
00000010
00000000
00000000
00000100
,  // measure 36
00000001
00000100
00001000
00000010
00000100
00001000
00000100
00000000
,  // measure 37
00000010
00001000
00000001
00000010
00000100
00000000
00000000
00000010
,  // measure 38
00000001
00000000
00001000
00000010
00010000
00010000
00001000
00000000
,  // measure 39
00010000
00000000
00001000
00000000
01000000
01000000
00000000
00100000
,  // measure 40
00010000
00100000
01000000
00000000
01000000
00010000
01000000
10000000
,  // measure 41
01000000
00000000
00100000
00000000
10000000
00000000
00010000
00100000
00010000
00000000
00000000
00000000
00000000
00000000
00000000
00000000
,  // measure 42
00000000
00000000
00000000
00000000
,  // measure 43
00000000
00000000
10010000
00000000
,  // measure 44
00000000
00000000
00000000
01000000
00100000
00000000
00000000
00000000
,  // measure 45
00000000
00000000
00000000
10000000
00010000
00000000
00000000
00000000
,  // measure 46
00000000
00000000
00000000
00000000
,  // measure 47
10000000
00000000
00000000
01000000
10000000
00000000
00000000
00000000
,  // measure 48
00000000
00000000
00000000
01000000
00100000
00000000
00000000
00000000
,  // measure 49
00000000
00000000
00000000
00001000
00010000
00000000
00000000
00000000
,  // measure 50
00000000
00000000
00001000
00000000
,  // measure 51
00000000
00000000
00011000
00000000
,  // measure 52
00000000
00010000
00000100
00001000
00000001
00000000
00000101
00000000
,  // measure 53
00001010
00000000
00000001
00000100
00000010
00000000
00001010
00000000
,  // measure 54
00001100
00000000
00000100
00010000
00001000
00000000
00011000
00000000
,  // measure 55
00010200
00000000
00000300
00000000
,  // measure 56
00000000
00000000
00010000
00001000
00101000
00000000
00110000
00000000
,  // measure 57
10010000
00000000
00010000
01000000
00100000
00000000
01000000
00100000
,  // measure 58
00000000
01000000
00100000
10000000
00010000
00000000
20020000
00000000
,  // measure 59
00000000
00000000
30030000
00000000
,  // measure 60
00000000
10000000
01000000
00100000
00110000
00000000
00101000
00000000
,  // measure 61
00022000
00033000
00010000
00000100
,  // measure 62
00001000
00000010
00000100
00000001
,  // measure 63
00001000
00000000
00000100
00000010
00000001
00000000
00001000
00000000
,  // measure 64
00000010
00000000
00001000
00000000
00000100
00001000
00000100
00010000
,  // measure 65
00001000
01000000
00010000
00100000
01000000
00000000
00100000
00000000
,  // measure 66
00010000
01000000
00100000
10000000
,  // measure 67
00010000
00000000
00100000
10000000
00100000
00000000
00010000
00000000
,  // measure 68
01000000
00000000
00100000
00000000
10000000
00100000
01000000
00010000
,  // measure 69
00100000
00000000
00001000
00000000
00010000
00001000
00010000
00001000
00010000
00000000
00000000
00000000
00001000
00000000
00000000
00000000
,  // measure 70
00010000
00000000
00000000
00000000
00000100
00001000
00000100
00001000
00000100
00000000
00000000
00000000
00001000
00000000
00000000
00000000
,  // measure 71
00000001
00000000
00000100
00000001
00001000
00000000
00000001
00000000
,  // measure 72
00000010
00000000
00000100
00000000
00000010
00000001
00000100
00000010
,  // measure 73
00001000
00000000
00000100
00000000
00010000
00000000
00001000
00000000
01000000
00000000
00010000
00000000
00100000
00000000
00010000
00100000
,  // measure 74
00010000
00100000
00010000
01000000
01010000
00000000
10100000
00000000
,  // measure 75
01010000
00000000
01000000
00000000
00001000
00000000
00010000
00001000
00010000
00001000
00010000
00001000
00010000
00000000
00000000
00000000
,  // measure 76
00001000
00010000
00001000
00010000
00001000
00000000
00010000
00000000
00004000
00040000
00000000
00000000
00000000
00000000
00000000
00000000
,  // measure 77
00000000
00000000
00033000
00000000
00010000
00000100
00001000
00000100
,  // measure 78
00000010
00000000
00000100
00001000
00000001
00000000
00001010
00000000
,  // measure 79
00002000
00000000
00000010
00000000
00003001
00000100
00000001
00001000
,  // measure 80
00000100
00000000
00001000
00000010
00000100
00000000
00000010
00001000
,  // measure 81
00000001
00000000
00000000
00000000
00001000
00000000
00000000
00000000
00000010
00001000
00000010
00001000
00000010
00000000
00000010
00000000
,  // measure 82
00000010
00000000
00010000
00001000
00100000
00000000
00100000
00010000
,  // measure 83
01000000
00000000
00100000
00000000
01000000
00010000
10000000
01000000
,  // measure 84
00100000
00000000
00100000
00000000
01100000
00000000
00000000
00110000
,  // measure 85
00000000
00000000
00011000
00000000
00010000
00001000
00010000
00000100
,  // measure 86
00001000
00000010
00000100
00000001
00000010
00000001
00000100
00000010
,  // measure 87
00001000
00000100
00010000
00001000
01000000
00010000
10000000
01000000
,  // measure 88
00100000
00010000
01000000
00001000
00010000
00001000
00010000
00000100
,  // measure 89
00001000
00000000
00000010
00000000
00000100
00000000
00000001
00000000
00001000
00000000
00001000
00000000
00000001
00000000
00000100
00000001
,  // measure 90
00000100
00000010
00001000
00000100
00010000
00000000
00010000
00000000
,  // measure 91
00010000
00000000
00001000
00000000
01000000
00010000
01000000
00010000
01000000
00000000
00000000
00000000
01010000
00000000
00000000
00000000
,  // measure 92
10100000
00000000
01010000
00010000
10000000
01000000
00100000
00001000
,  // measure 93
00010000
00001000
00010000
00001000
00100000
00010000
00100000
00001000
00000000
00000000
00000000
00000000
00000000
00000000
00000000
00000000
;

//---------------dance-double - Pandemonium X---------------
#NOTEDATA:;
#CHARTNAME:;
#CHARTSTYLE:;
#CREDIT:Pandemonium X;
#STEPSTYPE:dance-double;
#DESCRIPTION:Pandemonium X;
#DIFFICULTY:Hard;
#METER:17;
#METERF:0;
#RADARVALUES:0.736619,1.188348,0.213479,0.410536,0.500854,628.000000,602.000000,26.000000,50.000000,0.000000,0.000000,0.000000,0.000000,0.000000,0.736619,1.188348,0.213479,0.410536,0.500854,628.000000,602.000000,26.000000,50.000000,0.000000,0.000000,0.000000,0.000000,0.000000;
#CHARTHASH:1289747195;
#BANNER:;
#LASTSECONDHINT:116.979965;
#NOTES:
// measure 0
00000000
00000000
00000000
00000000
,  // measure 1
00000000
00000000
00000000
00000000
,  // measure 2
00000000
00000000
00000000
00000000
,  // measure 3
00000000
00000000
00000000
00000000
,  // measure 4
00000000
00000000
00000000
00000000
,  // measure 5
00000000
00000000
00000000
00000000
,  // measure 6
00000000
00000000
00000000
00000000
,  // measure 7
00000000
00000000
00000000
00000000
,  // measure 8
20000000
00000000
00000000
00000000
,  // measure 9
31000000
00000000
00100000
00000000
00000000
01000000
10000000
00000000
,  // measure 10
00100000
00000000
10000000
00000000
00000000
00100000
01000000
00000000
,  // measure 11
00010000
00000000
01000000
00000000
00000000
00010000
10000000
00000000
,  // measure 12
00010000
00000000
00000000
00000000
00100000
00000000
00001000
00000000
00000000
00000000
00010000
00001000
00010000
00000000
00000010
00000000
,  // measure 13
00001000
00000000
00000001
00000000
00000000
00000010
00000100
00000000
,  // measure 14
00001000
00000000
00000010
00000000
00000000
00000100
00000001
00000000
,  // measure 15
00000010
00000000
00000100
00000000
00000000
00001000
00000010
00000000
,  // measure 16
00000100
00000000
00000000
00000000
00000001
00000000
00000000
00000000
00001000
00000000
00000001
00001000
00000001
00000000
00001000
00000000
,  // measure 17
00000002
00000000
00000103
00000010
00002000
00000000
00003100
00000000
,  // measure 18
00000020
00000000
00000031
00001000
00000020
00000000
00010030
00000000
,  // measure 19
00001000
00000000
00010000
00001000
02000000
00000000
03010000
00000000
,  // measure 20
00100000
00000000
00001000
00100000
00020000
00000000
10030000
00000000
,  // measure 21
00200000
00000000
10300000
00010000
00200000
00000000
00310000
10000000
,  // measure 22
00200000
00000000
10300000
00010000
00200000
00000000
00310000
10000000
,  // measure 23
10100000
01010000
01001000
00011000
,  // measure 24
00020100
00000000
00001000
00001000
00032000
00000000
00010000
00010000
,  // measure 25
00013000
00000000
00000100
00010000
00010100
00000000
00010000
00001000
,  // measure 26
01000000
00000000
00010000
00000000
00100000
00000000
00000000
00000000
01000000
00100000
01000000
00100000
01000000
10000000
01000000
10000000
,  // measure 27
00010000
00000000
10000000
00100000
01000000
00000000
00100000
00000000
10000000
00000000
01000000
00000000
00100000
00000000
00010000
00000000
,  // measure 28
00100000
00010000
00100000
00001000
00102000
00000000
00023000
00000000
,  // measure 29
00030010
00000100
00000010
00000100
00000010
00000000
00000010
00000000
00000110
00000000
00000000
00000000
00000100
00000000
00000001
00000000
,  // measure 30
00002000
00000000
00000000
00000000
00000000
00000000
00003002
00000000
00000000
00000000
00000000
00000000
00000013
00000000
00000000
00000100
00000000
00000000
00001000
00000000
00000100
00000000
00001000
00000000
,  // measure 31
00000100
00000000
00010100
00000000
00010000
00000000
00011000
00001000
,  // measure 32
01000000
00000000
00100000
00010000
00100000
10000000
00010000
00000000
,  // measure 33
00020000
00230000
00302000
00013000
00011000
00000000
00000000
00010000
,  // measure 34
00000100
00000000
00000000
00000000
00001000
00000000
00000001
00000000
00000100
00000000
00000100
00000000
00000110
00000000
00000000
00000001
,  // measure 35
00000200
00000000
00000000
00000000
00001300
00000000
00000000
00000000
00000100
00000010
00000100
00000000
00000001
00000000
00001000
00000000
,  // measure 36
00000010
00000100
00001000
00010000
00001000
01000000
00010000
00000000
,  // measure 37
00100000
10000000
00100000
00010000
10010000
00000000
00000000
10000000
,  // measure 38
01000000
00000000
00000000
00000000
10000000
00000000
00010000
00000000
01000000
00000000
01000000
00000000
00010000
00000000
00100000
00010000
,  // measure 39
00100000
00000000
00000000
00000000
00001000
00000000
00010000
00000000
00001000
01000000
00001000
00000000
00000000
00000000
01000000
00000000
,  // measure 40
00010000
00010000
00110000
00000000
00100000
00010000
00001000
00000100
,  // measure 41
00000010
00000000
00000001
00000000
00000100
00000000
00000000
00000010
00001000
00000000
00000000
00000000
00000000
00000000
00000000
00000000
,  // measure 42
00000000
00000000
00000000
00000000
,  // measure 43
00000000
00000000
00000002
00000000
,  // measure 44
00000000
00000000
00002003
00000000
,  // measure 45
00000000
00000000
00000000
00003001
00000200
00000000
00000000
00000000
,  // measure 46
00000000
00000000
00000000
00000000
,  // measure 47
00000320
00000000
00000000
00001030
00000200
00000000
00000000
00000000
,  // measure 48
00000000
00000000
00020300
00000000
,  // measure 49
00000000
00000000
00000000
00031000
02000000
00000000
00000000
00000000
,  // measure 50
00000000
00000000
03200000
00000000
,  // measure 51
00000000
00300000
10020000
00000000
,  // measure 52
00000000
10030000
01000000
00100000
00020000
00000000
00032000
00000000
,  // measure 53
00003200
00000000
00000310
00000001
00000200
00000000
00002300
00000000
,  // measure 54
00023000
00000000
00130000
01000000
00020000
00000000
20030000
00000000
,  // measure 55
02000000
00000000
33000000
00000000
,  // measure 56
00000000
00000000
01000000
00100000
00020000
00000000
00032000
00000000
,  // measure 57
00003020
00000000
00000031
00001000
00000001
00000000
00001000
00000001
,  // measure 58
00000000
00001000
00000010
00000100
00000110
00000000
00002002
00000000
,  // measure 59
00000000
00000000
00003003
00000000
,  // measure 60
00000000
00000001
00000100
00000010
00001010
00000000
00011000
00000000
,  // measure 61
00110000
00000000
00000000
00000000
00010000
00100000
00010000
00100000
00010000
00000000
10000000
00000000
00010000
00000000
10000000
00000000
,  // measure 62
00010000
10000000
00100000
01000000
00010000
10000000
01000000
00100000
,  // measure 63
01000000
10000000
00100000
00100000
01000000
00010000
10000000
00010000
,  // measure 64
01000000
00000000
00010000
00000000
01000000
00000000
00001000
00000000
01000000
00010000
01000000
00010000
01000000
00010000
00100000
00010000
,  // measure 65
00100000
00010000
00100000
00001000
00010000
00001000
00010000
00000000
00001000
00000000
00010000
00000000
00000100
00000000
00001000
00000000
,  // measure 66
00000100
00001000
00000001
00000100
00000001
00000100
00000001
00001000
,  // measure 67
00000100
00001000
00000001
00000001
00000010
00000001
00000010
00000001
,  // measure 68
00001000
00000000
00000100
00000000
00010000
00000000
00000100
00000000
00010000
00001000
00010000
00001000
01000000
00001000
01000000
00010000
,  // measure 69
01000000
00100000
10000000
00010000
00100000
01000000
00100000
00001000
00010000
00000000
00001000
00010000
00001000
00000000
00010000
00000100
,  // measure 70
00010000
00000000
00000100
00001000
00000100
00000010
00000001
00000000
00001000
00000000
00000001
00000100
00000001
00000000
00001000
00000100
,  // measure 71
00001000
00000000
00000100
00000010
00000100
00000000
00001000
00000100
00010000
00000000
00001000
00010000
00001000
00000000
00010000
00000100
,  // measure 72
00010000
00000000
00001000
00010000
00001000
00000000
01000000
00000000
00010000
01000000
00100000
10000000
00010000
10000000
00010000
10000000
,  // measure 73
01000000
00100000
01000000
10000000
00010000
01000000
00001000
00010000
00001000
00010000
00000100
00001000
00000001
00000000
00000200
00000000
,  // measure 74
00000310
00001000
00000001
00000010
00000100
00000010
00000001
00001000
00000001
00000000
00000001
00000100
00000010
00000000
00000010
00001000
,  // measure 75
00000010
00001000
00000100
00010000
00001000
00100000
00010000
10000000
00010000
01000000
00100000
10000000
00020000
00000000
00000000
00000000
,  // measure 76
10030000
01000000
00100000
00010000
20000000
00000000
30200000
00000000
01300000
00100000
10000000
00010000
00100000
00001000
00010000
00000100
,  // measure 77
00001000
00000100
00000010
00000001
00001000
00000010
00000100
00000001
00001000
00000000
00000100
00000000
00000010
00000000
00000001
00000000
,  // measure 78
00001000
00000000
00000010
00001000
00000001
00000010
00000100
00000000
,  // measure 79
00000010
00000001
00000010
00000001
00001000
00000001
00001000
00000010
00001000
00000000
00000001
00001000
00000001
00000000
00001000
00000000
,  // measure 80
00000010
00000000
00000100
00000010
00001000
00000000
00001000
00000100
,  // measure 81
00010000
00001000
00010000
00001000
01000000
00001000
01000000
00001000
01000000
00010000
00100000
00010000
10000000
00000000
10000000
00000000
,  // measure 82
10010000
00000000
10000000
01000000
00100000
00010000
00100000
00001000
,  // measure 83
00100000
00001000
00010000
00001000
00010000
00000100
00001000
00000001
,  // measure 84
00001000
00000000
00000001
00000100
00000110
00000010
00001000
00001001
,  // measure 85
00000001
00000000
00000010
00000000
00000210
00000000
00000000
00000000
00001300
00000000
00000100
00001000
00000100
00000000
00010000
00000100
,  // measure 86
00010000
00000000
00001000
00010000
00001000
00000000
00010000
00000000
00001000
00000000
01000000
00010000
01000000
00000000
00010000
00100000
,  // measure 87
00010000
00000000
10000000
01000000
10000000
00000000
01000000
00000000
00100000
00000000
00010000
01000000
00010000
00000000
01000000
00001000
,  // measure 88
01000000
00000000
00001000
00010000
00001000
00000000
00010000
00000000
00000100
00000000
00001000
00000001
00001000
00000000
00000010
00000100
,  // measure 89
00000010
00000000
00000100
00000001
00000100
00000010
00001000
00000001
00000010
00000100
00000010
00000001
00001000
00000000
00000200
00000000
,  // measure 90
00010300
00001000
00100000
00010000
10000000
01000000
00100000
00010000
10000000
00000000
10000000
01000000
00100000
00000000
00100000
00010000
,  // measure 91
10000000
00010000
10000000
00010000
01000000
00100000
10000000
00010000
00100000
00000000
00000000
00000000
11000000
00000000
00000000
00000000
,  // measure 92
00110000
00000000
00000000
00000000
10000000
01000000
00100000
00001000
00010000
00001000
01000000
00010000
00100000
00001000
00010000
00000010
,  // measure 93
00000100
00000001
00001000
00000010
00001000
00000100
00000010
00000000
00000000
00000000
00000000
00000000
00000000
00000000
00000000
00000000
;

//---------------dance-single - Pandemonium X---------------
#NOTEDATA:;
#CHARTNAME:;
#CHARTSTYLE:;
#CREDIT:Pandemonium X;
#STEPSTYPE:dance-single;
#DESCRIPTION:Pandemonium X;
#DIFFICULTY:Beginner;
#METER:5;
#METERF:0;
#RADARVALUES:0.158350,0.306876,0.016421,0.197057,0.004105,135.000000,133.000000,2.000000,24.000000,0.000000,0.000000,0.000000,0.000000,0.000000,0.158350,0.306876,0.016421,0.197057,0.004105,135.000000,133.000000,2.000000,24.000000,0.000000,0.000000,0.000000,0.000000,0.000000;
#CHARTHASH:1470046704;
#BANNER:;
#LASTSECONDHINT:117.054962;
#NOTES:
// measure 0
0000
0000
0000
0000
,  // measure 1
0000
0000
0000
0000
,  // measure 2
0000
0000
0000
0000
,  // measure 3
0000
0000
0000
0000
,  // measure 4
0000
0000
0000
0000
,  // measure 5
0000
0000
0000
0000
,  // measure 6
0000
0000
0000
0000
,  // measure 7
0000
0000
0000
0000
,  // measure 8
0002
0000
0000
0003
,  // measure 9
1000
0000
0000
0000
,  // measure 10
0001
0000
0000
0000
,  // measure 11
1000
0000
0000
0000
,  // measure 12
0010
0000
0000
0000
,  // measure 13
0100
0000
0000
0000
,  // measure 14
0001
0000
0000
0000
,  // measure 15
1000
0000
0000
0000
,  // measure 16
0001
0000
0000
0000
,  // measure 17
0100
0000
0100
0000
,  // measure 18
0100
0000
0100
0000
,  // measure 19
0010
0000
0010
0000
,  // measure 20
0010
0000
0010
0000
,  // measure 21
1000
0000
1000
0000
,  // measure 22
0001
0000
0001
0000
,  // measure 23
1000
1000
0001
0001
,  // measure 24
0010
0000
0010
0000
,  // measure 25
0100
0000
1000
0000
,  // measure 26
0001
0000
0200
0000
,  // measure 27
0310
0000
0100
0000
,  // measure 28
0001
0000
1000
0000
,  // measure 29
0001
0001
1000
0000
,  // measure 30
0001
0000
0010
0000
,  // measure 31
0001
0000
1000
0000
,  // measure 32
0001
0000
0100
0000
,  // measure 33
0000
0000
0010
0000
,  // measure 34
0100
0000
0001
0000
,  // measure 35
1000
1000
0001
0000
,  // measure 36
1000
1000
0001
0001
,  // measure 37
0010
0000
0001
0000
,  // measure 38
1000
0000
0100
0000
,  // measure 39
1000
0000
0001
0000
,  // measure 40
0100
0000
0010
0010
,  // measure 41
0100
0100
1001
0000
,  // measure 42
0000
0000
0000
0000
,  // measure 43
0000
0000
0001
0000
,  // measure 44
0000
0000
1000
0000
,  // measure 45
0000
0000
0100
0000
,  // measure 46
0000
0000
0000
0000
,  // measure 47
1000
0000
0001
0000
,  // measure 48
0000
0000
1000
0000
,  // measure 49
0000
0000
0010
0000
,  // measure 50
0000
0000
0000
0000
,  // measure 51
0000
0000
1000
0000
,  // measure 52
0000
0000
0001
0000
,  // measure 53
0000
0000
0010
0000
,  // measure 54
0000
0000
0000
0000
,  // measure 55
0100
0000
0100
0000
,  // measure 56
0000
0000
0010
0000
,  // measure 57
0000
0000
0001
0000
,  // measure 58
0000
0000
1000
0000
,  // measure 59
0000
0000
0000
0000
,  // measure 60
0000
0000
1000
0001
,  // measure 61
1001
0000
0002
0000
,  // measure 62
0000
0003
2000
0000
,  // measure 63
0000
3000
0020
0000
,  // measure 64
0000
0000
0030
0000
0100
0000
0000
0100
,  // measure 65
0000
0100
0020
0000
,  // measure 66
0000
0030
2000
0000
,  // measure 67
0000
3000
0002
0000
,  // measure 68
0000
0003
2000
3000
,  // measure 69
0002
0003
0200
0000
,  // measure 70
0000
0300
0020
0000
,  // measure 71
0000
0030
2000
0000
,  // measure 72
0000
0000
3000
0000
0001
0000
0000
0001
,  // measure 73
0000
0001
2000
0000
,  // measure 74
0000
3000
0002
0000
,  // measure 75
0000
0003
0020
0000
,  // measure 76
0000
0030
0200
0000
,  // measure 77
0000
0000
1300
0000
,  // measure 78
0001
0000
0100
0000
,  // measure 79
0000
0000
0010
0000
,  // measure 80
1000
0000
0001
0000
,  // measure 81
0000
0000
0010
0010
,  // measure 82
0010
0000
0001
0000
,  // measure 83
1000
0000
0001
0000
,  // measure 84
1000
0000
0000
0000
0010
0000
0000
0010
,  // measure 85
0000
0010
0200
0000
,  // measure 86
0000
0300
0020
0000
,  // measure 87
0000
0030
2000
0000
,  // measure 88
0000
3000
0002
0000
,  // measure 89
0000
1003
0002
0000
,  // measure 90
0000
0003
2000
0000
,  // measure 91
0000
0000
3010
0010
,  // measure 92
0010
0010
0200
0000
,  // measure 93
0000
0000
0000
0000
0000
0000
0000
0300
0000
0000
0000
0000
0000
0000
0000
0000
;

//---------------dance-single - Pandemonium X---------------
#NOTEDATA:;
#CHARTNAME:;
#CHARTSTYLE:;
#CREDIT:Pandemonium X;
#STEPSTYPE:dance-single;
#DESCRIPTION:Pandemonium X;
#DIFFICULTY:Easy;
#METER:10;
#METERF:0;
#RADARVALUES:0.362445,0.613341,0.279164,0.394115,0.000000,309.000000,275.000000,34.000000,48.000000,0.000000,0.000000,0.000000,0.000000,0.000000,0.362445,0.613341,0.279164,0.394115,0.000000,309.000000,275.000000,34.000000,48.000000,0.000000,0.000000,0.000000,0.000000,0.000000;
#CHARTHASH:1699452945;
#BANNER:;
#LASTSECONDHINT:116.979965;
#NOTES:
// measure 0
0000
0000
0000
0000
,  // measure 1
0000
0000
0000
0000
,  // measure 2
0000
0000
0000
0000
,  // measure 3
0000
0000
0000
0000
,  // measure 4
0000
0000
0000
0000
,  // measure 5
0000
0000
0000
0000
,  // measure 6
0000
0000
0000
0000
,  // measure 7
0000
0000
0000
0000
,  // measure 8
0002
0000
0000
0000
,  // measure 9
1003
0000
0001
0000
0000
0100
0000
0001
,  // measure 10
0000
0000
0000
0000
0000
1000
0000
0100
,  // measure 11
0020
0000
0000
0030
,  // measure 12
0100
0000
1000
0001
0000
0001
1000
0000
,  // measure 13
0001
0000
1000
0000
0000
0010
0000
0200
,  // measure 14
0000
0000
0000
0000
0000
0302
0000
0000
,  // measure 15
2000
0000
0000
0000
,  // measure 16
0000
0000
0000
3003
,  // measure 17
1001
0000
0011
0000
,  // measure 18
1001
0000
1010
0000
,  // measure 19
1001
0000
0101
0000
,  // measure 20
1001
0000
1100
0000
,  // measure 21
1001
0000
0110
0000
,  // measure 22
1001
0000
0110
0000
,  // measure 23
1000
0100
0010
0001
,  // measure 24
0011
0000
1100
0000
,  // measure 25
0001
1000
0010
0000
,  // measure 26
1000
0001
0200
0000
,  // measure 27
0301
1000
0010
0000
,  // measure 28
0100
0001
0010
0010
,  // measure 29
0100
1000
0100
1000
0001
0000
0000
0000
,  // measure 30
2000
3002
0103
0000
,  // measure 31
0020
2030
3001
0000
,  // measure 32
1000
0001
1000
0000
,  // measure 33
2002
0000
0000
3003
0001
0000
0000
0000
,  // measure 34
1000
0001
0100
0101
,  // measure 35
0100
0001
1000
0000
,  // measure 36
0001
0000
0010
0000
0001
1000
0001
0000
,  // measure 37
1000
0001
0100
0010
1000
0000
0000
0010
,  // measure 38
1000
0001
0010
0100
,  // measure 39
0010
0001
1000
0001
,  // measure 40
0100
0000
0001
0000
1000
0100
0010
0001
,  // measure 41
1000
0010
0100
0000
1001
0000
0000
0000
,  // measure 42
0000
0000
0000
0000
,  // measure 43
0000
0000
0002
0000
,  // measure 44
0000
0000
2003
0000
,  // measure 45
0000
0000
3200
0000
,  // measure 46
0000
0000
0000
0000
,  // measure 47
0320
0000
0230
0000
,  // measure 48
0000
0000
2300
0000
,  // measure 49
0000
0000
3002
0000
,  // measure 50
0000
0000
2003
0000
,  // measure 51
0000
0000
3002
0000
,  // measure 52
0000
0103
0001
0001
,  // measure 53
0001
1000
0100
0100
,  // measure 54
0100
0010
0100
0100
,  // measure 55
0200
0000
0000
0300
0000
0000
0000
0000
,  // measure 56
0000
0010
0001
0001
,  // measure 57
0001
0000
1000
0000
0001
0000
0000
1000
,  // measure 58
0000
0010
0110
2002
,  // measure 59
0000
0000
3003
0000
,  // measure 60
0000
0001
0100
0010
1000
0000
0001
0000
,  // measure 61
0220
0330
1000
0010
,  // measure 62
0100
0001
0010
0001
,  // measure 63
1000
0000
0100
0010
0100
0000
0010
0000
,  // measure 64
0001
0000
0100
0000
0020
0000
0000
0230
,  // measure 65
0000
0302
1003
0100
,  // measure 66
1000
0010
0100
0001
,  // measure 67
0010
0000
0100
1000
0001
0000
1000
0000
,  // measure 68
0001
0100
0002
0023
,  // measure 69
0230
0000
0320
0032
1003
0000
0001
0000
,  // measure 70
0100
0000
0001
0010
0100
0000
0010
0000
,  // measure 71
0001
0000
1000
0100
0010
0000
0100
0000
,  // measure 72
1000
0000
0001
0000
0200
0000
0000
0320
,  // measure 73
0000
2030
3002
0013
,  // measure 74
0200
1300
1100
1100
,  // measure 75
1100
0000
0001
1000
0001
1000
0100
0000
,  // measure 76
1000
0001
0100
0001
0020
0000
0000
0000
,  // measure 77
0000
0000
0130
1000
,  // measure 78
0001
0100
0001
1000
,  // measure 79
0200
0000
0310
0100
,  // measure 80
1000
0100
0010
0001
,  // measure 81
0200
0000
0302
0000
1003
0001
1000
0001
,  // measure 82
1000
0100
1000
0001
,  // measure 83
0100
0010
1000
0010
,  // measure 84
0100
0000
0001
0000
1001
0000
0000
1001
,  // measure 85
0000
1001
0102
0100
,  // measure 86
0100
0103
2010
0010
,  // measure 87
0010
3010
2100
0100
,  // measure 88
0100
3100
0012
0010
,  // measure 89
0010
2003
3001
1000
,  // measure 90
0100
1000
0001
0100
,  // measure 91
0010
1000
1001
0110
,  // measure 92
1001
0000
0110
0000
1000
0010
0100
0001
,  // measure 93
1000
0100
1000
0010
0000
0000
0000
0000
;

//---------------dance-single - Pandemonium X---------------
#NOTEDATA:;
#CHARTNAME:;
#CHARTSTYLE:;
#CREDIT:Pandemonium X;
#STEPSTYPE:dance-single;
#DESCRIPTION:Pandemonium X;
#DIFFICULTY:Medium;
#METER:13;
#METERF:0;
#RADARVALUES:0.523140,0.805010,0.197057,0.426957,0.049264,446.000000,422.000000,24.000000,52.000000,0.000000,0.000000,4.000000,0.000000,0.000000,0.523140,0.805010,0.197057,0.426957,0.049264,446.000000,422.000000,24.000000,52.000000,0.000000,0.000000,4.000000,0.000000,0.000000;
#CHARTHASH:304759790;
#BANNER:;
#LASTSECONDHINT:116.979965;
#NOTES:
// measure 0
0000
0000
0000
0000
,  // measure 1
0000
0000
0000
0000
,  // measure 2
0000
0000
0000
0000
,  // measure 3
0000
0000
0000
0000
,  // measure 4
0000
0000
0000
0000
,  // measure 5
0000
0000
0000
0000
,  // measure 6
0000
0000
0000
0000
,  // measure 7
0000
0000
0000
0000
,  // measure 8
0020
0000
0000
0000
,  // measure 9
0130
0000
1001
0000
0000
0001
1001
0000
,  // measure 10
0010
0000
1001
0000
0000
1000
1001
0000
,  // measure 11
0010
0000
1001
0000
0000
0001
1001
0000
,  // measure 12
0001
0000
1000
0010
0000
0010
0100
0001
,  // measure 13
1000
0000
0100
0000
0000
1000
1100
0000
,  // measure 14
0001
0000
0100
0000
0000
0001
0101
0000
,  // measure 15
0001
0000
1000
0000
0000
1000
1100
0000
,  // measure 16
1000
0000
0010
0000
0100
0001
0100
0010
,  // measure 17
1000
0000
0001
0001
0100
0000
0000
0000
,  // measure 18
0010
0000
1000
1000
0001
0000
0000
0000
,  // measure 19
0010
0000
0100
0100
1000
0000
0000
0000
,  // measure 20
0001
0000
0010
0010
0100
0000
0000
0000
,  // measure 21
0010
0000
0001
0001
0100
0000
0010
0010
,  // measure 22
1000
0000
0001
0001
1000
0000
0100
0100
,  // measure 23
2000
3000
0000
0000
0200
0300
0000
0000
0020
0030
0000
0000
0002
0003
0000
0000
,  // measure 24
1000
0000
0100
0010
0002
0000
0013
0100
,  // measure 25
2000
0000
3001
0100
0020
0000
0130
0001
,  // measure 26
1000
0100
0010
0000
0400
4000
0000
0300
,  // measure 27
3010
0100
0001
0001
1000
0000
0100
0010
,  // measure 28
0100
1000
0001
0001
0200
0300
0002
0003
,  // measure 29
0010
1000
0010
0001
1000
0000
0001
1000
,  // measure 30
1020
0000
1030
0000
0001
0010
0001
0010
,  // measure 31
0100
0000
0010
0000
1100
0000
1000
0001
,  // measure 32
0100
0000
0010
0000
0100
0001
0010
0000
,  // measure 33
0200
0300
0020
0030
0002
0003
0000
0000
1000
0000
0000
0000
0000
0000
0001
0000
,  // measure 34
0100
0000
0010
1000
0010
0100
0100
0000
,  // measure 35
0001
0000
1100
0000
0001
0000
1000
0010
,  // measure 36
0100
1000
0100
0001
2000
0100
3100
0000
,  // measure 37
0020
0032
0023
0230
2300
0000
3000
0001
,  // measure 38
1000
0000
0010
1000
0010
0010
0100
0000
,  // measure 39
0010
0000
0100
0001
1000
0000
0000
0001
,  // measure 40
0010
1000
0010
0000
0010
1000
0020
0031
,  // measure 41
1000
0000
1000
0000
0001
0000
0000
0001
1000
0000
0000
0000
0000
0000
0000
0000
,  // measure 42
0000
0000
0000
0000
,  // measure 43
0000
0000
0102
0000
,  // measure 44
0000
0000
0000
1003
0200
0000
0000
0000
,  // measure 45
0000
0000
0000
0310
0002
0000
0000
0000
,  // measure 46
0000
0000
0000
0000
,  // measure 47
2003
0000
0000
3010
0200
0000
0000
0000
,  // measure 48
0000
0000
0000
0301
2000
0000
0000
0000
,  // measure 49
0000
0000
0000
0000
0000
3000
0001
0000
0200
0000
0000
0000
0000
0000
0000
0000
,  // measure 50
0000
0000
0302
0000
,  // measure 51
0000
0000
0103
0010
,  // measure 52
0000
0100
0001
0000
1000
0000
0100
0000
,  // measure 53
0000
0010
0001
0000
1000
0000
0010
0000
,  // measure 54
0000
0100
0010
0000
1000
0000
0001
0000
,  // measure 55
0200
0000
0301
1000
,  // measure 56
0000
0010
1000
0000
0001
0000
0010
0000
,  // measure 57
0000
0000
0100
1000
0010
0000
1000
0010
,  // measure 58
0000
1000
0010
0100
0001
0000
2002
0000
,  // measure 59
0000
0000
3003
0000
,  // measure 60
0000
1000
0010
0100
0101
0000
1010
0000
,  // measure 61
2002
3003
1200
1000
,  // measure 62
1000
1000
0320
0001
,  // measure 63
0001
0000
0031
0020
0230
0000
1000
0000
,  // measure 64
1000
0000
1000
0000
1300
0100
0010
0001
,  // measure 65
1000
0010
1000
0001
0020
0000
0001
0000
,  // measure 66
0001
0001
0230
0010
,  // measure 67
0010
0000
0310
0002
2003
0000
0010
0000
,  // measure 68
0010
0000
0010
0000
3001
1000
0001
0010
,  // measure 69
0100
1000
0100
0010
0002
0000
1000
0000
,  // measure 70
0010
1000
0023
0100
,  // measure 71
0001
0000
0130
0020
0032
0000
1000
0000
,  // measure 72
0100
0000
1000
0000
0103
0001
0010
0100
,  // measure 73
0010
0001
1000
0010
0100
1000
0100
0010
,  // measure 74
1000
0001
0010
0100
1000
0000
1000
0000
,  // measure 75
1000
0100
0010
0001
1000
0010
0110
0000
,  // measure 76
0100
0001
1001
2000
3100
0010
1000
0010
,  // measure 77
0001
0100
1000
0100
0001
0000
1000
0100
,  // measure 78
0010
0000
0010
0100
1000
0000
0100
0010
,  // measure 79
0004
0400
0000
0003
0310
1000
0001
0100
,  // measure 80
0010
0000
0100
0001
1000
0000
0001
0000
,  // measure 81
2000
0000
3200
0000
0310
0100
1000
1000
,  // measure 82
0001
0000
1000
0001
0100
0000
0001
0000
,  // measure 83
1000
0000
0100
1000
0001
0000
1000
0000
,  // measure 84
0010
0000
0100
0001
0200
0000
0000
0302
,  // measure 85
0000
0000
2003
0000
3001
0100
0010
0100
,  // measure 86
0001
1000
0001
0100
0010
1000
0010
0100
,  // measure 87
0010
1000
0010
0100
0001
1000
0010
1000
,  // measure 88
0001
0010
0001
1000
0001
1000
0100
1000
,  // measure 89
0001
0100
0001
0001
1000
0100
0010
0001
,  // measure 90
0010
0100
0010
0001
1000
0010
1000
0001
,  // measure 91
0010
0001
1000
0100
0110
0000
1100
0000
,  // measure 92
1001
0000
0101
0100
0001
0100
0010
1000
,  // measure 93
0001
1000
0001
1000
0100
0010
0001
0000
0000
0000
0000
0000
0000
0000
0000
0000
;

//---------------dance-single - Pandemonium X---------------
#NOTEDATA:;
#CHARTNAME:;
#CHARTSTYLE:;
#CREDIT:Pandemonium X;
#STEPSTYPE:dance-single;
#DESCRIPTION:Pandemonium X;
#DIFFICULTY:Hard;
#METER:17;
#METERF:17;
#RADARVALUES:0.808169,1.150784,0.468011,0.426957,0.533697,689.000000,632.000000,57.000000,52.000000,0.000000,0.000000,2.000000,0.000000,0.000000,0.808169,1.150784,0.468011,0.426957,0.533697,689.000000,632.000000,57.000000,52.000000,0.000000,0.000000,2.000000,0.000000,0.000000;
#CHARTHASH:1449378529;
#BANNER:;
#LASTSECONDHINT:117.054962;
#NOTES:
// measure 0
0000
0000
0000
0000
,  // measure 1
0000
0000
0000
0000
,  // measure 2
0000
0000
0000
0000
,  // measure 3
0000
0000
0000
0000
,  // measure 4
0000
0000
0000
0000
,  // measure 5
0000
0000
0000
0000
,  // measure 6
0000
0000
0000
0000
,  // measure 7
0000
0000
0000
0000
,  // measure 8
4000
0004
0000
0000
0000
0000
0000
0000
0000
0000
0000
0000
3003
0000
0000
0000
,  // measure 9
1000
0000
1001
0000
0000
0001
1001
0000
,  // measure 10
1000
0000
1001
0000
0000
0001
1001
0000
,  // measure 11
1000
0000
1001
0000
0000
0001
1001
0000
,  // measure 12
0110
0000
0000
0000
1001
0000
0001
0000
0000
0000
1000
0001
1000
0000
0001
0000
,  // measure 13
1000
0000
1001
0000
0000
0001
1001
0000
,  // measure 14
1000
0000
1001
0000
0000
0001
1001
0000
,  // measure 15
1000
0000
1001
0000
0000
0001
1001
0000
,  // measure 16
1000
0000
0000
0000
1001
0000
0000
0000
0001
0000
1000
0001
1000
0000
0100
0000
,  // measure 17
1100
0000
1000
0100
0020
0000
0031
0000
,  // measure 18
0011
0000
0001
0010
0200
0000
1300
0000
,  // measure 19
1001
0000
1000
0001
0020
0000
0130
0000
,  // measure 20
1100
0000
1000
0001
0200
0000
0310
0000
,  // measure 21
0020
0000
1030
0001
0020
0000
0130
1000
,  // measure 22
0020
0000
1030
0001
0020
0000
0031
1000
,  // measure 23
0001
0000
0000
1000
0100
0000
0000
0100
0010
0000
0000
0010
0001
0000
0000
0001
,  // measure 24
1000
0000
1000
0001
2000
0000
3000
0000
,  // measure 25
1001
0000
1000
0001
0011
0000
0010
0100
,  // measure 26
1000
0000
0001
0000
0100
0000
0000
0000
0010
0100
0010
0100
0001
1000
0001
1000
,  // measure 27
0001
0000
1000
0100
1000
0000
0001
0000
1000
0000
0000
0000
0100
0000
0010
0000
,  // measure 28
0100
1000
0001
0100
0002
0000
2003
0000
,  // measure 29
3001
0100
0001
0100
0001
0000
1000
0000
0001
0000
0000
0000
1000
0000
0100
0000
,  // measure 30
2000
0000
0000
0000
0000
0000
3200
0000
0000
0000
0000
0000
1300
0000
0000
0001
0000
0000
1000
0000
0100
0000
1000
0000
,  // measure 31
0002
0000
0203
0000
0320
0000
0130
0001
,  // measure 32
1000
0100
0020
0000
0031
0010
0100
0000
,  // measure 33
2200
3300
0000
0022
0033
0000
2002
0000
0000
3003
0000
0000
0110
0000
0000
0000
0000
0000
0000
0000
0000
1000
0000
0000
,  // measure 34
1010
0000
1000
1000
1001
0000
0011
0000
,  // measure 35
1100
0000
0000
0000
0001
0000
1000
0000
0001
0100
0001
0000
0000
0000
0001
0000
,  // measure 36
1000
0010
0100
0001
0200
0302
2003
0000
,  // measure 37
3002
0203
0320
2030
3001
0000
0000
0001
,  // measure 38
0101
0000
0000
0000
0100
0000
0001
0000
1001
0000
1000
0000
0100
0000
0010
0100
,  // measure 39
0010
0000
0000
0000
0100
0000
0010
0000
0001
1000
0001
0000
0000
0000
1000
0000
,  // measure 40
0001
0001
0000
0000
1000
1000
0001
1000
,  // measure 41
0002
0000
2003
0000
3020
0000
0000
0130
0001
0000
0000
0000
0000
0000
0000
0000
,  // measure 42
0000
0000
0000
0000
,  // measure 43
0000
0000
1002
0000
,  // measure 44
0000
0000
0000
1003
0200
0000
0000
0000
,  // measure 45
0000
0000
0000
1300
0002
0000
0000
0000
,  // measure 46
0000
0000
0000
0000
,  // measure 47
0203
0000
0000
0310
2000
0000
0000
0000
,  // measure 48
0000
0000
0000
3001
0200
0000
0000
0000
,  // measure 49
0000
0000
0000
0301
2000
0000
0000
0000
,  // measure 50
0000
0000
0002
0000
,  // measure 51
0000
3003
2001
0000
,  // measure 52
0000
3001
0100
0001
0011
0000
1010
0000
,  // measure 53
0011
0000
1000
0001
0101
0000
1100
0000
,  // measure 54
0101
0000
0001
1000
1100
0000
0101
0000
,  // measure 55
1200
0000
0310
0001
,  // measure 56
1000
0000
0010
1000
1001
0000
0110
0000
,  // measure 57
1001
0000
0001
1000
2000
0000
3001
0002
,  // measure 58
0000
1003
0010
0010
0110
0000
2002
0000
,  // measure 59
0000
0000
3003
0000
1000
1000
0001
1000
,  // measure 60
1000
0001
1000
0100
0020
0000
0032
0000
,  // measure 61
2003
0000
0000
0000
3001
0100
0001
0100
0001
0000
1000
0000
0001
0000
0100
0000
,  // measure 62
0010
1000
0001
0010
0001
1000
0001
0100
,  // measure 63
0001
1000
0010
1000
0100
0010
0001
1000
,  // measure 64
0001
0000
0100
0000
0010
0000
1000
0000
0001
0100
0010
1000
0001
0100
0001
1000
,  // measure 65
0100
0010
0001
1000
0010
1000
0001
0100
0001
0000
1000
0000
0001
0000
0100
0000
,  // measure 66
0001
1000
0100
1000
0100
0010
0100
0010
,  // measure 67
0001
1000
0001
0100
0010
1000
0010
0100
,  // measure 68
0001
0000
1000
0000
0001
0000
1000
0000
0001
0010
0001
0010
0100
1000
0100
1000
,  // measure 69
0001
1000
0010
0100
0001
0100
0010
1000
0001
0000
1000
0001
1000
0000
0100
1000
,  // measure 70
0100
0000
0010
0001
0010
0001
0010
0100
0010
0000
0100
0010
0100
0000
1000
0001
,  // measure 71
1000
0000
0001
1000
0010
0000
1000
0000
0001
0000
0010
0100
0010
0000
0001
1000
,  // measure 72
0001
0000
0100
0010
0100
0000
0001
0000
1000
0100
0010
0001
1000
0001
1000
0100
,  // measure 73
0010
0001
1000
0010
0100
0000
0001
0000
1000
0001
1000
0001
0100
0000
0010
0100
,  // measure 74
0001
1000
0001
1000
0001
1000
0100
0010
0001
0000
1000
0001
0100
0000
0100
0010
,  // measure 75
1000
0001
1000
0001
0010
0100
1000
0001
1000
0001
1000
0001
0200
0000
0000
0000
,  // measure 76
0301
1000
0001
1000
0020
0000
2030
0000
3001
0100
0010
0100
0001
1000
0010
0100
,  // measure 77
0001
1000
0100
0010
0001
1000
0100
0010
0001
0000
1000
0000
0100
0000
1000
0000
,  // measure 78
1100
0000
0001
0100
0101
0000
1001
0000
,  // measure 79
0001
0100
0001
1000
0100
0010
0001
1000
0001
0000
1000
0001
0100
0000
0001
0000
,  // measure 80
1001
0000
0001
1000
1100
0000
0011
0000
,  // measure 81
0001
1000
0001
1000
0010
1000
0010
0100
0001
0100
0010
1000
0001
0000
1000
0000
,  // measure 82
1100
0000
0100
0010
0001
1000
0100
0010
,  // measure 83
0100
1000
0001
0100
0010
1000
0001
0100
,  // measure 84
0010
0000
1000
0001
2001
0001
3001
1002
,  // measure 85
1000
0000
1003
0000
0001
0010
0001
0010
0001
0000
1000
0001
1000
0000
0001
0100
,  // measure 86
0001
0000
1000
0010
1000
0000
0001
0000
0010
0000
0100
1000
0100
0000
0010
0001
,  // measure 87
0010
0000
0001
1000
0001
0000
1000
0000
0010
0000
0100
0001
0100
0000
0010
0100
,  // measure 88
0010
0000
1000
0001
1000
0000
0001
0000
0010
0000
0100
1000
0100
0000
0010
0100
,  // measure 89
0010
0000
0001
1000
0001
1000
0001
1000
0001
0100
0010
1000
0001
0000
0010
0100
,  // measure 90
1000
0100
0010
0001
1000
0010
0100
0010
1000
0000
0001
0010
0001
0000
1000
0000
,  // measure 91
0001
0100
0001
0100
0010
1000
0001
0000
0011
0000
0000
0000
1010
0000
0000
0000
,  // measure 92
0011
0000
0000
0000
1000
0001
0010
0100
1000
0100
0010
0001
1000
0010
0100
0001
,  // measure 93
0100
0010
0100
0001
0010
0100
1000
0010
0000
0000
0000
0000
0000
0000
0000
0000
;
