#VERSION:0.83;
#TITLE:雪月花;
#SUBTITLE:;
#ARTIST:Ryu☆;
#TITLETRANSLIT:Setsugekka;
#SUBTITLETRANSLIT:;
#ARTISTTRANSLIT:;
#GENRE:;
#CREDIT:;
#MUSIC:Setsugekka.ogg;
#BANNER:banner.png;
#BACKGROUND:background.png;
#JACKET:jacket.png;
#DISCIMAGE:;
#CDIMAGE:;
#SELECTABLE:YES;
#LYRICSPATH:;
#CDTITLE:cdtitle.png;
#SAMPLESTART:84.623;
#SAMPLELENGTH:12.715;
#OFFSET:1.205;
#BPMS:0.000000=151.000000;
#STOPS:40.000000=1.192000;
#WARPS:;
#DELAYS:;
#SPEEDS:;
#SCROLLS:;
#TICKCOUNTS:;
#TIMESIGNATURES:;
#LABELS:;
#COMBOS:;
#FAKES:;
#BGCHANGES:;
#FGCHANGES:;
#ATTACKS:;
#TITLETRANSLATE:Setsugekka;

//---------------dance-single - Pandemonium X---------------
#NOTEDATA:;
#CHARTNAME:;
#CHARTSTYLE:;
#CREDIT:Pandemonium X;
#STEPSTYPE:dance-single;
#DESCRIPTION:Pandemonium X;
#DIFFICULTY:Beginner;
#METER:4;
#METERF:4;
#RADARVALUES:0,0,0,0,0;
#NOTES:
// measure 0
0000
0000
0000
0000
,  // measure 1
0000
0000
0000
0000
,  // measure 2
0000
0000
0000
0000
,  // measure 3
0000
0000
0000
0000
,  // measure 4
0000
0000
0000
0000
,  // measure 5
0000
0000
0000
0000
,  // measure 6
0000
0000
0000
0000
,  // measure 7
0000
0000
0000
0000
,  // measure 8
0000
0000
0000
0000
,  // measure 9
0000
0000
0000
0000
,  // measure 10
0000
0001
0000
1000
,  // measure 11
0000
0001
0000
1000
,  // measure 12
0000
0001
0000
1000
,  // measure 13
0000
0001
0000
1000
,  // measure 14
0001
0100
0000
0010
,  // measure 15
0000
0100
0000
0010
,  // measure 16
0000
0100
0000
0010
,  // measure 17
0000
1000
0000
0000
,  // measure 18
0000
0001
1000
0001
,  // measure 19
0000
0010
0001
0010
,  // measure 20
0000
0100
1000
0100
,  // measure 21
0000
1000
0000
0001
,  // measure 22
0000
1000
0010
1000
,  // measure 23
0000
0010
0100
0010
,  // measure 24
0000
0100
0001
0100
,  // measure 25
0000
0001
0000
1000
,  // measure 26
0000
0110
0000
0000
,  // measure 27
0000
0000
0000
0000
,  // measure 28
0001
1000
0000
0001
,  // measure 29
0000
1000
0000
0001
,  // measure 30
0000
1001
0000
1000
,  // measure 31
0000
1001
0000
0001
,  // measure 32
0000
1001
0000
1001
,  // measure 33
0000
0110
0000
1001
,  // measure 34
0000
0001
0000
0001
,  // measure 35
0000
0001
0000
0001
,  // measure 36
0000
1000
0000
1000
,  // measure 37
0000
1000
0000
1000
,  // measure 38
0000
0010
0000
0010
,  // measure 39
0000
0010
0000
0010
,  // measure 40
0000
0100
0000
0100
,  // measure 41
0000
0100
0000
0100
,  // measure 42
0000
0010
0000
0000
,  // measure 43
0000
0000
0000
0000
,  // measure 44
0000
0100
0000
0000
,  // measure 45
0000
0000
0000
0000
,  // measure 46
0000
0001
0000
0000
,  // measure 47
0000
0000
0000
0000
,  // measure 48
0000
1000
0000
0000
,  // measure 49
0000
0001
0000
1000
,  // measure 50
0000
0001
0001
1000
,  // measure 51
0000
1000
1000
0001
,  // measure 52
0001
1000
0001
1000
,  // measure 53
0000
0001
0000
0100
,  // measure 54
0000
0001
0000
1000
,  // measure 55
1000
0100
0000
0010
,  // measure 56
0000
0100
0000
0010
,  // measure 57
0010
0001
0000
0010
,  // measure 58
0000
0001
0000
0100
,  // measure 59
0100
0010
0000
0100
,  // measure 60
0000
0001
0000
0000
,  // measure 61
1000
0001
0000
0000
,  // measure 62
1000
0100
0000
0000
,  // measure 63
0010
0001
0000
0000
,  // measure 64
0100
0010
0000
0100
,  // measure 65
0100
0010
0000
0000
,  // measure 66
0100
0001
0000
1000
,  // measure 67
1000
0001
1000
0001
,  // measure 68
1000
0001
0100
0010
,  // measure 69
1000
0000
0000
0000
;

//---------------dance-single - Pandemonium X---------------
#NOTEDATA:;
#CHARTNAME:;
#CHARTSTYLE:;
#CREDIT:Pandemonium X;
#STEPSTYPE:dance-single;
#DESCRIPTION:Pandemonium X;
#DIFFICULTY:Easy;
#METER:8;
#METERF:8;
#RADARVALUES:0,0,0,0,0;
#NOTES:
// measure 0
0000
0000
0000
0000
,  // measure 1
0000
0000
0000
0000
,  // measure 2
0002
0000
0000
0000
,  // measure 3
0000
0000
1003
0001
,  // measure 4
2000
0000
0000
0000
,  // measure 5
0000
0000
3001
1000
,  // measure 6
0002
0000
0000
0000
,  // measure 7
0000
0000
1003
0001
,  // measure 8
2000
0000
0000
0000
,  // measure 9
3002
0000
2000
0000
,  // measure 10
3003
0001
1000
0100
,  // measure 11
0100
1000
0001
0100
,  // measure 12
0100
0001
1000
0010
,  // measure 13
0010
1000
0001
0010
,  // measure 14
0001
1000
0001
0010
,  // measure 15
0010
0001
1000
0010
,  // measure 16
0010
1000
0001
1000
,  // measure 17
1000
0000
0000
0000
0001
0000
0100
0000
0000
0010
0000
0000
1000
0000
0000
0001
,  // measure 18
0000
1000
0100
0000
0010
0000
0001
0000
,  // measure 19
0001
0010
0001
1000
,  // measure 20
1000
0010
1000
0001
,  // measure 21
0001
0010
0100
0010
,  // measure 22
0001
1000
0010
0100
,  // measure 23
0100
0010
1000
0001
,  // measure 24
0001
0010
0100
1000
,  // measure 25
1000
0100
0010
0001
,  // measure 26
1000
1001
0000
0000
,  // measure 27
0000
0000
0000
0000
,  // measure 28
0110
1001
0000
0001
,  // measure 29
0000
1000
0000
1100
,  // measure 30
0000
0011
0000
0001
,  // measure 31
0000
0101
0000
0100
,  // measure 32
0000
0110
0000
1010
,  // measure 33
0000
0000
0000
0000
1000
0000
0001
0000
1000
0000
0001
0000
1000
0000
0000
1000
,  // measure 34
0000
1000
0001
0000
0001
0000
0100
0000
,  // measure 35
0100
0010
0010
1000
,  // measure 36
1000
0001
0001
0010
,  // measure 37
0010
0001
0001
1000
,  // measure 38
1000
0010
0100
0001
,  // measure 39
1000
0010
0100
0001
,  // measure 40
1000
1000
0100
0010
,  // measure 41
0001
0000
0000
0000
0010
0000
0001
0000
0000
0001
0000
0000
0100
0000
0000
0010
,  // measure 42
0000
1000
0002
0000
0000
0000
0000
0000
,  // measure 43
0000
0000
0000
0013
,  // measure 44
0001
2000
0000
0000
,  // measure 45
0000
0000
0000
3010
,  // measure 46
1000
0002
0000
0000
,  // measure 47
0000
0000
0000
1003
,  // measure 48
0001
2000
0000
0000
,  // measure 49
0000
3002
0000
2000
,  // measure 50
3003
0000
0000
0000
0001
0000
0000
0000
0100
0000
0000
0000
0010
0000
0000
0010
,  // measure 51
0000
0010
0100
0000
0001
0000
1000
0000
,  // measure 52
0100
0000
1000
0001
1000
0001
1000
0000
,  // measure 53
0000
0001
0100
0001
,  // measure 54
1000
0100
0010
0100
,  // measure 55
1000
0001
0100
0001
,  // measure 56
0010
0001
1000
0100
,  // measure 57
0001
0100
1000
0010
,  // measure 58
0100
0001
0010
0001
,  // measure 59
1000
0001
0100
0001
,  // measure 60
1000
0000
0001
1000
0000
0001
0000
0100
,  // measure 61
0010
1000
0100
1000
,  // measure 62
0001
0100
0001
0010
,  // measure 63
0001
1000
0010
0100
,  // measure 64
0001
0000
1000
0000
0100
0000
0010
0001
,  // measure 65
0010
0001
0100
0010
,  // measure 66
1000
0001
0010
0001
,  // measure 67
1000
1010
0101
1010
,  // measure 68
0101
0001
1000
0010
,  // measure 69
0100
0001
0000
0000
0000
0000
0000
0000
;

//---------------dance-single - Pandemonium X---------------
#NOTEDATA:;
#CHARTNAME:;
#CHARTSTYLE:;
#CREDIT:Pandemonium X;
#STEPSTYPE:dance-single;
#DESCRIPTION:Pandemonium X;
#DIFFICULTY:Hard;
#METER:13;
#METERF:13;
#RADARVALUES:0,0,0,0,0;
#NOTES:
// measure 0
0000
0000
0000
0000
,  // measure 1
0000
0000
0000
0000
,  // measure 2
0002
0000
0000
0000
,  // measure 3
0000
0000
0000
0000
0103
0010
0100
0010
,  // measure 4
2000
0000
0000
0000
,  // measure 5
0000
0000
0000
0000
3100
0010
0100
0010
,  // measure 6
0002
0000
0000
0000
,  // measure 7
0000
0000
0000
0000
0103
0010
1000
0010
,  // measure 8
0200
0000
0000
0000
,  // measure 9
0302
0000
2000
0000
,  // measure 10
3003
0000
0000
0000
0001
0000
1000
0000
0100
0000
0010
0100
0000
1000
0000
0100
,  // measure 11
0000
0000
0000
0000
0010
0000
0001
0000
0100
0000
0010
0100
0000
0001
0000
0100
,  // measure 12
0000
0000
0000
0000
0010
0000
0100
0000
0001
0000
1000
0001
0000
0010
0000
0001
,  // measure 13
0000
0000
1000
0001
0100
0001
1000
0100
,  // measure 14
0010
0000
0001
0000
1000
0000
0001
0000
0010
0000
0100
0010
0000
0001
0000
0010
,  // measure 15
0000
0000
0000
0000
0001
0000
0100
0000
0001
0000
0100
0010
0000
1000
0000
0010
,  // measure 16
0000
0000
0000
0000
0100
0000
0010
0000
1000
0000
0001
1000
0000
0001
0000
1000
,  // measure 17
0000
0000
0000
0000
0100
0000
1100
0000
0000
0011
0000
0000
1100
0000
1000
0001
,  // measure 18
1000
0000
0001
0000
0100
0000
0001
0000
0010
0000
0100
0010
0000
0001
0000
1000
,  // measure 19
0000
0000
0000
0000
0010
0000
1000
0000
0001
0000
1000
0100
0000
0010
0000
0100
,  // measure 20
0000
0000
0000
0000
0010
0000
0100
0000
1000
0000
0010
0100
0000
0010
0000
1000
,  // measure 21
0000
0000
0001
0010
0001
1000
0001
0100
,  // measure 22
0010
0000
1000
0000
0001
0000
0100
0000
0010
0000
1000
0100
0000
0010
0000
0100
,  // measure 23
0000
0000
0000
0000
0010
0000
0001
0000
1000
0000
0010
0100
0000
0010
0000
1000
,  // measure 24
0000
0000
0000
0000
1000
0000
0001
0000
0010
0000
0100
0010
0000
0001
0000
1000
,  // measure 25
0000
0000
0000
0000
0100
0000
0010
0001
0010
0000
0100
1000
0100
0000
0000
0100
,  // measure 26
0000
0100
1001
0000
0000
0000
0000
0000
,  // measure 27
0000
0000
0000
0000
,  // measure 28
0110
0002
0103
0002
,  // measure 29
1003
0000
0000
0002
0000
0000
0013
0000
0000
0100
0000
0010
,  // measure 30
0000
0001
0000
2001
0000
0000
3100
0000
0000
2000
0000
0000
,  // measure 31
3001
1020
0130
0020
,  // measure 32
1030
0102
1003
1200
,  // measure 33
0310
0000
0000
0000
0001
0000
1000
0001
1000
0000
0001
1000
0001
0000
0000
0001
,  // measure 34
0000
0001
1000
0100
1000
0001
0100
0010
,  // measure 35
0100
0001
0010
0100
0010
0001
1000
0010
,  // measure 36
1000
0001
1000
0010
1000
0001
0010
0100
,  // measure 37
0010
0001
0100
0010
0100
0001
1000
0100
,  // measure 38
1000
0001
1000
0100
0010
0001
1000
0100
,  // measure 39
0010
0001
1000
0010
0100
0001
1000
0010
,  // measure 40
0100
0001
1000
1000
0001
0010
0100
0100
,  // measure 41
0010
0000
0001
0000
1000
0000
0001
0000
0000
0010
0000
0000
0110
0000
0000
0100
,  // measure 42
0000
0000
1000
0000
0001
1000
0020
0000
0000
0000
0000
0000
0000
0000
0000
0000
,  // measure 43
0000
0000
0000
0000
0000
0000
0130
0010
,  // measure 44
1000
0000
0001
0000
0010
0100
2000
0000
0000
0000
0000
0000
0000
0000
0000
0000
,  // measure 45
0000
0000
0000
0000
0000
0000
3100
0010
,  // measure 46
0001
0000
0100
0000
0010
1000
0002
0000
0000
0000
0000
0000
0000
0000
0000
0000
,  // measure 47
0000
0000
0000
0000
0000
0000
0013
0100
,  // measure 48
0010
0001
2000
0000
0000
0000
0000
0000
,  // measure 49
0000
3002
0000
2003
,  // measure 50
3001
0000
0000
0000
1000
0100
1000
0100
1000
0100
1000
0100
1000
0000
0000
1000
,  // measure 51
0000
0000
1000
0000
0001
0000
0100
0001
0100
0000
0001
0100
0001
0000
0100
0001
,  // measure 52
0100
0000
0001
0100
0001
0000
0001
0000
0001
0000
0001
0000
0001
0000
1000
0001
,  // measure 53
1000
0001
1000
0100
1000
0001
0100
0001
,  // measure 54
1000
0000
0100
0000
0010
0000
0000
0010
0100
0000
0010
0000
0001
0000
0100
0000
,  // measure 55
0001
0010
0001
0010
0001
0100
0010
1000
,  // measure 56
0010
0000
0100
0000
0001
0000
0000
0001
1000
0000
0100
0000
0010
0100
0000
1000
,  // measure 57
0000
0010
0000
0100
0001
0000
1000
0000
0100
0000
1000
0000
0001
0000
0100
0000
,  // measure 58
0010
0000
1000
0000
0100
0000
0000
0100
0010
0000
0001
0000
1000
0000
0010
0000
,  // measure 59
0100
0010
1000
0001
0010
0001
1000
0100
,  // measure 60
0010
0000
0100
0000
1000
0000
0001
0100
0001
0000
1000
0010
1000
0000
0001
1000
,  // measure 61
0001
0000
1000
0000
0100
0000
0010
0000
0001
0000
0100
0000
0010
0000
1000
0001
,  // measure 62
1000
0000
0100
0000
0010
0000
0000
0010
0100
0000
1000
0000
0001
0000
1000
0001
,  // measure 63
1000
0000
0100
0000
0010
0000
0100
0000
1000
0000
0001
0000
0100
0000
0001
1000
,  // measure 64
0001
0000
0010
0000
0100
0000
0000
0010
0001
0000
1000
0001
1000
0000
1000
0000
,  // measure 65
1000
0000
0001
0000
1000
0000
0100
0000
1000
0000
0010
0000
0100
0000
0001
1000
,  // measure 66
0001
0000
0010
0000
0100
0000
0000
0100
0010
0000
0001
1000
0001
0000
0001
0000
,  // measure 67
0001
1000
0001
0001
0100
0100
0010
0010
,  // measure 68
1000
0000
1000
0000
1010
0000
0000
0101
0000
0000
1010
0000
0000
0001
1000
0000
,  // measure 69
0100
0110
0000
0000
0000
0000
0000
0000
;

//---------------dance-single - Pandemonium X---------------
#NOTEDATA:;
#CHARTNAME:;
#CHARTSTYLE:;
#CREDIT:Pandemonium X;
#STEPSTYPE:dance-single;
#DESCRIPTION:Pandemonium X;
#DIFFICULTY:Challenge;
#METER:16;
#METERF:16;
#RADARVALUES:0,0,0,0,0;
#NOTES:
// measure 0
0000
0000
0000
0000
,  // measure 1
0000
0000
0000
0000
,  // measure 2
1000
0100
0010
0001
1000
0100
0010
0001
,  // measure 3
1000
0100
0010
0001
1000
0010
0100
0001
,  // measure 4
0010
0001
0010
0100
0010
0001
0010
0100
,  // measure 5
0010
0001
0010
0100
0010
0001
0100
0010
,  // measure 6
1000
0010
0100
0010
1000
0010
0100
0010
,  // measure 7
1000
0010
0100
0010
1000
0001
0010
0100
,  // measure 8
1000
0100
0010
0001
1000
0100
0010
0001
,  // measure 9
1000
0010
0100
0001
1000
0100
0010
0001
,  // measure 10
0000
0000
0000
0000
0001
1000
0001
0000
0100
0000
0010
1000
0000
1000
0000
0100
,  // measure 11
0000
0010
0100
0010
0100
1000
0100
0000
1000
0000
0001
0010
0000
0010
0000
0001
,  // measure 12
0000
1000
0001
0100
0001
0010
0001
0000
1000
0000
0100
0010
0000
0010
0000
0100
,  // measure 13
0000
0010
0100
1000
0001
1000
0001
0000
1000
0000
0001
0100
0010
1000
0010
0100
,  // measure 14
0001
1000
0001
0100
0001
0010
0100
0000
0010
0000
0001
0100
0000
0100
0000
0001
,  // measure 15
0000
1000
0100
0010
0001
1000
0100
0000
1000
0000
0001
0010
0000
0010
0000
0100
,  // measure 16
0000
0010
0001
1000
0010
1000
0001
0000
1000
0000
0100
0010
0000
0010
0000
0100
,  // measure 17
0000
0010
0001
1000
0010
0000
1010
0000
0000
0101
0000
0000
1001
0000
0100
0010
,  // measure 18
0100
0000
1001
0000
1000
0100
0010
0000
0010
0000
0100
1000
0000
0001
0000
1001
,  // measure 19
0000
0001
0100
0001
1000
0010
0100
0000
0100
0000
0010
1000
0000
0001
0000
0011
,  // measure 20
0000
0010
0001
1000
0001
0100
0001
0000
0001
0000
1000
0100
0000
0010
0000
0011
,  // measure 21
0000
0001
1000
0100
1000
0001
1000
0000
1000
0000
0100
1000
0100
0010
0001
1000
,  // measure 22
0010
1000
0001
0100
0010
1000
0001
0000
0001
0000
0010
0001
0000
1000
0000
1010
,  // measure 23
0000
0010
0100
0001
1000
0100
1000
0000
1000
0000
0100
1000
0000
0001
0000
0101
,  // measure 24
0000
0100
0010
1000
0001
0010
0100
0000
0100
0000
1000
0001
0000
1000
0000
1010
,  // measure 25
0000
1000
0100
0010
0001
0000
2000
3100
0010
0000
0200
0310
0001
1000
0001
1000
,  // measure 26
0010
0100
0001
1000
0001
0000
0000
1000
0001
0000
1000
0000
0001
0000
0000
1000
,  // measure 27
0001
0000
1000
0000
0001
0000
0000
1000
0001
0000
1000
0000
0001
0000
0000
0000
,  // measure 28
1001
0000
0000
0101
0000
0001
0000
0001
0000
1000
0000
1000
,  // measure 29
0000
1000
0000
0010
0000
0010
0000
0010
0000
0110
0000
1010
,  // measure 30
0000
0101
0000
1001
0000
1000
0000
1000
0000
0001
0000
0001
,  // measure 31
0000
0001
0000
0011
0000
0010
0000
0010
0000
0100
0000
0100
,  // measure 32
0000
0100
0000
1100
0000
1000
0000
0100
0000
0110
0000
0010
,  // measure 33
0000
0000
0000
0000
0001
0000
0000
0000
0000
0000
0000
0000
1001
0000
0000
0000
0000
0000
0002
0000
0000
0103
0000
0000
0010
0000
0000
0000
0000
0000
2000
0000
0000
3001
0000
0000
0100
0000
0000
0000
0000
0000
0000
0000
0000
0100
0000
0000
,  // measure 34
0000
0000
0100
0000
0001
0000
1000
0100
1000
0000
0001
0100
0001
0000
1000
0100
,  // measure 35
1000
0000
0001
0000
1000
0000
0001
0010
0001
0000
1000
0010
1000
0000
0001
0010
,  // measure 36
0001
0000
1000
0000
0001
0000
1000
0010
1000
0000
0001
0100
0001
0000
1000
0010
,  // measure 37
1000
0000
0001
0000
1000
0000
0100
1000
0100
0000
0010
0001
0010
0000
0100
1000
,  // measure 38
0100
0000
1000
0000
0001
0000
0001
0100
0010
0000
0010
1000
0001
0000
0001
0010
,  // measure 39
0100
0000
0010
0000
0001
0000
0001
1000
0010
0000
0010
0100
0001
0000
0001
1000
,  // measure 40
0100
0000
0010
0000
0100
0000
0100
0010
0001
0000
0001
1000
0010
0000
0010
1000
,  // measure 41
0001
0000
1000
0000
0100
0000
1100
0000
0000
1001
0000
0000
0001
0200
0000
0310
,  // measure 42
0000
0000
1010
0000
1000
0001
0020
0000
0000
0000
0000
0000
0000
0000
0000
0000
,  // measure 43
0000
0000
0000
0000
0000
0000
0130
0010
,  // measure 44
0001
0000
1000
0000
0010
1000
0002
0000
0000
0000
0000
0000
0000
0000
0000
0000
,  // measure 45
0000
0000
0000
0000
0000
0000
1003
0001
,  // measure 46
0100
0000
0010
0000
1000
0001
0200
0000
0000
0000
0000
0000
0000
0000
0000
0000
,  // measure 47
0000
0000
0000
0000
0000
0000
0310
0100
,  // measure 48
0001
1000
0020
0000
0000
0000
0000
0000
,  // measure 49
0000
0230
0000
0302
,  // measure 50
1003
0000
0000
0000
0001
0100
0010
1000
0100
0010
0001
1000
0200
0300
0000
0200
,  // measure 51
0300
0000
0200
0300
1000
0000
0001
0100
0010
0000
0010
1000
0100
0000
0100
0010
,  // measure 52
0001
0000
0001
1000
0001
0000
0001
0000
0001
0000
0001
0000
0001
0000
0010
1000
,  // measure 53
0010
0000
0001
0000
1000
0000
0001
0010
0000
0001
0010
0001
0000
1000
0000
0100
,  // measure 54
0000
0010
0100
1000
0020
0000
0000
0130
0001
0000
0010
0000
0001
0000
0100
0000
,  // measure 55
0001
0000
1000
0000
0001
0000
1000
0100
0000
0100
1000
0001
0000
0001
0000
0010
,  // measure 56
0000
0100
0010
0001
0020
0000
0000
0130
0010
0000
0100
0000
1000
0010
0000
0100
,  // measure 57
0000
0010
0000
1000
0010
0000
0100
0010
0000
1000
0001
0010
0000
0100
0000
0010
,  // measure 58
0000
0100
1000
0001
0200
0000
0000
0310
1000
0000
0100
0000
1000
0000
0010
0000
,  // measure 59
1000
0000
0001
0000
1000
0000
0100
0010
0000
0100
1000
0001
0000
0100
0000
0001
,  // measure 60
0000
1000
0001
0010
0100
0000
0020
0031
0100
0000
0020
1030
0100
0000
0100
0001
,  // measure 61
0100
0000
1000
0000
0001
0000
0100
0010
0000
1000
0100
0010
0000
0100
0001
0100
,  // measure 62
1000
0000
0010
0100
0002
0000
0000
1003
0010
0000
1000
0000
0100
0000
0010
1000
,  // measure 63
0010
0000
0001
0000
1000
0000
0100
1000
0000
0010
1000
0001
0000
1000
0010
0001
,  // measure 64
0010
0000
0100
0010
2000
0000
0000
3001
0010
0000
0100
0001
0100
0000
1000
0000
,  // measure 65
0100
0000
0001
0000
0100
0000
0010
0100
0000
0010
0001
1000
0000
0001
0100
1000
,  // measure 66
0100
0000
0010
1000
0002
0000
0000
1003
0100
0000
0010
1000
0010
0000
0100
0000
,  // measure 67
0010
0001
1000
0010
0001
0010
1000
0010
,  // measure 68
0001
0000
0010
0000
1010
0000
0000
0101
0000
0000
0011
0000
0000
0010
0100
0000
,  // measure 69
0110
1001
0000
0000
0000
0000
0000
0000
;

//---------------dance-single - Panmdemonium X---------------
#NOTEDATA:;
#CHARTNAME:;
#CHARTSTYLE:;
#CREDIT:Pandemonium X;
#STEPSTYPE:dance-single;
#DESCRIPTION:Panmdemonium X;
#DIFFICULTY:Medium;
#METER:11;
#METERF:11;
#RADARVALUES:0,0,0,0,0;
#NOTES:
// measure 0
0000
0000
0000
0000
,  // measure 1
0000
0000
0000
0000
,  // measure 2
0002
0000
0000
0000
,  // measure 3
0000
0000
0103
0001
,  // measure 4
2000
0000
0000
0000
,  // measure 5
0000
0000
3100
1000
,  // measure 6
0002
0000
0000
0000
,  // measure 7
0000
0000
1003
0001
,  // measure 8
0020
0000
0000
0000
,  // measure 9
0032
0000
0200
0000
,  // measure 10
0303
0000
0010
1000
0010
0000
1000
0000
,  // measure 11
0001
0000
0010
0001
0010
0000
0001
0000
,  // measure 12
1000
0000
0100
1000
0100
0000
1000
0000
,  // measure 13
0001
0000
0100
0001
0100
0000
0001
0100
,  // measure 14
1000
0100
0001
1000
0001
0000
1000
0000
,  // measure 15
0100
0000
0010
0001
0010
0000
0001
0000
,  // measure 16
0100
0000
0010
1000
0010
0000
1000
0000
,  // measure 17
0001
0000
0000
0000
1000
0000
0001
0000
0000
0100
0000
0000
0010
0000
1000
0001
,  // measure 18
1000
0001
1000
0100
0010
0000
0100
0000
,  // measure 19
1000
0000
0001
0010
0100
0000
0010
0000
,  // measure 20
0001
0000
0100
0001
0010
0000
0001
0000
,  // measure 21
1000
0000
0100
1000
0010
0000
0001
0010
,  // measure 22
1000
0010
0100
0001
1000
0000
0100
0000
,  // measure 23
0010
0000
0100
1000
0001
0000
0100
0000
,  // measure 24
0010
0000
0100
0001
1000
0000
0100
0000
,  // measure 25
0010
0000
0001
0011
0000
1100
1000
0100
,  // measure 26
0010
0001
1001
0000
0000
0000
0000
0000
,  // measure 27
0000
0000
0000
0000
,  // measure 28
0110
1001
0000
0001
,  // measure 29
0000
1000
0000
1100
,  // measure 30
0000
1001
0000
0001
,  // measure 31
0000
0011
0000
1000
,  // measure 32
0000
1001
0000
1001
,  // measure 33
0000
0000
0000
0000
0001
0000
0100
0000
1000
0000
0100
0000
0001
0000
0000
0001
,  // measure 34
0000
0001
1000
0100
1000
0000
0100
0010
,  // measure 35
0100
0000
0010
0001
0010
0000
0001
0100
,  // measure 36
0001
0000
0100
0010
0100
0000
0010
1000
,  // measure 37
0010
0000
1000
0001
1000
0000
0001
0010
,  // measure 38
0001
0000
0100
0001
0100
0000
0010
1000
,  // measure 39
0010
0000
0100
0001
0100
0000
0010
1000
,  // measure 40
0010
0000
1000
0100
1000
0000
0001
0010
,  // measure 41
0001
0000
0000
0000
1000
0000
0100
0000
0000
1000
0000
0000
0001
0000
0000
0100
,  // measure 42
0000
0010
2000
0000
0000
0000
0000
0000
,  // measure 43
0000
0000
0000
3010
,  // measure 44
0100
0000
0001
0002
0000
0000
0000
0000
,  // measure 45
0000
0000
0000
0013
,  // measure 46
0100
0000
0010
0020
0000
0000
0000
0000
,  // measure 47
0000
0000
0000
0130
,  // measure 48
1000
0020
0000
0000
,  // measure 49
0000
2030
0000
3002
,  // measure 50
0100
0000
0000
0000
1003
0000
0100
0000
1000
0000
0100
0000
1000
0000
0000
1000
,  // measure 51
0000
1000
1001
0000
0110
0000
1001
0000
,  // measure 52
0110
0000
0001
0001
0001
0001
0001
0000
,  // measure 53
0000
0100
0001
1000
,  // measure 54
0100
0000
0000
0000
0010
0000
0000
0010
0100
0000
0000
0000
1000
0000
0000
0000
,  // measure 55
0001
0100
0001
1000
,  // measure 56
0010
0000
0000
0000
0100
0000
0000
0001
0100
0000
0001
0000
1000
0000
0000
0000
,  // measure 57
0100
0110
0010
0001
,  // measure 58
0100
0000
0000
0000
0010
0000
0000
0010
0100
0000
0000
0000
0001
0000
0000
0000
,  // measure 59
1000
0010
1000
0100
,  // measure 60
1000
0000
0001
0101
0000
1010
0000
1000
,  // measure 61
0001
1000
0100
0000
1000
0000
0010
1000
,  // measure 62
0100
1000
0001
0000
0100
0000
0010
0100
,  // measure 63
0001
0010
0001
0000
1000
0000
0001
1000
,  // measure 64
0100
1000
0010
0000
0100
0001
1000
1000
,  // measure 65
1000
0001
1000
0000
0001
0000
0010
0001
,  // measure 66
0100
0001
1000
0000
0001
1000
0010
1000
,  // measure 67
0100
1000
0001
1000
0001
1000
0001
1000
,  // measure 68
0001
0000
1000
0000
0001
0000
0000
0100
0000
0000
0010
0000
0000
1000
0100
0000
,  // measure 69
1000
1001
0000
0000
0000
0000
0000
0000
;
