#VERSION:0.83;
#TITLE:Session 9 -Chronicles-;
#SUBTITLE:;
#ARTIST:PRASTIK DANCEFLOOR;
#TITLETRANSLIT:;
#SUBTITLETRANSLIT:;
#ARTISTTRANSLIT:;
#GENRE:;
#CREDIT:;
#MUSIC:Session 9 -Chronicles-.ogg;
#BANNER:;
#BACKGROUND:;
#JACKET:;
#DISCIMAGE:;
#CDIMAGE:;
#SELECTABLE:YES;
#LYRICSPATH:;
#CDTITLE:;
#SAMPLESTART:85.724998;
#SAMPLELENGTH:19.306000;
#OFFSET:1.601;
#BPMS:0.000000=182.000000,
64.000000=91.000000,
72.000000=189.000000,
206.000000=94.500000,
209.000000=189.000000,
351.000000=94.500000
;
#STOPS:209.000000=0.952000;
#WARPS:;
#DELAYS:;
#SPEEDS:0.000000=1.000000=0.000000=0;
#SCROLLS:0.000000=1.000000;
#TICKCOUNTS:0.000000=4;
#TIMESIGNATURES:0.000000=4=4;
#LABELS:0.000000=Song Start;
#COMBOS:0.000000=1;
#FAKES:;
#BGCHANGES:4=Session 9 -Chronicles-.mp4=1.000000=0=0=1=====,
99999=-nosongbg-=1.000000=0=0=0=====
;
#FGCHANGES:;
#ATTACKS:;
#TAGS:;
#PREVIEWVID:;
#KEYSOUNDS:;

//---------------dance-single - Pandemonium X---------------
#NOTEDATA:;
#CHARTNAME:;
#CHARTSTYLE:;
#CREDIT:Pandemonium X;
#STEPSTYPE:dance-single;
#DESCRIPTION:Pandemonium X;
#DIFFICULTY:Easy;
#METER:8;
#METERF:0;
#RADARVALUES:0.282614,0.357192,0.065129,0.227952,0.000000,243.000000,235.000000,8.000000,28.000000,0.000000,0.000000,0.000000,0.000000,0.000000,0.282614,0.357192,0.065129,0.227952,0.000000,243.000000,235.000000,8.000000,28.000000,0.000000,0.000000,0.000000,0.000000,0.000000;
#CHARTHASH:1555948411;
#BANNER:;
#LASTSECONDHINT:115.248444;
#NOTES:
// measure 0
0000
0000
0000
0000
,  // measure 1
0000
0000
0000
0000
,  // measure 2
0000
0000
0000
0000
,  // measure 3
0000
0000
0000
0000
,  // measure 4
0000
0000
0000
0000
,  // measure 5
0000
0000
0000
0000
,  // measure 6
0000
1000
0200
0000
,  // measure 7
0300
1000
0200
0000
,  // measure 8
0300
0010
0100
1000
,  // measure 9
0010
0100
1000
0100
,  // measure 10
0001
1000
0020
0000
,  // measure 11
0030
1000
0020
0000
,  // measure 12
0030
0100
0010
1000
,  // measure 13
0100
0001
0100
0010
,  // measure 14
0002
0103
0020
0130
,  // measure 15
0200
0310
2000
0002
,  // measure 16
0000
0000
0000
0000
,  // measure 17
0000
0000
3003
0000
,  // measure 18
1000
0000
0000
1000
0000
0000
0001
0000
,  // measure 19
1000
0001
1000
0100
,  // measure 20
0010
0000
0000
0010
0000
0000
0001
0000
,  // measure 21
0010
0001
0100
0010
,  // measure 22
1000
0000
0000
1000
0000
0000
0100
0000
,  // measure 23
0010
0100
0010
0001
,  // measure 24
0100
0000
0000
0100
0000
0000
0010
0000
,  // measure 25
0100
0001
0100
0010
,  // measure 26
1000
0000
0000
0100
0000
0000
0010
0000
,  // measure 27
0100
1000
0010
0100
,  // measure 28
0001
0000
0000
0010
0000
0000
0100
0000
,  // measure 29
0010
0001
0100
0010
,  // measure 30
0100
0000
0000
0001
0000
0000
0010
0000
,  // measure 31
0100
0010
0001
1000
,  // measure 32
0100
0000
0000
1000
0000
0000
0010
0000
,  // measure 33
0200
0000
0000
0000
,  // measure 34
0310
0000
0100
0000
,  // measure 35
0001
0000
1000
0000
,  // measure 36
0100
0000
0010
0000
,  // measure 37
0100
0000
1000
0000
,  // measure 38
0001
0000
0010
0000
,  // measure 39
0100
0000
0010
0000
,  // measure 40
0002
0000
0000
0000
,  // measure 41
0003
1000
0100
1000
,  // measure 42
0001
0000
0100
0000
,  // measure 43
0010
0000
1000
0000
,  // measure 44
0001
0000
0010
0000
,  // measure 45
0001
0000
1000
0000
,  // measure 46
0100
0000
1000
0000
,  // measure 47
0010
0000
0100
0000
,  // measure 48
0020
0000
0000
0000
,  // measure 49
0030
0100
0010
1000
,  // measure 50
0001
0000
0000
1000
0000
0000
0100
0000
,  // measure 51
0000
0010
0000
0000
0022
0000
0000
0000
,  // measure 52
0000
0033
0002
0000
,  // measure 53
2003
0000
3020
0000
,  // measure 54
0230
0000
0302
0000
,  // measure 55
0203
0000
0320
0000
,  // measure 56
2030
0100
3001
0001
,  // measure 57
1000
1000
0010
0010
,  // measure 58
0100
0100
2002
0000
,  // measure 59
0000
3003
0002
0000
,  // measure 60
2003
0000
0000
0000
3100
0000
0000
0100
,  // measure 61
0000
0000
0010
0000
0000
0010
0000
0000
,  // measure 62
0001
0000
0000
0001
0000
0000
1000
0000
,  // measure 63
0000
1000
0000
0000
0001
0000
0000
1000
,  // measure 64
0100
0010
0001
0000
1000
0000
0001
0000
,  // measure 65
0100
0001
1000
1000
,  // measure 66
0001
0001
0010
0001
,  // measure 67
0100
0010
1000
0100
,  // measure 68
0020
0000
0000
0000
0130
0000
0000
1100
,  // measure 69
0000
0000
0000
0000
1000
0000
0000
1010
,  // measure 70
0000
0000
0000
0000
0010
0000
0000
0110
,  // measure 71
0000
0000
0100
0010
,  // measure 72
1000
0001
0010
0001
,  // measure 73
1000
0100
0010
0100
,  // measure 74
1000
0001
0100
0010
,  // measure 75
0001
0010
0100
0001
,  // measure 76
0020
0000
0000
0000
0130
0000
0000
1100
,  // measure 77
0000
0000
0000
0000
0100
0000
0000
0110
,  // measure 78
0000
0000
0000
0000
0001
0000
0000
0011
,  // measure 79
0000
0000
0001
0100
,  // measure 80
0010
1000
0001
0010
,  // measure 81
0001
1000
0100
0010
,  // measure 82
0100
1000
0001
0010
,  // measure 83
0100
0010
0001
0001
,  // measure 84
0100
0010
1000
1000
,  // measure 85
0100
0010
0100
0100
,  // measure 86
0010
0100
0010
0010
,  // measure 87
0100
0000
1000
0000
0001
0100
0010
0000
;

//---------------dance-single - Pandemonium X---------------
#NOTEDATA:;
#CHARTNAME:;
#CHARTSTYLE:;
#CREDIT:Pandemonium X;
#STEPSTYPE:dance-single;
#DESCRIPTION:Pandemonium X;
#DIFFICULTY:Medium;
#METER:12;
#METERF:0;
#RADARVALUES:0.454741,0.579649,0.138399,0.602444,0.113976,391.000000,374.000000,17.000000,74.000000,0.000000,0.000000,0.000000,0.000000,0.000000,0.454741,0.579649,0.138399,0.602444,0.113976,391.000000,374.000000,17.000000,74.000000,0.000000,0.000000,0.000000,0.000000,0.000000;
#CHARTHASH:3231750113;
#BANNER:;
#LASTSECONDHINT:118.423050;
#NOTES:
// measure 0
0000
0000
0000
0000
,  // measure 1
0000
0000
0000
0000
,  // measure 2
0000
0000
0000
0000
,  // measure 3
0000
0000
0000
0000
,  // measure 4
0000
0000
0000
0000
,  // measure 5
0000
0000
0000
0000
,  // measure 6
1100
0200
0020
0330
,  // measure 7
0011
0020
0200
0330
,  // measure 8
1001
0000
0000
0001
0000
0000
1000
0000
0100
0000
1000
0000
,  // measure 9
0100
0010
0001
0100
,  // measure 10
1010
0000
0000
1000
0001
1000
0002
0000
0000
0000
0000
0000
,  // measure 11
0003
0000
0000
1000
0001
1000
0002
0000
0000
0000
0000
0000
,  // measure 12
0003
0000
0000
1000
0000
0000
0100
0000
0010
0000
0001
0000
,  // measure 13
0100
0010
1000
0001
,  // measure 14
1200
0310
0021
0130
,  // measure 15
2100
0000
0000
0000
3001
0000
0000
0000
0102
0000
0000
0000
2003
0000
0000
0200
,  // measure 16
0000
0000
0000
0000
,  // measure 17
0000
0000
0000
3000
,  // measure 18
0310
0000
0010
0001
0000
0001
2000
0000
,  // measure 19
3010
0000
0100
0000
0001
0000
1000
0100
,  // measure 20
0010
0000
0100
1000
0000
1000
0002
0000
,  // measure 21
0103
0000
0001
1000
0100
1000
0100
0010
,  // measure 22
0001
0000
0010
0100
0000
0100
2000
0000
,  // measure 23
3010
0000
0100
0000
0001
0000
0010
0001
,  // measure 24
1000
0000
0001
0010
0000
0010
0100
0000
,  // measure 25
0010
0001
0100
0001
1000
1010
0000
0000
,  // measure 26
0020
0000
0130
0020
0000
1030
0200
0000
,  // measure 27
0310
0100
1000
0001
,  // measure 28
0020
0000
0130
0020
0000
0031
2000
0000
,  // measure 29
3010
0000
0100
0001
1000
0001
1000
0100
,  // measure 30
0020
0000
0130
0020
0000
0031
2000
0000
,  // measure 31
3010
0000
0100
0000
0001
0000
0010
0001
,  // measure 32
2000
0000
3001
2000
0000
3100
0020
0000
,  // measure 33
0031
0000
0000
0001
0000
0000
1000
0000
0000
1000
0000
0000
0010
0000
0100
0000
,  // measure 34
0001
1000
0200
1300
,  // measure 35
0020
0130
0002
0013
,  // measure 36
0002
1003
0200
1300
,  // measure 37
0002
0103
0020
1030
,  // measure 38
0002
0013
0200
0310
,  // measure 39
0002
0103
0020
1030
,  // measure 40
0200
0000
0000
0000
,  // measure 41
0300
0010
0100
1000
0010
0100
0001
0010
,  // measure 42
0100
1000
0020
0130
,  // measure 43
0002
1003
0200
1300
,  // measure 44
0002
0013
0002
0103
,  // measure 45
0020
0130
0002
1003
,  // measure 46
0200
0310
0002
1003
,  // measure 47
0020
0130
0002
1003
,  // measure 48
0002
0000
0000
0000
,  // measure 49
0003
1000
0100
0010
0100
1000
0001
0100
,  // measure 50
0010
1000
0100
0020
0000
0130
2000
0000
,  // measure 51
3001
0200
0000
0301
0020
0000
0000
0000
,  // measure 52
0000
0030
0200
0000
,  // measure 53
2300
0000
3020
0000
,  // measure 54
0230
0000
0000
0001
0302
0000
0000
0000
,  // measure 55
2003
0000
3020
0000
,  // measure 56
2030
3001
0101
0100
,  // measure 57
0110
0010
1010
1000
,  // measure 58
1100
0000
1000
0000
0002
0000
0000
1000
,  // measure 59
0000
0000
0000
0000
1000
0003
0000
0000
0201
0000
0000
0000
0000
0000
0000
0000
,  // measure 60
0320
0000
0000
0000
1030
0000
0000
0100
,  // measure 61
0000
0000
0010
0000
0000
0001
0000
0000
,  // measure 62
0100
0000
0000
0010
0000
0000
1000
0000
,  // measure 63
0000
0001
0000
0000
1000
0200
0000
0310
,  // measure 64
0100
1000
1001
0000
0001
0100
0010
1000
,  // measure 65
0100
0000
0010
0000
0001
0000
0010
0000
0001
0000
0000
0001
0000
0000
0001
0000
,  // measure 66
1000
0000
0000
1000
0000
0000
1000
0000
0010
0000
0000
0100
0000
0000
0001
0000
,  // measure 67
1000
0000
0100
0000
1000
0000
0001
0000
0100
0000
0000
0100
0000
0000
0200
0000
,  // measure 68
0000
0000
0000
0000
0310
0000
0000
1020
,  // measure 69
0000
0100
0130
0000
0001
0000
0000
0021
,  // measure 70
0000
0100
0130
0000
0100
0000
1000
0000
,  // measure 71
0001
0000
0000
0000
0100
0000
0000
0000
0010
0000
0000
0000
0100
0000
0000
0001
,  // measure 72
0100
0000
0000
0010
1000
0000
0000
0000
0100
0000
0010
0000
0001
0000
1000
0000
,  // measure 73
0010
0000
1000
0000
0100
0000
0010
0000
0001
0000
0000
0001
0000
0000
0001
0000
,  // measure 74
0100
0000
0000
0100
0000
0000
0010
0000
1000
0000
0000
0100
0000
0000
0010
0000
,  // measure 75
0100
0000
1000
0000
0001
0000
0100
0000
0010
0000
0000
1000
0000
0000
0002
0000
,  // measure 76
0000
0000
0000
0000
0000
0000
0000
0000
1003
0000
0000
1000
0000
0000
1000
0000
,  // measure 77
0100
0000
0000
0100
0000
0000
0100
0000
0010
0000
0000
0010
0000
0000
0010
0000
,  // measure 78
0001
0000
0000
0001
0000
0000
0001
0000
0100
0000
0000
0010
0000
0000
1000
0000
,  // measure 79
0001
0000
0000
0010
0000
0000
0100
0000
1000
0000
0100
0000
0010
0000
0000
0000
,  // measure 80
0100
0010
0001
0000
0010
0100
1000
0000
,  // measure 81
0010
0100
0001
0000
0100
0010
1000
0000
,  // measure 82
0001
0010
0100
0000
0010
0001
0100
0000
,  // measure 83
0010
1000
0100
0000
0010
0100
1000
0000
,  // measure 84
0100
0010
0001
0000
0100
0010
1000
0000
,  // measure 85
0001
0010
0100
0000
0010
0001
0100
0000
,  // measure 86
0010
1000
0001
0000
1000
0100
0010
0001
,  // measure 87
0010
0100
1000
0010
0200
0302
0023
0000
,  // measure 88
0000
0000
0000
0000
,  // measure 89
0030
0000
0000
0000
;

//---------------dance-single - Pandemonium X---------------
#NOTEDATA:;
#CHARTNAME:;
#CHARTSTYLE:;
#CREDIT:Pandemonium X;
#STEPSTYPE:dance-single;
#DESCRIPTION:Pandemonium X;
#DIFFICULTY:Hard;
#METER:15;
#METERF:0;
#RADARVALUES:0.668736,0.903157,0.081411,0.667573,0.427410,575.000000,565.000000,10.000000,82.000000,0.000000,0.000000,0.000000,0.000000,0.000000,0.668736,0.903157,0.081411,0.667573,0.427410,575.000000,565.000000,10.000000,82.000000,0.000000,0.000000,0.000000,0.000000,0.000000;
#CHARTHASH:2735823026;
#BANNER:;
#LASTSECONDHINT:117.788124;
#NOTES:
// measure 0
0000
0000
0000
0000
,  // measure 1
0000
0000
0000
0000
,  // measure 2
0000
0000
0000
0000
,  // measure 3
0000
0000
0000
0000
,  // measure 4
0000
0000
0000
0000
,  // measure 5
0000
0000
0000
0000
,  // measure 6
0000
0000
0000
0001
0100
0001
2000
0000
0000
3100
0000
0000
,  // measure 7
1100
0000
0000
1000
0100
1000
0002
0000
0000
0103
0000
0000
,  // measure 8
0101
0000
0000
0001
0100
0001
1000
0010
1000
0001
0010
0001
,  // measure 9
1000
0100
1000
0001
0010
0001
0100
0001
1000
0010
0100
0010
,  // measure 10
2000
0000
0000
3100
0010
1000
0020
0000
0000
0031
0000
0000
,  // measure 11
0101
0000
0000
0100
0010
0001
0020
0000
0000
1030
0000
0000
,  // measure 12
0101
0000
0000
0001
0100
0001
1000
0001
1000
0001
0010
0001
,  // measure 13
1000
0100
1000
0010
1000
0010
0100
0001
0100
0010
0100
0010
,  // measure 14
1000
0100
0010
0002
0000
0000
0013
0100
1000
0002
0000
0000
,  // measure 15
0103
0010
1000
0002
0000
0000
0013
0100
0010
0001
1000
0020
,  // measure 16
0000
0000
0000
0000
,  // measure 17
0000
0000
0000
0000
,  // measure 18
0130
0001
1000
0100
0000
0010
0100
1000
,  // measure 19
0001
1000
0010
0100
0001
0100
0001
1000
,  // measure 20
0100
1000
0001
0010
0000
0100
0010
0001
,  // measure 21
1000
0010
0100
0001
0100
0001
0100
0001
,  // measure 22
1000
0010
0001
0010
0000
0100
1000
0010
,  // measure 23
0100
0001
0100
0010
1000
0010
1000
0001
,  // measure 24
1000
0100
0001
0100
0000
0010
0001
0010
,  // measure 25
0100
1000
0010
0100
0001
0101
0000
0000
,  // measure 26
2000
0000
3100
2000
0000
3010
2000
0000
,  // measure 27
3001
0100
0010
1000
0010
1000
0010
1000
,  // measure 28
0002
0000
0013
0002
0000
1003
0002
0000
,  // measure 29
1003
0010
0100
0001
0010
0001
0010
0001
,  // measure 30
0200
0000
1300
0200
0000
0310
0200
0000
,  // measure 31
0301
0100
0010
1000
0100
0010
0001
1000
,  // measure 32
0200
0000
0301
0200
0000
1300
0200
0000
,  // measure 33
0310
0000
0000
0100
0000
0000
1000
0000
0000
0010
0000
0000
0100
0000
0001
1000
,  // measure 34
0001
1000
0100
0010
0002
0000
0013
0100
,  // measure 35
2000
0000
3001
0100
0020
0000
0130
0001
,  // measure 36
2000
0000
3001
0010
0200
0000
0310
0001
,  // measure 37
2000
0000
3010
0100
0002
0000
0103
0010
,  // measure 38
2000
0000
3001
0010
0200
0000
0310
0001
,  // measure 39
2000
0000
3010
0100
0020
0000
0130
0001
,  // measure 40
2000
0000
0100
0000
0100
0000
3100
1000
,  // measure 41
0000
0000
0100
1000
0100
0010
0100
0010
0001
0010
0001
1000
0010
1000
0001
0100
,  // measure 42
0001
0100
0010
1000
0200
0000
0301
0010
,  // measure 43
2000
0000
3010
0100
2000
0000
3010
0001
,  // measure 44
0020
0000
0130
1000
0200
0000
0310
1000
,  // measure 45
0002
0000
0013
0100
2000
0000
3001
0100
,  // measure 46
0020
0000
0031
0010
2000
0000
3100
0001
,  // measure 47
0200
0000
1300
0100
0002
0000
0103
1000
,  // measure 48
0020
0000
0100
0000
0100
0000
0130
0010
,  // measure 49
0000
0000
0100
0001
0100
0001
1000
0001
1000
0100
1000
0001
2000
0000
0000
0000
,  // measure 50
3100
0010
0001
0021
0000
0130
2100
0000
,  // measure 51
3010
0210
0000
0310
2002
0000
0000
0000
,  // measure 52
0000
3003
0002
0000
,  // measure 53
0203
0320
2000
0030
,  // measure 54
3200
0320
0002
0030
,  // measure 55
0023
0000
0002
0030
2000
0000
0003
0000
,  // measure 56
3002
0000
0000
0203
0000
0000
0310
0000
0010
0100
0000
0100
,  // measure 57
0001
0000
0001
1000
0000
1000
0100
0000
0100
0010
0000
0010
,  // measure 58
0001
0000
0000
0000
0000
0000
0000
0000
0001
0000
0000
0000
0100
0000
0000
0000
0000
0000
0000
0000
0010
0000
0000
0000
1000
0000
0000
0001
0000
0000
1000
0000
0000
0001
0000
0000
0010
0000
0000
0100
0000
0000
0010
0000
0000
0100
0000
0000
,  // measure 59
1000
0010
0100
0010
0100
0001
0100
0001
2000
0000
0000
0000
0000
0000
0000
0000
,  // measure 60
0002
0000
3000
0000
0203
0000
1300
0200
,  // measure 61
0000
0301
0020
0000
1030
0020
0000
0031
,  // measure 62
2000
0000
3100
0020
0000
0031
2000
0000
,  // measure 63
3001
0000
0200
0000
0000
0000
0310
1000
0010
0000
2000
0000
0000
3000
0001
1000
,  // measure 64
0001
0100
0001
0000
0101
0000
0000
0000
1000
0000
0010
0000
0100
0000
0001
1000
,  // measure 65
0000
0001
1000
0000
0100
0000
1000
0000
0010
0000
0000
0010
0000
0000
0010
0000
,  // measure 66
0100
0000
0000
0100
0000
0000
0100
0000
0001
0000
1000
0001
0000
1000
0001
0000
,  // measure 67
0010
0000
0100
0000
0010
0000
0001
0000
1000
0000
0010
1000
0000
0010
1000
0000
,  // measure 68
0002
0000
0010
0000
1003
0100
1000
0001
,  // measure 69
0100
0001
1000
0010
1000
0001
0010
0001
,  // measure 70
1000
0100
0010
0001
0010
0001
0100
0010
,  // measure 71
1000
0001
0010
0100
0010
0001
0100
0010
,  // measure 72
1000
0000
0100
0000
0010
0000
0100
0000
1000
0000
0001
0000
0100
0000
0010
0100
,  // measure 73
0000
0010
0100
0000
0001
0000
0100
0000
0010
0000
0000
0010
0000
0000
0010
0000
,  // measure 74
0100
0000
0000
0100
0000
0000
0100
0000
0001
0000
1000
0001
0000
1000
0001
0000
,  // measure 75
0010
0000
0100
0000
0010
0000
0001
0000
1000
0000
0000
0001
0000
0000
0100
0000
,  // measure 76
0020
0000
0000
0000
0100
0000
0000
0000
2030
0000
0000
3100
0000
0000
0010
0000
,  // measure 77
0002
0000
0000
0103
0000
0000
0010
0000
2000
0000
0000
3100
0000
0000
0010
0000
,  // measure 78
0002
0000
0000
0103
0000
0000
0010
0000
2000
0000
0000
3001
0000
0000
0010
0000
,  // measure 79
0100
0000
0100
1000
0000
0100
0010
0000
0001
0000
0100
0000
0001
0000
0100
0000
,  // measure 80
0010
1000
0001
0010
0100
1000
0100
1000
,  // measure 81
0100
0010
0001
1000
0010
0100
0010
0100
,  // measure 82
0001
1000
0100
1000
0001
0010
0001
0010
,  // measure 83
0100
0010
0001
1000
0010
0100
0010
0100
,  // measure 84
0001
1000
0100
0010
0001
0010
0001
0100
,  // measure 85
0010
1000
0010
0100
0001
1000
0100
0010
,  // measure 86
0100
1000
0001
0100
0010
1000
0100
0010
,  // measure 87
0001
0000
0010
0000
0100
0000
1000
0000
0001
0100
0010
1000
0200
0000
0000
0000
,  // measure 88
0000
0000
0000
0300
;

//---------------dance-single - Pandemonium X---------------
#NOTEDATA:;
#CHARTNAME:;
#CHARTSTYLE:;
#CREDIT:Pandemonium X;
#STEPSTYPE:dance-single;
#DESCRIPTION:Pandemonium X;
#DIFFICULTY:Challenge;
#METER:17;
#METERF:0;
#RADARVALUES:0.910644,1.195526,0.195387,0.545456,0.972866,783.000000,759.000000,24.000000,67.000000,0.000000,0.000000,2.000000,0.000000,0.000000,0.910644,1.195526,0.195387,0.545456,0.972866,783.000000,759.000000,24.000000,67.000000,0.000000,0.000000,2.000000,0.000000,0.000000;
#CHARTHASH:903107656;
#BANNER:;
#LASTSECONDHINT:118.423050;
#NOTES:
// measure 0
0000
0000
0000
0000
,  // measure 1
0000
0000
0000
0000
,  // measure 2
0000
0000
0000
0000
,  // measure 3
0000
0000
0000
0000
,  // measure 4
0000
0000
0000
0000
,  // measure 5
0000
0000
0000
0000
,  // measure 6
1001
0000
0000
0001
0001
1000
0020
0000
0000
0100
0000
0000
,  // measure 7
1030
0000
0000
0100
0100
0010
0002
0000
0000
0010
0000
0000
,  // measure 8
1003
0000
0000
0001
0001
0001
0100
0100
0100
0010
0010
0010
,  // measure 9
1000
1000
1000
0100
0100
0100
0010
0010
0010
0001
0001
0001
,  // measure 10
1000
0000
0000
0100
0010
0001
0200
0000
0000
0310
1000
0001
,  // measure 11
0011
0000
0000
0010
0001
1000
0200
0000
0000
0310
0100
1000
,  // measure 12
1001
0000
0000
1000
1000
1000
0010
0010
0010
0100
0100
0100
,  // measure 13
0001
0001
0001
1000
1000
1000
0100
0100
0100
0010
0010
0010
,  // measure 14
0001
0010
1000
0010
0100
1000
0100
0001
0100
1000
0010
0001
,  // measure 15
0010
0100
1000
0100
0010
1000
0010
0100
0010
1000
0002
0020
,  // measure 16
0000
0000
0000
0000
,  // measure 17
0000
0000
0000
0033
,  // measure 18
0101
0001
1000
1100
0000
1000
1200
0000
,  // measure 19
0310
1000
0010
0001
0100
1000
0100
0001
,  // measure 20
1001
1000
0100
0110
0000
0010
0120
0000
,  // measure 21
0031
0010
0001
0010
1000
0010
0001
1000
,  // measure 22
1010
0010
1000
1100
0000
1000
1002
0000
,  // measure 23
1003
0001
0100
0010
0001
0010
1000
0100
,  // measure 24
0110
0010
0001
0101
0000
0100
0120
0000
,  // measure 25
1030
0100
0001
0100
1000
1010
0000
0000
,  // measure 26
0002
0100
1003
0001
1000
0100
2000
0100
,  // measure 27
3001
1000
0100
0001
0100
1000
0010
0100
,  // measure 28
0002
0100
1003
0001
1000
0100
2000
0100
,  // measure 29
3001
1000
0010
0001
0010
1000
0010
0100
,  // measure 30
0002
1000
0103
0001
1000
0001
2000
0100
,  // measure 31
3001
1000
0100
0001
0100
0010
0001
1000
,  // measure 32
0002
1000
0103
0001
1000
0001
2000
0100
,  // measure 33
3001
0000
0001
0100
0000
0100
0010
0000
0010
1000
0000
1000
0001
0000
0001
1000
,  // measure 34
0100
0000
0010
0000
0001
0000
0100
0010
1000
0000
0100
0000
0010
0000
0001
1000
,  // measure 35
0100
0000
0010
0000
0100
0000
1000
0001
0100
0000
0010
0000
1000
0000
0001
0010
,  // measure 36
0100
0000
0010
0000
0001
0000
0100
0010
1000
0000
0100
0000
0010
0000
0100
1000
,  // measure 37
0001
0000
1000
0000
0010
0000
0100
0001
1000
0000
0100
0000
0010
0000
0100
1000
,  // measure 38
0001
0000
0100
0000
0001
0000
1000
0001
0100
0000
0010
0000
1000
0000
0100
0010
,  // measure 39
0001
0000
0010
0000
0001
0000
1000
0001
0100
0000
0010
0000
1000
0000
0100
0010
,  // measure 40
0001
0000
0010
0000
0100
0000
1000
0001
0100
0000
0010
0000
1000
0000
0001
1000
,  // measure 41
0000
0000
0001
0100
0001
0100
0010
0100
0010
1000
0010
1000
0100
0010
0100
1000
,  // measure 42
0001
0100
0001
0100
0001
0000
0100
0000
0010
1000
0010
1000
0010
0000
1000
0000
,  // measure 43
0100
0010
0100
0010
0100
0000
0010
0000
0001
1000
0001
1000
0001
0000
1000
0000
,  // measure 44
0010
1000
0010
1000
0010
0000
0100
0000
0001
1000
0001
1000
0001
0000
0010
0000
,  // measure 45
0100
0010
0100
0010
0100
0000
1000
0000
0010
0100
0010
0100
0010
0000
0100
0000
,  // measure 46
0001
0100
0001
0100
0001
0000
1000
0000
0001
0010
0001
0010
0001
0000
1000
0000
,  // measure 47
0100
0010
0100
0010
0100
0000
1000
0000
0001
0100
0001
0100
0001
0000
1000
0000
,  // measure 48
0010
0100
0010
0100
0010
0100
0010
0100
0010
0100
0010
0100
0010
0100
0010
0100
,  // measure 49
0000
0000
0001
0100
0010
1000
0001
0010
0001
1000
0100
0010
0001
1000
0010
0000
,  // measure 50
0100
0001
0010
0220
0330
1000
0022
0033
,  // measure 51
0001
2200
3300
0010
2002
0000
0000
0000
,  // measure 52
0000
0000
3003
0000
1000
0100
1000
0010
,  // measure 53
0100
0001
0010
0100
0010
0001
0100
0010
,  // measure 54
1000
0100
0010
0011
1100
0100
1000
0010
,  // measure 55
0100
0001
0010
0100
0010
0001
0100
0010
,  // measure 56
1000
0000
0000
0001
0000
0000
0010
0000
0000
0100
0000
0000
1000
0000
0100
0000
1000
0000
0001
0000
0100
0000
0001
0000
,  // measure 57
1000
0010
1000
0001
0010
0001
1000
0100
0010
0100
1000
0001
,  // measure 58
0010
0000
0100
0000
0010
0000
0001
0000
0100
0000
0010
0000
4000
0004
0000
0000
0000
0000
0000
0000
0000
0000
0000
0000
,  // measure 59
0000
3003
2000
3000
,  // measure 60
0102
0000
0000
0000
0100
0000
0000
0000
0100
0000
0000
0000
0203
0000
0000
0000
0000
0000
0310
0000
0000
2000
0000
0000
,  // measure 61
0000
3100
0002
0000
0103
2000
0000
3010
,  // measure 62
0002
0000
0013
0200
0000
0301
2000
0000
,  // measure 63
3100
0000
0020
0000
0000
0000
0130
0000
1000
0100
0020
0000
0000
0000
0130
1000
,  // measure 64
0010
0100
0001
0000
2001
0000
0000
0000
3100
0000
1000
0000
0001
0000
0100
0001
,  // measure 65
0000
0001
1000
0100
1000
0001
0010
0001
2000
0000
0000
0100
0000
0000
3001
0000
,  // measure 66
0200
0000
0000
0010
0000
0000
0301
0000
1000
0000
0100
1000
0000
1000
0010
0100
,  // measure 67
0001
0000
0010
0000
0001
0000
1000
0000
0010
0000
0000
0100
0000
0000
0001
0000
,  // measure 68
1000
0000
0100
0000
0010
0000
0001
0000
1000
0010
1000
0000
0001
0000
0010
0100
,  // measure 69
0010
0000
0100
0000
1000
0000
0010
0000
0100
0001
0100
0000
0001
0000
1000
0100
,  // measure 70
1000
0000
0100
0000
1000
0000
0001
0000
0100
0010
0100
0000
0001
0000
0010
0100
,  // measure 71
0010
0000
0100
0000
0010
0000
0001
0000
1000
0010
1000
0010
0100
0010
1000
0001
,  // measure 72
0100
0001
1000
0100
1000
0001
0010
0100
0010
0000
0001
0000
0100
0000
0010
0100
,  // measure 73
0000
0100
0010
1000
0001
0010
0001
1000
0200
0000
0000
0010
0000
0000
1300
0000
,  // measure 74
0020
0000
0000
0100
0000
0000
1030
0000
0001
0000
0001
0100
0000
0100
0001
1000
,  // measure 75
0001
0000
0010
0000
0001
0000
1000
0000
0100
0000
0000
1000
0000
0000
0001
0000
,  // measure 76
1000
0000
0100
0000
0010
0000
0001
0000
0200
0000
0301
2000
0000
3100
0020
0000
,  // measure 77
0230
0000
0310
0002
0000
1003
0020
0000
2030
0000
3100
0020
0000
0130
2000
0000
,  // measure 78
3002
0000
0103
0020
0000
1030
0002
0000
0023
0000
0130
2000
0000
3001
0200
0000
,  // measure 79
0320
0000
2030
3200
0300
0020
0032
0000
1003
0000
0010
0000
1000
0000
0001
0000
,  // measure 80
0010
0100
0010
0100
0010
0001
0010
0001
1000
0000
0001
0000
0010
0000
0001
0000
,  // measure 81
0100
0001
0100
0001
1000
0010
1000
0010
1000
0000
0100
0000
0010
0000
0100
0000
,  // measure 82
1000
0001
1000
0001
0100
0010
0100
0010
1000
0000
0001
0000
0010
0000
0100
0000
,  // measure 83
0010
0100
0010
0100
1000
0000
0000
0000
0001
0100
0001
0100
0010
0100
0010
1000
,  // measure 84
0010
1000
0100
1000
0001
0010
0001
1000
0001
1000
0010
1000
0010
0100
0010
0100
,  // measure 85
0001
0100
0001
1000
0001
0010
0100
1000
0001
0100
0001
1000
0100
1000
0001
0010
,  // measure 86
0001
1000
0100
1000
0010
0100
0001
1000
0100
0010
0100
1000
0010
0100
0001
0010
,  // measure 87
0100
0010
0001
1000
0010
0100
0001
1000
0002
0203
0320
2030
0002
0000
0000
0000
,  // measure 88
0000
0000
0000
0000
,  // measure 89
3003
0000
0000
0000
;

//---------------dance-single - Pandemonium X---------------
#NOTEDATA:;
#CHARTNAME:;
#CHARTSTYLE:;
#CREDIT:Pandemonium X;
#STEPSTYPE:dance-single;
#DESCRIPTION:Pandemonium X;
#DIFFICULTY:Beginner;
#METER:4;
#METERF:4;
#RADARVALUES:0,0,0,0,0;
#NOTES:
// measure 0
0000
0000
0000
0000
,  // measure 1
0000
0000
0000
0000
,  // measure 2
0000
0000
0000
0000
,  // measure 3
0000
0000
0000
0000
,  // measure 4
0000
0000
0000
0000
,  // measure 5
0000
0000
0000
0000
,  // measure 6
0000
0001
0001
0000
,  // measure 7
0000
1000
1000
0000
,  // measure 8
0000
0001
1000
0000
,  // measure 9
0010
0000
0100
0000
,  // measure 10
0000
0010
0010
0000
,  // measure 11
0000
0010
0010
0000
,  // measure 12
0100
0000
0001
0000
,  // measure 13
1000
0000
0100
0000
,  // measure 14
1000
0000
0100
0000
,  // measure 15
0010
0000
0001
0000
,  // measure 16
0000
0000
0000
0000
,  // measure 17
0000
0000
0000
0000
,  // measure 18
0001
0000
0000
0001
,  // measure 19
0000
0000
0000
0000
,  // measure 20
1000
0000
0000
1000
,  // measure 21
0000
0000
0000
0000
,  // measure 22
0010
0000
0000
0010
,  // measure 23
0000
0000
0000
0000
,  // measure 24
0100
0000
0000
0100
,  // measure 25
0000
0000
0000
0000
,  // measure 26
0010
0000
0000
1000
,  // measure 27
0000
0000
0000
0000
,  // measure 28
0100
0000
0000
0010
,  // measure 29
0000
0000
0000
0000
,  // measure 30
0001
0000
0000
0100
,  // measure 31
0000
0000
0000
0000
,  // measure 32
0010
0000
0000
1000
,  // measure 33
0001
0000
0000
0000
,  // measure 34
1001
0000
0001
0000
,  // measure 35
0001
0000
0001
0000
,  // measure 36
1000
0000
1000
0000
,  // measure 37
1000
0000
0010
0000
,  // measure 38
0100
0000
0100
0000
,  // measure 39
0010
0000
0010
0000
,  // measure 40
1000
0000
0000
0000
,  // measure 41
0002
0000
0000
0003
,  // measure 42
0000
0000
1000
0000
,  // measure 43
1000
0000
0001
0000
,  // measure 44
0010
0000
0010
0000
,  // measure 45
0100
0000
0010
0000
,  // measure 46
0001
0000
0001
0000
,  // measure 47
1000
0000
1000
0000
,  // measure 48
0010
0000
0000
0000
,  // measure 49
0200
0000
0000
0300
,  // measure 50
0110
0000
0000
1001
,  // measure 51
0000
0000
0110
0000
,  // measure 52
0000
0000
1000
0000
,  // measure 53
0000
0000
0001
0000
,  // measure 54
0000
0000
0010
0000
,  // measure 55
0000
0000
0100
0000
,  // measure 56
0000
0000
1000
0000
,  // measure 57
1000
0000
0001
0000
,  // measure 58
0001
0000
0200
0000
,  // measure 59
0000
0300
0010
0000
,  // measure 60
0100
0000
0002
0000
,  // measure 61
0000
0000
0000
0000
,  // measure 62
0000
0000
0000
0000
,  // measure 63
0000
0000
0000
0000
,  // measure 64
0000
0003
1000
0000
,  // measure 65
0001
0000
0100
0000
,  // measure 66
0000
0000
0001
0000
,  // measure 67
1000
0000
0010
0000
,  // measure 68
0000
0000
0110
0000
,  // measure 69
0000
0000
1001
0000
,  // measure 70
0000
0000
0110
0000
,  // measure 71
0000
0000
1001
0000
,  // measure 72
0000
0000
0001
0000
,  // measure 73
1000
0000
0010
0000
,  // measure 74
0000
0000
0100
0000
,  // measure 75
0010
0000
1000
0000
,  // measure 76
0000
0000
0001
0000
,  // measure 77
1000
0000
0001
0000
,  // measure 78
1000
0000
0001
0000
,  // measure 79
1000
0000
0110
0000
,  // measure 80
0000
0000
0100
0000
,  // measure 81
0000
0000
0010
0000
,  // measure 82
0000
0000
1000
0000
,  // measure 83
0000
0000
0001
0000
,  // measure 84
0000
0000
0010
0000
,  // measure 85
0000
0000
0001
0000
,  // measure 86
0000
0000
1000
0000
,  // measure 87
0001
0000
0100
0100
;
