#VERSION:0.83;
#TITLE:Prelude;
#SUBTITLE:;
#ARTIST:NAOKI underground;
#TITLETRANSLIT:;
#SUBTITLETRANSLIT:;
#ARTISTTRANSLIT:;
#GENRE:;
#CREDIT:;
#MUSIC:Prelude.ogg;
#BANNER:banner.png;
#BACKGROUND:background.png;
#JACKET:;
#DISCIMAGE:;
#CDIMAGE:;
#SELECTABLE:YES;
#LYRICSPATH:;
#CDTITLE:cdtitle.png;
#SAMPLESTART:69.410;
#SAMPLELENGTH:13.339;
#OFFSET:1.283;
#BPMS:0.000000=140.044000,
100.000000=134.794000,
124.000000=140.794000,
127.000000=136.794000,
129.958333=139.794000,
132.000000=140.000000
;
#STOPS:;
#WARPS:;
#DELAYS:;
#SPEEDS:;
#SCROLLS:;
#TICKCOUNTS:;
#TIMESIGNATURES:;
#LABELS:;
#COMBOS:;
#FAKES:;
#BGCHANGES:;
#FGCHANGES:;
#ATTACKS:;
#DISPLAYBPM:135.000000:140.000000;

//---------------dance-single - ---------------
#NOTEDATA:;
#CHARTNAME:;
#CHARTSTYLE:;
#CREDIT:Pandemonium X;
#STEPSTYPE:dance-single;
#DESCRIPTION:;
#DIFFICULTY:Beginner;
#METER:3;
#METERF:3;
#RADARVALUES:0,0,0,0,0;
#NOTES:
// measure 0
0000
0000
0000
0000
,  // measure 1
0000
0000
0000
0000
,  // measure 2
0000
0000
0000
0000
,  // measure 3
0000
0000
0000
0000
,  // measure 4
0000
0000
0000
0000
,  // measure 5
0001
0000
0000
0000
,  // measure 6
1000
0000
0000
0000
,  // measure 7
0001
0000
0000
0000
,  // measure 8
1000
0000
0010
0000
,  // measure 9
1000
0000
0000
0000
,  // measure 10
0100
0000
0000
0000
,  // measure 11
0010
0000
0000
0000
,  // measure 12
0001
0000
0000
0000
,  // measure 13
1000
0000
0000
0000
,  // measure 14
0001
0000
0000
0000
,  // measure 15
0100
0000
0000
0000
,  // measure 16
0010
0000
1001
0000
,  // measure 17
1000
0000
0000
0000
,  // measure 18
0001
0000
0000
0000
,  // measure 19
0010
0000
0000
0000
,  // measure 20
0001
0000
0000
0000
,  // measure 21
1000
0000
0000
0000
,  // measure 22
0100
0000
0000
0000
,  // measure 23
1000
0000
0000
0000
,  // measure 24
0001
0000
0000
0000
,  // measure 25
0110
0000
0000
0000
,  // measure 26
0000
0000
0000
0000
,  // measure 27
1000
0000
0000
0000
,  // measure 28
0000
0000
0000
0000
,  // measure 29
1001
0000
0000
0000
,  // measure 30
0000
0000
0000
0000
,  // measure 31
0001
0000
0000
0000
,  // measure 32
0100
0100
0100
0000
,  // measure 33
0010
0000
0000
0000
,  // measure 34
0010
0000
0000
0000
,  // measure 35
0100
0000
0000
0000
,  // measure 36
0100
0000
0000
0000
,  // measure 37
0001
0000
0001
0000
,  // measure 38
1000
0000
1000
0000
,  // measure 39
1001
0000
0110
0000
,  // measure 40
1001
0000
0110
0000
,  // measure 41
0001
0000
1000
0000
,  // measure 42
0001
0000
1000
0000
,  // measure 43
0010
0000
0010
0000
,  // measure 44
0010
0000
0010
0010
,  // measure 45
1000
0000
0001
0000
,  // measure 46
1000
0000
0001
0000
,  // measure 47
0100
0000
0010
0000
,  // measure 48
0100
0000
0010
0010
,  // measure 49
1000
0000
1000
0000
,  // measure 50
1000
0000
0000
0000
,  // measure 51
0001
0000
0001
0000
,  // measure 52
0001
0000
0000
0000
,  // measure 53
0100
0000
0100
0000
,  // measure 54
0100
0000
0000
0000
,  // measure 55
0010
0000
0010
0000
,  // measure 56
0010
0000
0000
0000
,  // measure 57
1000
0000
0001
0000
,  // measure 58
1000
0000
0000
0000
,  // measure 59
0100
0000
0010
0000
,  // measure 60
0100
0000
0000
0000
,  // measure 61
0010
0000
0001
0000
,  // measure 62
1000
0000
0000
0000
,  // measure 63
0010
0000
1000
0000
,  // measure 64
0001
0000
0000
0000
,  // measure 65
1001
0000
0000
0000
;

//---------------dance-single - Pandemonium X---------------
#NOTEDATA:;
#CHARTNAME:;
#CHARTSTYLE:;
#CREDIT:Pandemonium X;
#STEPSTYPE:dance-single;
#DESCRIPTION:Pandemonium X;
#DIFFICULTY:Easy;
#METER:6;
#METERF:6;
#RADARVALUES:0,0,0,0,0;
#NOTES:
// measure 0
0000
0000
0000
0000
,  // measure 1
0000
0000
0000
0000
,  // measure 2
0000
0000
0000
0000
,  // measure 3
0000
0000
0000
0000
,  // measure 4
0000
0000
0000
0000
,  // measure 5
0001
0000
1000
0000
,  // measure 6
0001
0000
1000
0000
,  // measure 7
0001
0000
1000
0000
,  // measure 8
0001
0000
1000
0000
,  // measure 9
0001
0100
0010
0000
,  // measure 10
0100
0010
1000
0000
,  // measure 11
0001
0010
0100
0000
,  // measure 12
0010
0001
1000
0000
,  // measure 13
0001
1000
0100
0000
,  // measure 14
0010
0001
1000
0000
,  // measure 15
0010
1000
0001
0000
,  // measure 16
0010
0000
0000
0000
0100
0000
0000
0000
0000
1000
0000
0000
0000
0000
0000
0000
,  // measure 17
0001
1000
0010
1000
,  // measure 18
0001
0010
0001
1000
,  // measure 19
0001
0100
0001
1000
,  // measure 20
0100
1000
0100
0010
,  // measure 21
0001
1000
0100
0100
,  // measure 22
1000
0001
0100
0100
,  // measure 23
0001
0100
0010
1000
,  // measure 24
0010
0100
0001
1000
,  // measure 25
0110
0000
0000
0000
,  // measure 26
0000
0000
0000
0000
0000
0001
0000
0000
,  // measure 27
1000
0000
0000
0100
0000
0000
0000
0000
,  // measure 28
0000
0000
0000
0000
,  // measure 29
1001
0000
0000
0000
,  // measure 30
0000
0000
0000
0000
,  // measure 31
0001
0000
0000
1000
0000
0000
0100
0000
,  // measure 32
0000
0000
0000
0000
,  // measure 33
0010
0000
0010
0000
,  // measure 34
0010
0000
0010
0000
,  // measure 35
0100
0000
0100
0000
,  // measure 36
0100
0000
0100
0000
,  // measure 37
1001
0000
0110
0000
,  // measure 38
1001
0000
0110
0000
,  // measure 39
0000
0001
0000
0000
0000
0000
0000
1000
0000
0000
0000
0000
0000
0000
0000
0001
,  // measure 40
0000
0000
0000
0000
0000
0000
0000
1000
0000
0000
0000
0000
0000
0000
0000
0000
,  // measure 41
0001
0100
0001
0100
,  // measure 42
0010
1000
0010
0010
,  // measure 43
0010
0000
1000
0000
,  // measure 44
0010
0000
1000
0000
,  // measure 45
0001
1000
0001
0001
,  // measure 46
1000
0100
0010
0010
,  // measure 47
0010
0000
0100
0000
,  // measure 48
1000
0000
0001
0000
,  // measure 49
1000
0010
1000
0001
,  // measure 50
1000
0010
1000
1010
,  // measure 51
0001
0100
0010
0100
,  // measure 52
0001
0100
0010
0110
,  // measure 53
0001
1000
0010
1000
,  // measure 54
0001
0010
0001
1001
,  // measure 55
1000
0001
0010
0001
,  // measure 56
1000
0010
1000
1001
,  // measure 57
0001
0100
0010
1000
,  // measure 58
0010
1000
0001
0011
,  // measure 59
0010
0100
1000
0100
,  // measure 60
0010
0001
1000
0110
,  // measure 61
0001
0100
0001
1000
,  // measure 62
0100
0010
0100
1100
,  // measure 63
0100
1000
0001
0100
,  // measure 64
0001
1000
0100
0110
,  // measure 65
0002
0000
0000
0003
0000
0000
0000
0000
0000
0000
0000
0000
0000
0000
0000
0000
;

//---------------dance-single - Pandemonium X---------------
#NOTEDATA:;
#CHARTNAME:;
#CHARTSTYLE:;
#CREDIT:Pandemonium X;
#STEPSTYPE:dance-single;
#DESCRIPTION:Pandemonium X;
#DIFFICULTY:Medium;
#METER:11;
#METERF:11;
#RADARVALUES:0,0,0,0,0;
#NOTES:
// measure 0
0000
0000
0000
0000
,  // measure 1
0000
0000
0000
0000
,  // measure 2
0000
0000
0000
0000
,  // measure 3
0000
0000
0000
0000
,  // measure 4
0000
0000
0000
0000
,  // measure 5
0001
0000
1000
0000
0000
0000
0000
0100
0000
0000
0100
0000
0000
0000
0000
0100
,  // measure 6
0000
0000
0100
0000
0000
0000
0000
0100
0000
0000
0100
0000
0000
0000
0000
0000
,  // measure 7
1000
0000
0001
0000
0000
0000
0000
0100
0000
0000
0100
0000
0000
0000
0000
0100
,  // measure 8
0000
0100
0000
0000
0100
0100
0000
0000
,  // measure 9
0010
0000
1000
0000
0001
0010
0100
0010
,  // measure 10
0001
0000
1000
0000
0100
1000
0100
0010
,  // measure 11
0100
0000
0010
0000
0001
1000
0010
1000
,  // measure 12
0001
0000
1000
0000
0001
1000
0100
1000
,  // measure 13
0001
0100
1000
0000
0100
0000
0001
0000
,  // measure 14
1000
0100
0001
0000
0100
0000
1000
0000
,  // measure 15
0001
0010
1000
0000
0010
0000
0001
0000
,  // measure 16
1000
0000
0010
0000
0001
0000
0010
0100
0000
0110
0000
0110
0000
1001
0000
0000
,  // measure 17
1000
0001
0010
0000
0100
0010
0001
0000
,  // measure 18
0010
0100
1000
0000
0100
0010
0001
0000
,  // measure 19
1000
0001
0100
0000
0001
1000
0100
0000
,  // measure 20
0010
0001
1000
0000
0010
0100
0001
0000
,  // measure 21
0010
0100
0010
0001
0100
0000
0110
0000
,  // measure 22
0010
1000
0100
0010
0100
0000
0110
0000
,  // measure 23
0100
1000
0010
0000
0100
0001
0010
0000
,  // measure 24
0100
0010
0001
0010
0100
1000
0100
0010
,  // measure 25
0001
0000
0000
1000
0000
0000
0010
0000
0010
0000
0000
0000
0000
0000
0000
0000
,  // measure 26
0000
0000
0000
0000
0000
0000
0000
0000
0000
0000
1000
0000
0000
0001
0000
0000
,  // measure 27
0010
0000
0000
0001
0000
0000
1000
0000
1000
0000
0000
0000
0000
0000
0000
0000
,  // measure 28
0000
0000
0000
0000
0000
0100
0010
0001
,  // measure 29
1001
0000
0000
1000
0000
0001
0000
0010
,  // measure 30
0000
0000
0000
0000
,  // measure 31
0100
0000
0000
1000
0000
0000
0010
0000
0000
0000
0000
0000
0100
0000
0000
0000
,  // measure 32
0110
0110
1001
0000
,  // measure 33
0001
0001
0001
0001
,  // measure 34
1000
1000
1000
1000
,  // measure 35
0010
0010
0010
0010
,  // measure 36
0100
0000
0100
0000
0100
0000
0100
0100
,  // measure 37
0110
0000
1001
0000
,  // measure 38
0110
0000
0000
0000
0000
0000
0000
0000
1001
0000
0000
0000
0000
0000
0000
0001
,  // measure 39
0000
0001
0000
0000
0000
1000
0000
1000
0000
0000
0000
0000
0000
0001
0000
0001
,  // measure 40
0000
0000
0000
0000
1000
0001
0000
1000
0000
0000
0001
1000
0000
0001
0000
0001
,  // measure 41
1000
0100
1000
0100
0010
0001
0010
0001
,  // measure 42
0000
1000
0001
0010
0000
0100
0000
0010
,  // measure 43
0000
0001
1000
0000
0001
0100
0000
0001
,  // measure 44
1000
0000
0001
0010
0000
0011
0000
1001
,  // measure 45
1000
0100
1000
0100
0010
0001
0010
0001
,  // measure 46
1000
0100
1000
0001
0000
1000
0010
1000
,  // measure 47
0000
1000
0001
0000
1000
0010
0000
1000
,  // measure 48
0001
0000
1000
0100
0000
1100
0000
0011
,  // measure 49
0001
1000
0100
0000
1000
0001
0100
0000
,  // measure 50
0010
0100
0001
0000
0101
0000
1010
0000
,  // measure 51
0001
0100
0010
0000
0100
0010
1000
0000
,  // measure 52
0001
0010
0100
0000
0110
0000
1100
0000
,  // measure 53
0100
1000
0001
0000
1000
0010
0100
0000
,  // measure 54
0010
0100
0001
0000
1100
0000
1001
0000
,  // measure 55
0001
1000
0010
0000
0100
0001
1000
0000
,  // measure 56
0100
0010
0001
1000
0010
1000
0001
0010
,  // measure 57
0100
0000
1000
0000
0000
0010
0000
0010
0000
0000
0100
0000
0000
0001
0000
0001
,  // measure 58
0000
0000
0010
0000
0000
0100
0000
0100
0000
0000
1000
0000
0000
0001
0000
1000
,  // measure 59
0000
0000
0100
0000
0000
0010
0000
0010
0000
0000
0100
0000
0000
1000
0000
1000
,  // measure 60
0000
0000
0010
0000
0000
0100
0000
0100
0000
0000
0010
0000
0000
0100
0000
0001
,  // measure 61
1000
0000
0100
0000
0000
1000
0000
1000
0000
0000
0010
0000
0000
0100
0000
0100
,  // measure 62
0000
0000
0010
0000
0000
1000
0000
1000
0000
0000
0001
0000
0000
0010
0000
0100
,  // measure 63
1000
0100
0010
0000
0100
0010
0001
0000
,  // measure 64
0010
0100
1000
0001
0100
0010
1000
0001
,  // measure 65
0010
0100
1000
0001
0000
0000
0000
0000
0000
0000
0000
0000
0000
0000
0000
0000
;

//---------------dance-single - Pandemonium X---------------
#NOTEDATA:;
#CHARTNAME:;
#CHARTSTYLE:;
#CREDIT:Pandemonium X;
#STEPSTYPE:dance-single;
#DESCRIPTION:Pandemonium X;
#DIFFICULTY:Hard;
#METER:14;
#METERF:14;
#RADARVALUES:0,0,0,0,0;
#NOTES:
// measure 0
0000
0000
0000
0000
,  // measure 1
0000
0000
0000
0000
,  // measure 2
0000
0000
0000
0000
,  // measure 3
0000
0000
0000
0000
,  // measure 4
0000
0000
0000
0000
,  // measure 5
0001
0000
1000
0000
0000
0000
0000
0010
0000
0000
0010
0000
0000
0000
0000
0010
,  // measure 6
0000
0000
0010
0000
0000
0000
0000
0010
0000
0000
0010
0000
0000
0000
0000
0000
,  // measure 7
1000
0000
0001
0000
0000
0000
0000
0010
0000
0000
0010
0000
0000
0000
0000
0010
,  // measure 8
0000
0000
0010
0000
0000
0000
0000
0010
0100
0000
0010
0000
0000
0000
0000
0000
,  // measure 9
1001
0000
0001
0000
0100
0000
0001
1000
0000
0001
0000
1000
0000
0001
0000
0010
,  // measure 10
0000
0010
0100
0000
1000
0000
0001
0100
0000
0010
0000
1000
0000
0010
0000
0100
,  // measure 11
0000
0100
0001
0000
1000
0000
0001
0010
0000
0001
0000
1000
0000
0001
0000
1000
,  // measure 12
0000
1000
0010
0000
1000
0000
0010
1000
0000
0001
0000
1000
0000
0100
0000
0010
,  // measure 13
0000
0010
0001
0000
1000
0000
0001
0010
0000
0001
0000
1000
0000
0010
0000
1000
,  // measure 14
0000
1000
0010
0000
1000
0000
0001
1000
0000
0100
0000
1000
0000
0001
0000
0100
,  // measure 15
0000
0100
0001
0000
1000
0000
0100
0010
0000
0001
0000
0010
0000
0100
0000
0010
,  // measure 16
0000
0010
0100
0000
1000
0000
0100
0010
0000
1100
0000
0110
0000
1100
0000
1000
,  // measure 17
0001
0000
0100
0000
1010
0000
0010
0100
0000
0001
0000
1000
0000
0100
0000
0010
,  // measure 18
0000
0010
0001
0000
1100
0000
0100
1000
0000
0001
0000
0100
0000
0001
0000
1000
,  // measure 19
0000
1000
0100
0000
0011
0000
0001
1000
0000
0010
0000
1000
0000
0001
0000
0010
,  // measure 20
0000
0010
0100
0000
1001
0000
1000
0001
0000
1000
0000
0100
0000
1000
0000
0001
,  // measure 21
0000
0001
1000
0000
0011
0000
0001
0010
0000
0100
0000
0010
0000
0001
0000
0010
,  // measure 22
0000
0010
0001
0000
1001
0000
1000
0001
0000
0010
0000
0001
0000
1000
0000
0100
,  // measure 23
0000
0100
0010
0000
1100
0000
0001
0010
0000
0010
0000
0100
0000
0010
0000
0100
,  // measure 24
0000
0010
0100
0000
1001
0000
0001
0100
0000
0100
0000
0010
0000
1000
0000
0001
,  // measure 25
0010
0000
0000
0011
0000
0000
1001
0000
1001
0000
0000
0000
0000
0000
0000
0000
,  // measure 26
0000
0000
0000
0000
0000
0000
0000
0000
0000
0000
0101
0000
0000
0110
0000
0000
,  // measure 27
0101
0000
0000
1010
0000
0000
1001
0000
1001
0000
0000
0000
0000
0000
0000
0000
,  // measure 28
0000
0000
0000
0000
0000
1000
0100
0010
,  // measure 29
1001
0000
0000
0011
0000
1100
0000
1001
,  // measure 30
0000
0000
0000
0000
0000
0000
0000
0000
0000
0000
1000
0000
0000
1000
0000
0000
,  // measure 31
0110
0000
0000
0001
0000
0000
0011
0000
0000
0010
0000
0000
1100
0000
0000
0000
,  // measure 32
0001
0001
0001
0000
,  // measure 33
1000
0010
1000
0010
,  // measure 34
0100
0001
0100
0001
,  // measure 35
1000
0001
1000
0001
,  // measure 36
1000
0000
0100
0000
1000
0000
0100
0100
,  // measure 37
1100
0000
1000
0001
0101
0000
0001
1000
,  // measure 38
1100
0000
0000
0000
1000
0000
0001
0000
0101
0000
0000
0000
0001
0000
1000
0100
,  // measure 39
0000
1100
0000
0000
0000
1100
0000
0110
0000
0000
0000
0000
0000
0011
0000
0110
,  // measure 40
0000
0000
0000
0000
1000
0001
0000
0110
0000
0000
0001
1000
0000
0001
0000
1000
,  // measure 41
0001
0010
0001
1000
0001
1000
0100
1000
,  // measure 42
0001
1000
0100
M100
0001
1000
0001
1000
,  // measure 43
0001
0010
001M
1000
0010
M010
0001
0010
,  // measure 44
001M
1000
0010
M010
0001
1000
0001
1000
,  // measure 45
0010
0100
0010
1000
0001
0100
0010
1000
,  // measure 46
0001
1000
0100
M100
0001
0100
0010
1000
,  // measure 47
0001
0010
001M
1000
0010
M010
0001
0010
,  // measure 48
001M
0000
1000
0000
0010
0000
M010
0000
0001
1000
0001
1000
0001
0000
1000
0000
,  // measure 49
0001
0000
1000
0000
0010
1000
0000
1000
0010
0000
0100
0000
0001
0100
0000
0100
,  // measure 50
0010
0000
0100
0000
0001
1000
0000
1000
0001
0000
0010
0000
0100
1000
0000
1000
,  // measure 51
0001
0000
0100
0000
0001
0100
0000
0100
0001
0000
0100
0000
0010
0100
0000
0100
,  // measure 52
0001
0000
1000
0000
0100
0010
0000
0010
0100
0000
1000
0000
0001
0100
0000
0100
,  // measure 53
0010
0000
1000
0000
0001
0010
0000
0010
0100
0000
1000
0000
0100
0010
0000
0010
,  // measure 54
0001
0000
1000
0000
0010
0100
0000
0100
0001
0000
1000
0000
0001
0100
0000
0010
,  // measure 55
1000
0000
0001
0000
0010
0100
0000
0100
1000
0000
0001
0000
0010
0100
0000
0100
,  // measure 56
1000
0000
0001
1000
0001
0000
1000
0000
0010
0100
0010
0100
0010
1000
0001
1000
,  // measure 57
0001
0000
0010
0000
0100
0000
1000
0100
1000
0000
0001
0000
1000
0000
0001
0010
,  // measure 58
0001
0000
1000
0000
0010
0000
1000
0001
1000
0000
0001
0000
0010
0001
0000
0001
,  // measure 59
1000
0000
0001
0000
1000
0000
0100
1000
0100
0000
1000
0000
0001
0000
0100
0001
,  // measure 60
0100
0000
0001
0000
1000
0000
0100
0010
0100
0000
1000
0000
0100
1000
0000
1000
,  // measure 61
0001
0000
0100
0000
0001
0000
1000
0100
0010
0000
0001
0000
1000
0000
0010
0100
,  // measure 62
0001
0000
1000
0000
0100
0000
1000
0001
0010
0000
0100
0000
0010
0100
0000
0100
,  // measure 63
1000
0000
0001
0000
0100
0000
0010
1000
0001
0000
0010
0000
0100
0000
1000
0001
,  // measure 64
0010
0000
0100
0000
0010
0000
0001
1000
0010
0000
0100
0000
0001
1000
0000
0100
,  // measure 65
0010
1000
0010
0001
0000
0000
0000
0000
0000
0000
0000
0000
0000
0000
0000
0000
;

//---------------dance-double - ---------------
#NOTEDATA:;
#CHARTNAME:;
#CHARTSTYLE:;
#CREDIT:Pandemonium X;
#STEPSTYPE:dance-double;
#DESCRIPTION:;
#DIFFICULTY:Easy;
#METER:6;
#METERF:6;
#RADARVALUES:0,0,0,0,0;
#NOTES:
// measure 0
00000000
00000000
00000000
00000000
,  // measure 1
00000000
00000000
00000000
00000000
,  // measure 2
00000000
00000000
00000000
00000000
,  // measure 3
00000000
00000000
00000000
00000000
,  // measure 4
00000000
00000000
00000000
00000000
,  // measure 5
00001000
00000000
00010000
00000000
,  // measure 6
00001000
00000000
00010000
00000000
,  // measure 7
00001000
00000000
00010000
00000000
,  // measure 8
00001000
00000000
00011000
00000000
,  // measure 9
00000100
00010000
00000010
00000000
,  // measure 10
00000100
00000001
00001000
00000000
,  // measure 11
00000100
00010000
00001000
00000000
,  // measure 12
00100000
00010000
10000000
00000000
,  // measure 13
01000000
10000000
00010000
00000000
,  // measure 14
01000000
00001000
00010000
00000000
,  // measure 15
00000100
00001000
00000010
00000000
,  // measure 16
00000100
00000000
00000000
00000000
00000001
00000000
00000000
00000000
00000000
00001000
00000000
00000001
00000000
00001000
00000000
00000000
,  // measure 17
00000001
00000100
00000010
00000000
,  // measure 18
00001000
00000100
00010000
00000000
,  // measure 19
00001000
01000000
00010000
00000000
,  // measure 20
01000000
00100000
10000000
00000000
,  // measure 21
10010000
00010000
00100000
00000000
,  // measure 22
00001000
00010000
00000100
00000000
,  // measure 23
00001001
00000001
00000100
00000000
,  // measure 24
00000010
00001000
00000100
00010000
,  // measure 25
00002000
00000000
00003000
00000000
,  // measure 26
00000000
00000000
00000000
00000000
00000000
00200000
00000000
00000000
,  // measure 27
02300000
00000000
03000000
00000000
,  // measure 28
00000000
00000000
00000000
10000000
,  // measure 29
20010000
00000000
00000000
00010000
00000000
00010000
00000000
30010000
,  // measure 30
00000000
00000000
00000000
00000000
,  // measure 31
01000000
00000000
00000000
00001000
00000000
00000000
00020000
00000000
,  // measure 32
00000100
00000100
00030100
00000000
,  // measure 33
00001000
00000000
00001000
00000000
,  // measure 34
00001000
00000000
00001000
00000000
,  // measure 35
00000001
00000000
00000001
00000000
,  // measure 36
00000001
00000000
00000001
00000000
,  // measure 37
00001001
00000000
00001010
00000000
,  // measure 38
00001100
00000000
00000000
00000000
00000000
00000000
00000000
00000000
00010100
00000000
00000000
00000000
00000000
00000000
00000000
00010000
,  // measure 39
00000000
00000000
00000000
00000000
00000000
00001000
00000000
00000000
00000000
00000000
00000000
00000000
00000000
00010000
00000000
00000000
,  // measure 40
00000000
00001000
00000000
00010000
,  // measure 41
00000100
00000100
00000100
00001000
,  // measure 42
00000001
00000000
00000100
00000100
,  // measure 43
00000100
00000000
00000010
00000000
,  // measure 44
00001000
00000000
00000100
00000100
,  // measure 45
00010000
00010000
00010000
00010000
,  // measure 46
00001000
00000000
01000000
01000000
,  // measure 47
01000000
00000000
00100000
00000000
,  // measure 48
10000000
00000000
01000000
10000000
,  // measure 49
00010000
01000000
00000000
00010000
,  // measure 50
00000000
00100000
00000000
00001000
,  // measure 51
00000000
00010000
00000000
00000100
,  // measure 52
00000000
00001000
00000000
00000001
,  // measure 53
00000000
00001000
00000000
00000010
,  // measure 54
00000000
00000100
00000000
00000001
,  // measure 55
00000000
00001000
00000000
00000100
,  // measure 56
00000000
00010000
00000000
00001000
,  // measure 57
01000000
00010000
00000000
00100000
,  // measure 58
00000000
01000000
00000000
10000000
,  // measure 59
00010000
01000000
00000000
00001000
,  // measure 60
00000000
00010000
00000000
00000100
,  // measure 61
00010000
00001000
00000000
00100000
,  // measure 62
00000000
00010000
00000000
01000000
,  // measure 63
00001000
00000000
00010000
00000000
,  // measure 64
00001000
00010000
00001000
00010000
,  // measure 65
00000200
00000000
00000000
00000300
00000000
00000000
00000000
00000000
00000000
00000000
00000000
00000000
00000000
00000000
00000000
00000000
;

//---------------dance-double - ---------------
#NOTEDATA:;
#CHARTNAME:;
#CHARTSTYLE:;
#CREDIT:Pandemonium X;
#STEPSTYPE:dance-double;
#DESCRIPTION:;
#DIFFICULTY:Medium;
#METER:9;
#METERF:9;
#RADARVALUES:0,0,0,0,0;
#NOTES:
// measure 0
00000000
00000000
00000000
00000000
,  // measure 1
00000000
00000000
00000000
00000000
,  // measure 2
00000000
00000000
00000000
00000000
,  // measure 3
00000000
00000000
00000000
00000000
,  // measure 4
00000000
00000000
00000000
00000000
,  // measure 5
00010000
00000000
00001000
00000000
00000000
00000000
00000000
00010000
00000000
00000000
00010000
00000000
00000000
00000000
00000000
00010000
,  // measure 6
00000000
00000000
00010000
00000000
00000000
00000000
00000000
00010000
00000000
00000000
00010000
00000000
00000000
00000000
00000000
00000000
,  // measure 7
00001000
00000000
00010000
00000000
00000000
00000000
00000000
00001000
00000000
00000000
00001000
00000000
00000000
00000000
00000000
00001000
,  // measure 8
00000000
00000000
00001000
00000000
00000000
00000000
00000000
00010000
00001000
00000000
00010000
00000000
00000000
00000000
00000000
00000000
,  // measure 9
00001000
00010000
00001000
01000000
,  // measure 10
00100000
10000000
01000000
00100000
,  // measure 11
00001000
00010000
00000100
00001000
,  // measure 12
00000010
00000100
00000001
00000100
,  // measure 13
00000001
00001000
00000100
00010000
,  // measure 14
00001000
01000000
00010000
00100000
,  // measure 15
00001000
00010000
00000100
00001000
,  // measure 16
00000001
00000000
00000000
00000000
00000100
00000000
00000000
00000000
00000000
00000001
00000000
00000001
00000000
00001000
00000000
00000001
,  // measure 17
00000100
00000110
00000010
00001000
,  // measure 18
00000001
00001100
00000100
00010000
,  // measure 19
00001000
01010000
01000000
00010000
,  // measure 20
10000000
01100000
00010000
00100000
,  // measure 21
00001000
00100000
00010000
00000000
01000000
00000000
00100000
00000000
,  // measure 22
10000000
00010000
00100000
00000000
00001000
00000000
00010000
00000000
,  // measure 23
00000100
00010000
00000100
00000000
00001000
00000000
00000001
00000000
,  // measure 24
00001000
00000010
00010000
00000000
00001000
00100000
00010000
10000000
,  // measure 25
00010000
00000000
00000000
00100000
00000000
00000000
01000000
00000000
01000000
00000000
00000000
00000000
00000000
00000000
00000000
00000000
,  // measure 26
00000000
00000000
00000000
00000000
00000000
00000000
00000000
00000000
00000000
00000000
00100000
00000000
00000000
00010000
00000000
00000000
,  // measure 27
00001000
00000000
00000000
00000100
00000000
00000000
00000010
00000000
00000010
00000000
00000000
00000000
00000000
00000000
00000000
00000000
,  // measure 28
00000000
00000000
00000000
00000000
00000000
00000001
00000100
00001000
,  // measure 29
00011000
00000000
00000000
00001000
00000000
00010000
00000000
00000010
,  // measure 30
00000000
00000000
00000000
00000000
00000000
00000000
00000000
00000000
00000000
00000000
00000100
00000000
00000000
00000100
00000000
00000000
,  // measure 31
00000010
00000000
00000000
00000010
00000000
00000000
00010000
00000000
00000000
00010000
00000000
00000000
00002000
00000000
00000000
00000000
,  // measure 32
00010000
00010000
00013000
00000000
,  // measure 33
00001000
00010000
00001000
00010000
,  // measure 34
00001000
00010000
00001000
00010000
,  // measure 35
00000100
00010000
00000100
00010000
,  // measure 36
00000100
00000000
00010000
00000000
00000100
00000000
00010000
00010000
,  // measure 37
00010100
00000000
00101000
00000000
,  // measure 38
00110000
00000000
00000000
00000000
00000000
00000000
00000000
00000000
11000000
00000000
00000000
00000000
00000000
00000000
00000000
10000000
,  // measure 39
00000000
10000000
00000000
00000000
00000000
00010000
00000000
00010000
00000000
00000000
00000000
00000000
00000000
01000000
00000000
01000000
,  // measure 40
00000000
00000000
00000000
00000000
00001000
00010000
00000000
00001000
00000000
00000000
00010000
00001000
00000000
00010000
00000000
00001000
,  // measure 41
00100000
00010000
01000000
00001000
,  // measure 42
00010000
00000100
00001000
00001000
,  // measure 43
00001000
00000001
00000100
00000000
00000001
00000100
00000000
00000010
,  // measure 44
00000100
00000000
00000010
00010000
00000000
00001000
00000000
00010000
,  // measure 45
00001000
00001000
00001000
01000000
,  // measure 46
00100000
01000000
00100000
00100000
,  // measure 47
00100000
10000000
00010000
00000000
01000000
00100000
00000000
01000000
,  // measure 48
00001000
00000000
00001000
00010000
00000000
00000100
00000000
00001000
,  // measure 49
00000001
00000101
00000100
00001001
,  // measure 50
00000001
00000000
00000011
00000000
00000010
00000100
00001000
00000000
,  // measure 51
00000100
00001100
00010000
00011000
,  // measure 52
00001000
00000000
01001000
00000000
01000000
00010000
00100000
00000000
,  // measure 53
01000000
11000000
10000000
10100000
,  // measure 54
00100000
00000000
01100000
00000000
00100000
10000000
00010000
00000000
,  // measure 55
00010000
00110000
00100000
00101000
,  // measure 56
00001000
00011000
00010000
00010100
,  // measure 57
00000100
00000000
00001000
00000010
00000100
00000000
00000010
00000100
,  // measure 58
00000001
00000000
00000010
00000100
00001000
00000000
00001100
00000000
,  // measure 59
00000100
00000000
00010000
00001000
01000000
00000000
00010000
10000000
,  // measure 60
01000000
00000000
00100000
01000000
10000000
00000000
00010000
00000000
,  // measure 61
10010000
00000000
00010000
01000000
00010000
00000000
00100000
00001000
,  // measure 62
00100000
00000000
00001000
00010000
00001000
00000000
00010100
00000000
,  // measure 63
00001100
00000000
00001000
00000010
00001010
00000000
00000001
00000100
,  // measure 64
00000101
00000110
00001010
00001100
,  // measure 65
00020000
00000000
00000000
00030000
00000000
00000000
00000000
00000000
00000000
00000000
00000000
00000000
00000000
00000000
00000000
00000000
;

//---------------dance-double - ---------------
#NOTEDATA:;
#CHARTNAME:;
#CHARTSTYLE:;
#CREDIT:Pandemonium X;
#STEPSTYPE:dance-double;
#DESCRIPTION:;
#DIFFICULTY:Hard;
#METER:13;
#METERF:13;
#RADARVALUES:0,0,0,0,0;
#NOTES:
// measure 0
00000000
00000000
00000000
00000000
,  // measure 1
00000000
00000000
00000000
00000000
,  // measure 2
00000000
00000000
00000000
00000000
,  // measure 3
00000000
00000000
00000000
00000000
,  // measure 4
00000000
00000000
00000000
00000000
,  // measure 5
00010000
00000000
00001000
00000000
00000000
00000000
00000000
00100000
00000000
00000000
00100000
00000000
00000000
00000000
00000000
00100000
,  // measure 6
00000000
00000000
00100000
00000000
00000000
00000000
00000000
00100000
00000000
00000000
00100000
00000000
00000000
00000000
00000000
00000000
,  // measure 7
00001000
00000000
00010000
00000000
00000000
00000000
00000000
00000010
00000000
00000000
00000010
00000000
00000000
00000000
00000000
00000010
,  // measure 8
00000000
00000000
00000010
00000000
00000000
00000000
00000000
00000010
00010000
00000000
00011000
00000000
00000000
00000000
00000000
00000000
,  // measure 9
00101000
00000000
00100000
00000000
00010000
00000000
10000000
00100000
00000000
00100000
00000000
10000000
00000000
10000000
00000000
00010000
,  // measure 10
00000000
00100000
01000000
00000000
00100000
00000000
00010000
01000000
00000000
01000000
00000000
00001000
00000000
00010000
00000000
00001000
,  // measure 11
00000000
00010000
00000100
00000000
00001000
00000000
00000010
00001000
00000000
00001000
00000000
00000001
00000000
00000001
00000000
00001000
,  // measure 12
00000000
00000100
00000010
00000000
00000100
00000000
00001000
00000100
00000000
00000100
00000000
00010000
00000000
00001000
00000000
00010000
,  // measure 13
00000000
00000000
00001000
00000000
01000000
00000000
00100000
00010000
00000000
00100000
00000000
10000000
00000000
00010000
00000000
00100000
,  // measure 14
00000000
00010000
00100000
00000000
00001000
00000000
00010000
00000100
00000000
00001000
00000000
00000010
00000000
00000001
00000000
00000010
,  // measure 15
00000000
00000100
00000010
00000000
00001000
00000000
00000001
00000100
00000000
00001000
00000000
00000100
00000000
00000010
00000000
00010000
,  // measure 16
00000000
00001000
00010000
00000000
00001000
00000000
00010000
00001000
00000000
00001100
00000000
01010000
00000000
00001100
00000000
00011000
,  // measure 17
00000000
00001000
01000000
00000000
00010000
00000000
10000000
01000000
00000000
00100000
00000000
00001000
00000000
00100000
00000000
00010000
,  // measure 18
00000000
00100000
00001000
00000000
00010000
00000000
00000100
00001000
00000000
00000100
00000000
00010000
00000000
00000010
00000000
00000100
,  // measure 19
00000000
00000010
00000100
00000000
00000001
00000000
00001000
00000100
00000000
00010000
00000000
00001000
00000000
00100000
00000000
00010000
,  // measure 20
00000000
00100000
01000000
00000000
10000000
00000000
00010000
01000000
00000000
00010000
00000000
00100000
00000000
00001000
00000000
00010000
,  // measure 21
00001000
00000000
00010000
00000000
00000100
00000000
00001000
00000010
00000000
00100000
00000000
00001000
00000000
00010000
00000000
00011000
,  // measure 22
00000000
00001000
01000000
00000000
00010000
00000000
00010000
00100000
00000000
00000010
00000000
00010000
00000000
00001000
00000000
01000000
,  // measure 23
00010000
10000000
00010000
00000000
10000000
00000000
01000000
00100000
00000000
00010000
00000000
00100000
00000000
00000010
00000000
00001000
,  // measure 24
00000000
00001000
00000001
00000000
00001000
00000000
00000001
00001000
00000000
00000100
00000000
00010000
00000000
00000100
00000000
01000000
,  // measure 25
00020000
00000000
00000000
01000000
00000000
00000000
10000000
00000000
10030000
00000000
00000000
00000000
00000000
00000000
00000000
00000000
,  // measure 26
00000000
00000000
00000000
00000000
00000000
00000000
00000000
00000000
00000000
00000000
10200000
00000000
00000000
01000000
00000000
00000000
,  // measure 27
20300000
00000000
00000000
00010000
00000000
00000000
00100000
00000000
30100000
00000000
00000000
00000000
00000000
00000000
00000000
00000000
,  // measure 28
00000000
00000000
00000000
00000000
00000000
00010000
00100000
00001000
,  // measure 29
00021000
00000000
00000000
00000010
00000000
00000100
00000000
00030010
,  // measure 30
00000000
00000000
00000000
00000000
00000000
00000000
00000000
00000000
00000000
00000000
00000010
00000000
00000000
00000010
00000000
00000000
,  // measure 31
00020000
00000000
00000000
00030100
00000000
00000000
00002000
00000000
00000000
00003010
00000000
00000000
00010000
00000000
00000000
00000000
,  // measure 32
00011000
00110000
10010000
00000000
,  // measure 33
00010000
01000000
00010000
01000000
,  // measure 34
00001000
01000000
00001000
01000000
,  // measure 35
00001000
00010000
00001000
00010000
,  // measure 36
00000100
00000000
00010000
00000000
00000100
00000000
00010000
00010000
,  // measure 37
00010100
00000000
00010000
00000010
00001010
00000000
00000001
00000100
,  // measure 38
00000101
00000000
00000000
00000000
00000001
00000000
00001000
00000000
00001100
00000000
00000000
00000000
00001000
00000000
00000000
00001100
,  // measure 39
00000000
00010100
00000000
00000000
00000000
00011000
00000000
01001000
00000000
00000000
00000000
00000000
00000000
10100000
00000000
10010000
,  // measure 40
00000000
00000000
00000000
00000000
10000000
01000000
00000000
00110000
00000000
00000000
00010000
10000000
00000000
00010000
00000000
10000000
,  // measure 41
01000000
10000000
00010000
01000000
00010000
00100000
01000000
00100000
,  // measure 42
00010000
00001000
00000100
00000010
00000001
00001000
00000001
00001000
,  // measure 43
00000001
00000100
00001000
00010000
00100000
10000000
01000000
00010000
,  // measure 44
00001000
00000010
00000001
00000100
00001000
00010000
00001000
00010000
,  // measure 45
00000100
00001000
00000010
00010000
00001000
00100000
00010000
00100000
,  // measure 46
00001000
00010000
00000100
00001000
00000010
00001000
00000001
00001000
,  // measure 47
00000001
00000100
00001000
00010000
00100000
10000000
01000000
00010000
,  // measure 48
00001000
00000000
00000010
00000000
00000001
00000000
00001000
00000000
00000001
00000100
00000001
00000100
00000001
00000000
00001000
00000000
,  // measure 49
00000100
00000000
00010000
00000000
00001000
00100000
00000000
00100000
00010000
00000000
10000000
00000000
00010000
01000000
00000000
01000000
,  // measure 50
00100000
00000000
10000000
00000000
00010000
00100000
00000000
00100000
01000000
00000000
00100000
00000000
00001000
00010000
00000000
00000100
,  // measure 51
00001000
00000000
00000001
00000000
00000100
00000001
00000000
00000001
00000010
00000000
00000100
00000000
00001000
00000100
00000000
00000100
,  // measure 52
00010000
00000000
00001000
00000000
01000000
00001000
00000000
00001000
00010000
00000000
00000100
00000000
00001000
00000010
00000000
00000010
,  // measure 53
00010000
00000000
00001000
00000000
01000000
00001000
00000000
00001000
00010000
00000000
00100000
00000000
01000000
10000000
00000000
10000000
,  // measure 54
00010000
00000000
01000000
00000000
00100000
10000000
00000000
10000000
00100000
00000000
01000000
00000000
00001000
00010000
00000000
00010000
,  // measure 55
00000100
00000000
00001000
00000000
00000010
00000100
00000000
00000100
00000001
00000000
00000010
00000000
00000100
00010000
00000000
00010000
,  // measure 56
00000100
00000000
00010000
00001000
00010000
00000000
00001000
00000000
01000000
00010000
01000000
00000000
00100000
10000000
00100000
00000000
,  // measure 57
01000000
00000000
00010000
00000000
00000000
00110000
00000000
11000000
00000000
00000000
10000000
00000000
00000000
10100000
00000000
01010000
,  // measure 58
00000000
00000000
00010000
00000000
00000000
10010000
00000000
01010000
00000000
00000000
01100000
00000000
00000000
01001000
00000000
00011000
,  // measure 59
00000000
00000000
00010000
00000000
00000000
00001100
00000000
00001001
00000000
00000000
00000001
00000000
00000000
00000110
00000000
00001100
,  // measure 60
00000000
00000000
00001000
00000000
00000000
00001100
00000000
00001001
00000000
00000000
00011000
00000000
00000000
00001100
00000000
00011000
,  // measure 61
00000000
00000000
00001000
00000000
00000000
01001000
00000000
01100000
00000000
00000000
01000000
00000000
00000000
01100000
00000000
01010000
,  // measure 62
00000000
00000000
00010000
00000000
00000000
00110000
00000000
00101000
00000000
00000000
00011000
00000000
00000000
00010100
00000000
00010000
,  // measure 63
00000100
00000000
00001000
00000000
00000010
00000000
00000100
00000001
00001000
00000000
00000001
00000000
00000100
00000000
00000010
00001000
,  // measure 64
00000100
00000000
00001000
00000100
00010000
00000000
00001000
01000000
00100000
00000000
10000000
00000000
00010000
10000000
00000000
10000000
,  // measure 65
00010000
01000000
00001000
00100000
00000000
00000000
00000000
00000000
00000000
00000000
00000000
00000000
00000000
00000000
00000000
00000000
;
