#VERSION:0.83;
#TITLE:おおきなこえで;
#SUBTITLE:;
#ARTIST:猫叉Master feat.Sana;
#TITLETRANSLIT:Ookina koe de;
#SUBTITLETRANSLIT:;
#ARTISTTRANSLIT:;
#GENRE:;
#CREDIT:;
#MUSIC:Ookina koe de.ogg;
#BANNER:banner.png;
#BACKGROUND:background.png;
#JACKET:jacket.png;
#DISCIMAGE:;
#CDIMAGE:;
#SELECTABLE:YES;
#LYRICSPATH:;
#CDTITLE:cdtitle.png;
#SAMPLESTART:72.503;
#SAMPLELENGTH:18.625;
#OFFSET:1.897;
#BPMS:0.000000=100.000000;
#STOPS:;
#WARPS:;
#DELAYS:;
#SPEEDS:;
#SCROLLS:;
#TICKCOUNTS:;
#TIMESIGNATURES:;
#LABELS:;
#COMBOS:;
#FAKES:;
#BGCHANGES:;
#FGCHANGES:;
#ATTACKS:;

//---------------dance-single - ---------------
#NOTEDATA:;
#CHARTNAME:;
#CHARTSTYLE:;
#CREDIT:Pandemonium X;
#STEPSTYPE:dance-single;
#DESCRIPTION:;
#DIFFICULTY:Hard;
#METER:10;
#METERF:10;
#RADARVALUES:0,0,0,0,0;
#NOTES:
// measure 0
0000
0000
0000
0000
,  // measure 1
0000
0000
0000
0000
,  // measure 2
0000
0000
0000
0000
,  // measure 3
0000
0000
0000
0000
,  // measure 4
0000
0000
0000
0000
,  // measure 5
0001
0100
0020
1030
,  // measure 6
0000
0000
0000
0100
0000
0000
0000
0000
0000
0100
0000
0000
0000
0000
0000
0100
0000
0000
0000
0000
0000
0100
0000
0000
0000
0000
0000
0000
1000
0000
0000
0000
0100
0000
0000
0000
1000
0000
0000
0000
0001
0000
0000
0000
0100
0000
0000
0000
,  // measure 7
0001
0000
0000
0000
1000
0000
0000
0000
0200
0000
0000
0000
0310
0000
0100
1000
,  // measure 8
0001
0000
0000
0000
0100
0000
0001
1000
0010
0000
1000
0000
0001
0010
0001
0000
,  // measure 9
0100
0010
2000
3001
,  // measure 10
0000
0010
0000
0010
0000
0000
0010
0001
1000
0000
0010
0000
0100
0001
1000
0000
,  // measure 11
0100
0010
0002
1003
,  // measure 12
0001
0100
0010
0001
0010
1000
0100
0001
,  // measure 13
0100
1000
0001
0000
0100
0001
1000
0000
,  // measure 14
0010
1000
0001
0000
0010
0100
1000
0001
,  // measure 15
0100
0010
1000
0000
0010
0100
0001
0000
,  // measure 16
2000
3100
0020
0031
,  // measure 17
1000
0001
0100
0000
0001
1000
0010
0000
,  // measure 18
1000
0001
0010
0000
0100
0010
0001
0000
,  // measure 19
0010
0001
1000
0000
0010
1000
0001
0000
,  // measure 20
0020
0130
2000
3001
,  // measure 21
1000
0000
0001
0000
0000
0100
0000
0010
0000
0000
0000
0000
0000
0000
0000
0000
,  // measure 22
0000
0100
0000
0001
0000
1000
0000
0100
0000
0000
0000
0000
0010
0000
0100
0000
,  // measure 23
1000
0000
0001
0000
0000
0100
0000
0010
0000
0000
0000
0000
0000
0000
0000
0000
,  // measure 24
0000
0000
1000
0000
1000
0000
0001
0000
0001
0000
1000
0000
0000
0000
0000
0000
0000
0000
0001
0000
0000
1000
0000
0000
,  // measure 25
0100
0000
0010
0000
0000
0001
0000
1000
0000
0000
0000
0000
0000
0000
0000
0000
,  // measure 26
0000
0010
0000
1000
0000
0001
0000
0100
0000
0000
0000
0000
0001
0000
1000
0000
,  // measure 27
0200
0310
0020
0031
,  // measure 28
0002
0000
0000
0000
0000
0000
0000
0200
0000
0000
0000
0000
0303
0000
0000
0000
,  // measure 29
0002
0203
2300
3020
,  // measure 30
0032
0000
0000
0000
0000
0000
0000
2000
0000
0000
0000
0000
3003
0000
0000
0000
,  // measure 31
0002
0000
0203
0000
0320
0000
1030
0010
,  // measure 32
0100
0001
2000
0000
0000
0000
0000
0000
0000
0000
0000
0000
0000
0000
0100
0000
,  // measure 33
3200
0000
0320
0000
0032
0000
1003
0010
,  // measure 34
1000
0001
0200
0000
0000
0000
0000
0000
0000
0000
0000
0000
0000
0000
0010
0000
,  // measure 35
0320
0000
2030
0000
3002
0000
0013
0100
,  // measure 36
0010
0001
0020
0000
0000
0000
0130
1000
0200
0000
0000
0000
2300
0000
0000
0000
,  // measure 37
3002
0000
0000
0000
0000
0000
1003
0010
2000
0000
0000
0000
0000
0000
0000
0000
,  // measure 38
0001
0000
0010
0000
0100
0000
3010
1000
,  // measure 39
0200
0000
0320
0000
0230
0000
1300
0001
,  // measure 40
0100
0001
0020
0000
0000
0000
0130
1000
0001
0000
0010
0000
1000
0000
0010
0000
,  // measure 41
0002
0000
2003
0000
3020
0000
0130
0001
,  // measure 42
1000
0010
0200
0000
0000
0000
0310
1000
0001
0000
1000
0000
0001
0000
0100
0000
,  // measure 43
0200
0000
0320
0000
2030
0000
3001
0010
,  // measure 44
0001
1000
0020
0000
0000
0000
1030
0001
0200
0000
0000
0000
0302
0000
0000
0000
,  // measure 45
2003
0000
0000
0000
0000
0000
3001
0100
0002
0000
0000
0000
0000
0000
0000
0000
,  // measure 46
0100
0010
1000
0103
,  // measure 47
0010
1000
0200
0000
,  // measure 48
0300
0000
0000
0020
0000
0030
0000
0000
,  // measure 49
0001
0000
0000
0000
0000
0000
0000
0000
1000
0000
0000
0000
0000
0000
0000
0000
0010
0000
0000
0000
0000
0000
0000
1000
0000
0001
0000
0010
0000
0000
0100
0000
,  // measure 50
0000
0010
0000
0010
0000
0010
0000
0000
0010
0000
0010
0000
0000
0000
0000
0000
;

//---------------dance-single - ---------------
#NOTEDATA:;
#CHARTNAME:;
#CHARTSTYLE:;
#CREDIT:Pandemonium X;
#STEPSTYPE:dance-single;
#DESCRIPTION:;
#DIFFICULTY:Medium;
#METER:8;
#METERF:8;
#RADARVALUES:0,0,0,0,0;
#NOTES:
// measure 0
0000
0000
0000
0000
,  // measure 1
0000
0000
0000
0000
,  // measure 2
0000
0000
0000
0000
,  // measure 3
0000
0000
0000
0000
,  // measure 4
0000
0000
0000
0000
,  // measure 5
0001
1000
0200
0000
,  // measure 6
0000
0010
0000
0010
0000
0010
0000
0310
0000
0000
0000
0000
0010
0000
0000
0000
,  // measure 7
0001
0000
1000
0000
0020
0000
0000
0130
,  // measure 8
0001
0000
0000
0001
0100
0010
1000
0001
,  // measure 9
1000
0100
0020
0000
,  // measure 10
0000
0001
0000
0001
0000
0031
0000
0000
1000
0000
0010
0000
0100
0000
0001
0000
,  // measure 11
1000
0000
0001
0000
0100
0000
0010
0100
,  // measure 12
1000
0100
0001
1000
0100
0001
0100
1000
,  // measure 13
0001
0000
1000
0000
0100
0000
1000
1000
,  // measure 14
0001
0000
0100
0000
0010
0000
0100
0100
,  // measure 15
0010
0000
0100
0000
0001
0000
0010
0010
,  // measure 16
0100
0010
0001
0000
,  // measure 17
1000
0000
0001
0000
0100
0000
0001
0001
,  // measure 18
1000
0000
0100
0000
0010
0000
0100
0100
,  // measure 19
1000
0001
0100
0010
,  // measure 20
0100
0001
1000
0100
,  // measure 21
0010
0000
0100
0000
0000
1000
0000
0001
0000
0000
0000
0000
0000
0000
0000
0000
,  // measure 22
0000
0100
0000
0001
0000
1000
0000
0001
0000
0000
0000
0000
1000
0000
0100
0000
,  // measure 23
1000
0000
0001
0000
0000
0100
0000
0001
0000
0000
0000
0000
0000
0000
0000
0000
,  // measure 24
0000
0020
0000
0000
0000
0000
0000
0030
0000
0000
0000
0000
0000
0000
0000
0000
,  // measure 25
0100
0000
1000
0000
0000
0001
0000
1000
0000
0000
0000
0000
0000
0000
0000
0000
,  // measure 26
0000
0001
0000
0100
0000
0010
0000
0100
0000
0000
0000
0000
0001
0000
1000
0000
,  // measure 27
0100
0010
0001
0010
,  // measure 28
0200
0000
0000
0000
0000
0000
0000
2000
0000
0000
0000
0000
3300
0000
0000
0000
,  // measure 29
0001
0100
0010
1000
,  // measure 30
0002
0000
0000
0000
0000
0000
0000
2000
0000
0000
0000
0000
3003
0000
0000
0000
,  // measure 31
0001
0000
0100
0000
0010
0000
1000
0010
,  // measure 32
1000
0010
2000
0000
0000
0000
0000
0000
0000
0000
0000
0000
3000
0000
0001
0000
,  // measure 33
1000
0000
0001
0000
0010
0000
0100
0010
,  // measure 34
0001
0010
0002
0000
0000
0000
0000
0000
0000
0000
0000
0000
0003
0000
0010
0000
,  // measure 35
0001
0000
0100
0000
0001
0000
1000
0010
,  // measure 36
0100
0010
0100
0000
0000
0000
0010
0100
0010
0000
0000
0000
0100
0000
0000
0000
,  // measure 37
0001
0000
0000
0000
0000
0000
1000
0001
2000
0000
0000
0000
0000
0000
0000
0000
,  // measure 38
0000
0000
3100
0000
0010
0000
0001
0010
,  // measure 39
0001
0000
0010
0000
0100
0000
0010
0001
,  // measure 40
1000
0001
2000
0000
0000
0000
0000
0000
0000
0000
0000
0000
3000
0000
0100
0000
,  // measure 41
0010
0000
0100
0000
1000
0000
0010
0100
,  // measure 42
0001
0100
0002
0000
0000
0000
0000
0000
0000
0000
0000
0000
0003
0000
1000
0000
,  // measure 43
0100
0000
0010
0000
0001
0000
0010
0001
,  // measure 44
0100
0001
0100
0000
0000
0000
0010
1000
0010
0000
0000
0000
0100
0000
0000
0000
,  // measure 45
0001
0000
0000
0000
0000
0000
1000
0100
2000
0000
0000
0000
0000
0000
0000
0000
,  // measure 46
0000
3001
0100
0010
,  // measure 47
1000
0001
0100
0000
,  // measure 48
0000
0000
0000
0020
0000
0030
0000
0000
,  // measure 49
0100
0000
0000
0000
0001
0000
0000
0000
1000
0000
0000
0000
0001
0000
0000
2000
,  // measure 50
0000
0000
0000
0000
0000
0000
0000
0000
0001
0000
0001
0000
0000
0000
0000
3000
;

//---------------dance-single - ---------------
#NOTEDATA:;
#CHARTNAME:;
#CHARTSTYLE:;
#CREDIT:Pandemonium X;
#STEPSTYPE:dance-single;
#DESCRIPTION:;
#DIFFICULTY:Easy;
#METER:4;
#METERF:4;
#RADARVALUES:0,0,0,0,0;
#NOTES:
// measure 0
0000
0000
0000
0000
,  // measure 1
0000
0000
0000
0000
,  // measure 2
0000
0000
0000
0000
,  // measure 3
0000
0000
0000
0000
,  // measure 4
0000
0000
0000
0000
,  // measure 5
0001
1000
0020
0000
,  // measure 6
0000
0000
0030
0000
,  // measure 7
1000
0001
0200
0000
,  // measure 8
0000
0000
0300
0000
,  // measure 9
0001
1000
0002
0000
,  // measure 10
1000
0000
1000
0000
,  // measure 11
1003
0001
2000
0000
,  // measure 12
0001
0000
3001
1000
,  // measure 13
0001
0000
0100
0000
,  // measure 14
0010
0000
1000
0000
,  // measure 15
0100
0000
1000
0000
,  // measure 16
0001
1000
0001
0000
,  // measure 17
0100
0000
0001
0000
,  // measure 18
0010
0000
0001
0000
,  // measure 19
1000
0000
0001
0000
,  // measure 20
1000
0001
0100
0010
,  // measure 21
1000
0000
0000
0000
0000
1000
0000
0000
0000
0000
0000
0000
0000
0000
0000
0000
,  // measure 22
0000
0001
0000
0000
0000
0000
0000
0000
0000
0000
0000
0000
1000
0000
0000
0000
,  // measure 23
0001
0000
0000
0000
0000
1000
0000
0000
0000
0000
0000
0000
0000
0000
0000
0000
,  // measure 24
0010
0000
0000
0000
,  // measure 25
0100
0000
0000
0000
0000
0010
0000
0000
0000
0000
0000
0000
0000
0000
0000
0000
,  // measure 26
0000
0100
0000
0000
0000
0000
0000
0000
0000
0000
0000
0000
0000
0000
0000
0000
,  // measure 27
0001
0000
1000
0000
,  // measure 28
0010
0000
0100
0000
,  // measure 29
0002
0000
0000
0000
,  // measure 30
0000
0000
0003
0000
,  // measure 31
1000
0001
0100
0001
,  // measure 32
2000
0000
0000
3000
,  // measure 33
0001
1000
0100
0010
,  // measure 34
0200
0000
0000
0300
,  // measure 35
0010
0100
1000
0001
,  // measure 36
0100
0000
0001
1000
,  // measure 37
0001
0000
2000
0000
,  // measure 38
0000
0001
0000
3001
,  // measure 39
1000
0010
0100
0001
,  // measure 40
2000
0000
0000
3000
,  // measure 41
0100
0010
0100
1000
,  // measure 42
0002
0000
0000
0003
,  // measure 43
1000
0001
0100
0001
,  // measure 44
0010
0000
0100
0010
,  // measure 45
0100
0000
2000
0000
,  // measure 46
0000
3001
1000
0010
,  // measure 47
0100
0000
0001
0000
,  // measure 48
0000
0000
1000
0000
,  // measure 49
0001
0000
1000
0000
,  // measure 50
0020
0000
0000
0000
0000
0030
0000
0000
;

//---------------dance-single - ---------------
#NOTEDATA:;
#CHARTNAME:;
#CHARTSTYLE:;
#CREDIT:Pandemonium X;
#STEPSTYPE:dance-single;
#DESCRIPTION:;
#DIFFICULTY:Beginner;
#METER:1;
#METERF:1;
#RADARVALUES:0,0,0,0,0;
#NOTES:
// measure 0
0000
0000
0000
0000
,  // measure 1
0000
0000
0000
0000
,  // measure 2
0000
0000
0000
0000
,  // measure 3
0000
0000
0000
0000
,  // measure 4
0000
0000
0000
0000
,  // measure 5
0001
0000
0000
0000
,  // measure 6
1000
0000
0000
0000
,  // measure 7
0001
0000
0000
0000
,  // measure 8
1000
0000
0001
0000
,  // measure 9
0100
0000
0000
0000
,  // measure 10
0010
0000
0000
0000
,  // measure 11
0100
0000
0000
0000
,  // measure 12
0001
0000
1000
0000
,  // measure 13
0100
0000
0000
0000
,  // measure 14
1000
0000
0000
0000
,  // measure 15
0001
0000
0000
0000
,  // measure 16
0100
0000
0100
0000
,  // measure 17
0001
0000
0000
0000
,  // measure 18
1000
0000
0000
0000
,  // measure 19
0100
0000
0000
0000
,  // measure 20
0010
0000
0010
0000
,  // measure 21
0001
0000
0000
0000
,  // measure 22
1000
0000
0000
0000
,  // measure 23
0010
0000
0000
0000
,  // measure 24
0200
0000
0000
0000
0000
0300
0000
0000
0000
0000
0000
0000
,  // measure 25
0010
0000
0000
0000
,  // measure 26
0100
0000
0000
0000
,  // measure 27
0001
0000
1000
0000
,  // measure 28
0100
0000
0000
0000
,  // measure 29
2000
0000
0000
0000
,  // measure 30
0000
0000
3000
0000
,  // measure 31
0001
0000
1000
0000
,  // measure 32
0100
0000
0000
0000
,  // measure 33
1000
0000
0001
0000
,  // measure 34
0100
0000
0000
0000
,  // measure 35
0001
0000
1000
0000
,  // measure 36
0100
0000
1000
0000
,  // measure 37
0001
0000
0100
0000
,  // measure 38
0000
0000
0000
0000
,  // measure 39
0001
0000
1000
0000
,  // measure 40
0010
0000
0000
0000
,  // measure 41
1000
0000
0001
0000
,  // measure 42
0100
0000
0000
0000
,  // measure 43
0001
0000
1000
0000
,  // measure 44
0001
0000
0010
0000
,  // measure 45
0001
0000
1000
0000
,  // measure 46
0000
0000
0000
0000
,  // measure 47
0001
0000
1000
0000
,  // measure 48
0000
0000
0010
0000
,  // measure 49
0100
0000
0010
0000
,  // measure 50
2000
0000
0000
0000
0000
3000
0000
0000
;

//---------------dance-double - ---------------
#NOTEDATA:;
#CHARTNAME:;
#CHARTSTYLE:;
#CREDIT:Pandemonium X;
#STEPSTYPE:dance-double;
#DESCRIPTION:;
#DIFFICULTY:Hard;
#METER:10;
#METERF:10;
#RADARVALUES:0,0,0,0,0;
#NOTES:
// measure 0
00000000
00000000
00000000
00000000
,  // measure 1
00000000
00000000
00000000
00000000
,  // measure 2
00000000
00000000
00000000
00000000
,  // measure 3
00000000
00000000
00000000
00000000
,  // measure 4
00000000
00000000
00000000
00000000
,  // measure 5
00001000
00100000
00020000
00000000
,  // measure 6
00030000
00000000
00000000
01000000
00000000
00000000
00000000
00000000
00000000
01000000
00000000
00000000
00000000
00000000
00000000
01000000
00000000
00000000
00000000
00000000
00000000
01000000
00000000
00000000
00000000
00000000
00000000
00000000
00000000
00000000
00100000
00000000
00000000
00000000
00000000
00000000
10000000
00000000
00000000
00000000
01000000
00000000
00000000
00000000
00100000
00000000
00000000
00000000
,  // measure 7
00020000
00000000
00000000
00000000
20030000
00000000
00000000
00000000
30200000
00000000
00000000
00000000
00000000
00000000
01300000
00010000
,  // measure 8
10000000
00000000
00000000
00000000
00000000
00000000
01000000
00100000
00010000
00000000
00100000
00000000
00001000
00010000
00000100
00000000
,  // measure 9
00002000
00003020
00000230
00000000
,  // measure 10
00000300
00000010
00000000
00000010
00000000
00000010
00000000
00000000
00000100
00000000
00000001
00000000
00001000
00000100
00000010
00000000
,  // measure 11
00000200
00000320
00000032
00000003
,  // measure 12
00001000
00000010
00000100
00001000
00000100
00000001
00001000
00000100
,  // measure 13
00010000
00001000
01000000
00000000
00100000
10000000
00010000
00010000
,  // measure 14
10000000
01000000
00100000
00000000
01000000
00100000
00010000
00010000
,  // measure 15
00100000
00001000
00010000
00000000
00001000
00010000
00000010
00000010
,  // measure 16
00000110
00000101
00001010
00000000
,  // measure 17
00000010
00000100
00000001
00000000
00001000
00000100
00010000
00010000
,  // measure 18
00001000
00100000
00010000
00000000
00100000
00010000
10000000
10000000
,  // measure 19
00010000
01000000
00100000
00000000
01000000
00010000
10000000
10000000
,  // measure 20
00010000
00100000
00001000
00010000
,  // measure 21
00000010
00000000
00000100
00000000
00000000
00000001
00000000
00001000
00000000
00000000
00000000
00000000
00000000
00000000
00000000
00000000
,  // measure 22
00000000
00000100
00000000
00000100
00000000
00001000
00000000
00000010
00000000
00000000
00000000
00000000
00000100
00000000
00000010
00000000
,  // measure 23
00010000
00000000
00001000
00000000
00000000
00010000
00000000
00010000
00000000
00000000
00000000
00000000
00000000
00000000
00000000
00000000
,  // measure 24
00000000
00000000
00001000
00000000
00000000
00010000
00000000
00000000
00001000
00000000
00000000
00010000
00000000
00000000
00001000
00000000
00000000
00000000
00000000
00000000
00000000
00000000
00000000
00000000
00010000
00000000
00000000
00000000
00001000
00000000
00000000
00000000
,  // measure 25
01000000
00000000
00010000
00000000
00000000
00100000
00000000
01000000
00000000
00000000
00000000
00000000
00000000
00000000
00000000
00000000
,  // measure 26
00000000
00100000
00000000
00100000
00000000
00010000
00000000
10000000
00000000
00000000
00000000
00000000
00010000
00000000
01000000
00000000
,  // measure 27
00020000
00230000
00302000
00023000
,  // measure 28
00030020
00000000
00000000
00000000
00000000
00000000
00000000
00000230
00000000
00000000
00000000
00000000
00000300
00000000
00000000
00000000
,  // measure 29
00000100
00001000
00010000
00100000
,  // measure 30
20000000
00000000
00000000
00000000
00000000
00000000
00000000
00020000
00000000
00000000
00000000
00000000
30030000
00000000
00000000
00000000
,  // measure 31
10000000
00000000
01000000
00000000
00100000
00000000
00010000
00100000
,  // measure 32
00001000
00010000
00000200
00000000
00000000
00000000
00000000
00000000
00000000
00000000
00000000
00000000
00000300
00000000
00001000
00000000
,  // measure 33
00000010
00000000
00000100
00000000
00000010
00000000
00000100
00000010
,  // measure 34
00001000
00000100
00020000
00000000
00000000
00000000
00000000
00000000
00000000
00000000
00000000
00000000
00030000
00000000
00001000
00000000
,  // measure 35
00100000
00000000
00010000
00000000
01000000
00000000
00100000
00010000
,  // measure 36
00100000
10000000
02000000
00000000
00000000
00000000
03100000
01000000
10000000
00000000
00000000
00000000
00010000
00000000
00000000
00000000
,  // measure 37
02000000
00000000
00000000
00000000
00000000
00000000
03001000
00020000
00002000
00000000
00000000
00000000
00000000
00000000
00000000
00000000
,  // measure 38
00033000
00000000
00010000
00000000
00001000
00000000
00010000
00000100
,  // measure 39
00001000
00000000
00000010
00000000
00000100
00000000
00001000
00000100
,  // measure 40
00000001
00000010
00000100
00000000
00000000
00000000
00000000
00000000
00000010
00000000
00000001
00000000
00001000
00000000
00000010
00000000
,  // measure 41
00010000
00000000
00001000
00000000
00100000
00000000
00010000
00100000
,  // measure 42
01000000
10000000
00010000
00000000
00000000
00000000
00000000
00000000
10000000
00000000
01000000
00000000
00100000
00000000
00010000
00000000
,  // measure 43
01000000
00000000
00001000
00000000
00010000
00000000
00000100
00001000
,  // measure 44
00000010
00000100
00000010
00000000
00000000
00000000
00001000
00000001
00001000
00000000
00000000
00000000
00000100
00000000
00000000
00000000
,  // measure 45
00010000
00000000
00000000
00000000
00000000
00000000
00001000
00010000
00002000
00000000
00000000
00000000
00000000
00000000
00000000
00000000
,  // measure 46
00013000
00001000
00010000
00001000
,  // measure 47
00100000
00001000
00100000
00000000
,  // measure 48
00000000
00000000
00000000
00002000
00000000
00003000
00000000
00000000
,  // measure 49
00010000
00000000
00000000
00000000
00001000
00000000
00000000
00000000
00100000
00000000
00000000
00000000
00001000
00010000
00000000
00001000
,  // measure 50
00000000
00010000
00000000
00001000
00000000
00001000
00000000
00000000
00001000
00000000
00001000
00000000
00000000
00000000
00000000
00000000
;

//---------------dance-double - ---------------
#NOTEDATA:;
#CHARTNAME:;
#CHARTSTYLE:;
#CREDIT:Pandemonium X;
#STEPSTYPE:dance-double;
#DESCRIPTION:;
#DIFFICULTY:Medium;
#METER:7;
#METERF:7;
#RADARVALUES:0,0,0,0,0;
#NOTES:
// measure 0
00000000
00000000
00000000
00000000
,  // measure 1
00000000
00000000
00000000
00000000
,  // measure 2
00000000
00000000
00000000
00000000
,  // measure 3
00000000
00000000
00000000
00000000
,  // measure 4
00000000
00000000
00000000
00000000
,  // measure 5
00001000
00010000
00002000
00000000
,  // measure 6
00003000
00010000
00000000
00001000
00000000
00010000
00000000
00001000
00000000
00000000
00000000
00000000
00010000
00000000
00000000
00000000
,  // measure 7
00000100
00001000
00000200
00000000
,  // measure 8
00001300
00000000
00000010
00000100
,  // measure 9
00000001
00001000
00000002
00000000
,  // measure 10
00000003
00000010
00000000
00000001
00000000
00000010
00000000
00000000
00000001
00000000
00000000
00000000
00000010
00000000
00000000
00000000
,  // measure 11
00000100
00001000
00000200
00010300
,  // measure 12
00001000
01000000
00010000
00000000
01000000
00010000
10000000
00000000
,  // measure 13
01000000
00000000
10000000
00000000
00100000
00000000
01000000
01000000
,  // measure 14
00010000
00000000
00100000
00000000
00001000
00000000
00010000
00010000
,  // measure 15
00000100
00000000
00001000
00000000
00000010
00000000
00000100
00000100
,  // measure 16
00000110
00001001
00001001
00000000
,  // measure 17
00000001
00000000
00001000
00000000
00000100
00010000
00010000
00000000
,  // measure 18
00001000
00000000
01000000
00000000
00010000
00000000
10000000
10000000
,  // measure 19
01000000
00100000
00001000
00010000
,  // measure 20
00000200
00001300
00002000
00003010
,  // measure 21
00000100
00000000
00000001
00000000
00000000
00001000
00000000
00000100
00000000
00000000
00000000
00000000
00000000
00000000
00000000
00000000
,  // measure 22
00000000
00000010
00000000
00000001
00000000
00000100
00000000
00000010
00000000
00000000
00000000
00000000
00000100
00000000
00000010
00000000
,  // measure 23
00001000
00000000
00000100
00000000
00000000
00010000
00000000
00001000
00000000
00000000
00000000
00000000
00000000
00000000
00000000
00000000
,  // measure 24
00000000
00020000
00000000
00000000
00000000
00000000
00000000
00030000
00000000
00000000
00000000
00000000
00000000
00000000
00000000
00000000
,  // measure 25
00001000
00000000
00010000
00000000
00000000
00001000
00000000
01000000
00000000
00000000
00000000
00000000
00000000
00000000
00000000
00000000
,  // measure 26
00000000
00010000
00000000
01000000
00000000
00100000
00000000
10000000
00000000
00000000
00000000
00000000
00100000
00000000
01000000
00000000
,  // measure 27
00010000
00100000
01000000
10000000
,  // measure 28
00020000
00000000
00000000
00000000
00000000
00000000
00000000
00200000
00000000
00000000
00000000
00000000
00330000
00000000
00000000
00000000
,  // measure 29
00100000
00001000
00010000
00000010
,  // measure 30
00000200
00000000
00000000
00000000
00000000
00000000
00000000
00000020
00000000
00000000
00000000
00000000
00000330
00000000
00000000
00000000
,  // measure 31
00000010
00000100
00000001
00001000
,  // measure 32
00000100
00010000
00000200
00000000
00000000
00000000
00000000
00000000
00000000
00000000
00000300
00000000
00000000
00000000
00000000
00000000
,  // measure 33
00010000
00001000
01000000
00010000
,  // measure 34
10000000
01000000
20000000
00000000
00000000
00000000
00000000
00000000
00000000
00000000
00000000
00000000
30000000
00000000
01000000
00000000
,  // measure 35
10000000
00000000
00100000
00000000
01000000
00000000
00010000
00100000
,  // measure 36
00001000
00010000
00001000
00000000
00000000
00000000
00010000
00001000
00010000
00000000
00000000
00000000
00010000
00000000
00000000
00000000
,  // measure 37
00000100
00000000
00000000
00000000
00000000
00000000
00001000
00000100
00002000
00000000
00000000
00000000
00000000
00000000
00000000
00000000
,  // measure 38
00003000
00000000
00000010
00000000
00000100
00000000
00000001
00001000
,  // measure 39
00000100
00000000
00010000
00000000
00001000
00000000
01000000
00010000
,  // measure 40
10000000
01000000
20000000
00000000
00000000
00000000
00000000
00000000
00000000
00000000
00000000
00000000
30000000
00000000
00000000
00000000
,  // measure 41
00010000
00000000
10000000
00000000
01000000
00000000
00100000
00010000
,  // measure 42
01000000
00010000
02000000
00000000
00000000
00000000
00000000
00000000
00000000
00000000
00000000
00000000
03000000
00000000
00010000
00000000
,  // measure 43
00100000
00000000
00001000
00000000
00010000
00000000
00001000
00010000
,  // measure 44
00000100
00001000
00000100
00000000
00000000
00000000
00001000
00000100
00001000
00000000
00000000
00000000
00000100
00000000
00000000
00000000
,  // measure 45
00001000
00000000
00000000
00000000
00000000
00000000
00000001
00001000
00000002
00000000
00000000
00000000
00000000
00000000
00000000
00000000
,  // measure 46
00000000
00000003
00000000
00000000
,  // measure 47
00000100
00000010
00000100
00000000
,  // measure 48
00000000
00000000
00000000
00000000
00000000
00000000
00000002
00000000
00000000
00000000
00000000
00000003
00000000
00000000
00000000
00000000
,  // measure 49
00001000
00000100
00001000
00000100
,  // measure 50
00020000
00000000
00000000
00000000
00000000
00030000
00000000
00000000
;

//---------------dance-double - ---------------
#NOTEDATA:;
#CHARTNAME:;
#CHARTSTYLE:;
#CREDIT:Pandemonium X;
#STEPSTYPE:dance-double;
#DESCRIPTION:;
#DIFFICULTY:Easy;
#METER:2;
#METERF:2;
#RADARVALUES:0,0,0,0,0;
#NOTES:
// measure 0
00000000
00000000
00000000
00000000
,  // measure 1
00000000
00000000
00000000
00000000
,  // measure 2
00000000
00000000
00000000
00000000
,  // measure 3
00000000
00000000
00000000
00000000
,  // measure 4
00000000
00000000
00000000
00000000
,  // measure 5
00010000
10000000
00020000
00000000
,  // measure 6
00000000
00000000
00030000
00000000
,  // measure 7
01000000
00010000
02000000
00000000
,  // measure 8
03000000
00000000
00010000
10000000
,  // measure 9
01000000
00100000
02000000
00000000
,  // measure 10
00000000
00000000
03000000
00000000
,  // measure 11
00100000
00010000
00200000
00000000
,  // measure 12
00301000
00000000
00010000
00000000
,  // measure 13
00000100
00000000
00001000
00000000
,  // measure 14
00000010
00000000
00000100
00000000
,  // measure 15
00000001
00000000
00001000
00000000
,  // measure 16
00000100
00001000
00000100
00000000
,  // measure 17
00000010
00000000
00000100
00000000
,  // measure 18
00000001
00000000
00001000
00000000
,  // measure 19
00000100
00000000
00010000
00000000
,  // measure 20
00001000
00010000
00001000
00010000
,  // measure 21
00001000
00000000
00000000
00000000
,  // measure 22
01000000
00000000
00000000
00000000
,  // measure 23
00100000
00000000
00000000
00000000
,  // measure 24
20000000
00000000
30000000
00000000
,  // measure 25
01000000
00000000
00000000
00000000
,  // measure 26
00100000
00000000
00000000
00000000
,  // measure 27
00001000
00000000
00010000
00000000
,  // measure 28
00000200
00000000
00000000
00000300
,  // measure 29
00011000
00000000
00000000
00000000
,  // measure 30
00000000
00000000
00000000
00000000
,  // measure 31
00001000
00000000
00100000
00000000
,  // measure 32
00020000
00000000
00000000
00030000
,  // measure 33
10000000
00000000
01000000
00000000
,  // measure 34
00200000
00000000
00000000
00300000
,  // measure 35
01000000
00000000
10000000
00000000
,  // measure 36
00010000
00000000
01000000
00000000
,  // measure 37
00010000
00000000
00200000
00000000
,  // measure 38
00000000
00300000
00000000
00000000
,  // measure 39
00001000
00000000
00010000
00000000
,  // measure 40
00000200
00000000
00000000
00000300
,  // measure 41
00001000
00000000
00000010
00000000
,  // measure 42
00000200
00000000
00000000
00000300
,  // measure 43
00000001
00000000
00001000
00000000
,  // measure 44
00000100
00000000
00010000
00001000
,  // measure 45
00010000
00000000
00002000
00000000
,  // measure 46
00000000
00000000
00003000
00000000
,  // measure 47
00010000
00001000
00010000
00000000
,  // measure 48
00000000
00000000
00000000
00000000
,  // measure 49
00001000
00010000
00001000
00000000
,  // measure 50
00020000
00000000
00000000
00030000
;
