#VERSION:0.83;
#TITLE:New Lights;
#SUBTITLE:;
#ARTIST:kors k;
#TITLETRANSLIT:;
#SUBTITLETRANSLIT:;
#ARTISTTRANSLIT:;
#GENRE:;
#CREDIT:;
#MUSIC:New Lights.ogg;
#BANNER:;
#BACKGROUND:;
#CDTITLE:;
#SAMPLESTART:99.270;
#SAMPLELENGTH:11.002;
#SELECTABLE:YES;
#OFFSET:0.844;
#BPMS:0.000=175.000000;
#STOPS:;
#BGCHANGES:;
#FGCHANGES:;

//--------------- dance-single - ----------------
#NOTEDATA:;
#STEPSTYPE:dance-single;
#DESCRIPTION:;
#DIFFICULTY:Beginner;
#METER:6;
#RADARVALUES:0,0,0,0,0;
#NOTES:
0000
0000
0000
0000
,
0000
0000
0000
0000
,
0000
0000
0000
0000
,
0000
0000
0000
0000
,
0000
0000
0000
0000
,
0000
0000
0000
0000
,
0000
0000
0000
0000
,
0000
0000
0000
0000
,
0000
0000
0000
0000
,
0001
0000
0000
0000
0000
0000
0000
1000
,
0000
0000
0000
0000
,
0000
0001
0000
0000
,
0000
0000
0000
0100
0000
0000
0000
0000
,
0010
0000
0100
0000
,
0000
0000
0001
0000
,
0000
0000
1000
0000
0001
0000
0000
0100
,
0000
0000
0000
0000
,
0010
0000
0000
0000
0000
0000
0000
0100
,
0000
0000
0000
0000
,
0001
0000
0000
0000
0000
0000
0000
1000
,
0000
0000
0000
0000
,
0001
0000
0001
0000
,
1000
0000
1000
0000
,
0010
0000
0100
0000
,
0001
0000
1000
1001
,
0001
0000
0000
0000
,
1000
0000
0000
0010
,
1000
0000
0000
0000
,
0100
0000
0000
0010
,
0001
0000
0000
0000
,
0100
0000
0000
0000
,
0020
0000
0000
0030
,
0200
0000
0000
0300
,
0010
1001
0000
0000
,
1000
0000
0000
0001
,
1000
0000
0000
0000
,
0100
0000
0000
0010
,
0200
1300
0000
0000
,
0010
0000
0000
0000
,
0200
0300
0020
0030
,
0200
0300
0020
0030
,
0100
0000
0001
1000
,
0000
0000
0001
0001
,
2000
0000
3100
0000
0010
0000
0000
0100
,
0000
0000
1000
0001
,
0100
0000
0000
0000
0001
0000
0000
2000
,
0000
3000
0001
0020
,
0130
0000
0010
0000
0001
0000
0000
1000
,
0000
0001
0000
0100
0000
0010
0000
1000
,
0100
0000
0000
0010
,
0200
0000
1300
0001
,
0000
0000
0100
0000
0001
0000
0000
2000
,
0000
3001
1000
0001
,
0000
0110
0000
0000
,
1000
0000
0001
1000
,
0000
0100
0010
0001
,
2000
0000
3002
0000
,
0103
0000
0000
0000
,
0010
0000
0000
0000
,
0000
0000
1000
0000
,
0000
0000
0002
0000
,
1003
0000
0000
0000
0100
0000
0000
0010
,
0000
0000
0100
0100
,
0000
0010
0001
0000
,
1000
1000
1000
1000
,
0001
0000
0000
0000
,
1000
0000
0000
0000
,
0010
0000
0000
0000
,
0100
0000
0000
0000
,
0010
0000
0100
0000
,
0001
0000
1000
0000
,
0001
0000
1000
0000
,
0100
0000
0000
0000
,
0010
0010
0010
0000
,
0100
0000
1000
0000
,
0001
0001
0001
0000
,
1000
1000
1000
0000
,
0001
0000
0100
0000
,
0010
0010
0010
0000
,
0100
0000
0001
0000
,
2000
0000
0000
0000
,
3001
0000
0000
1000
,
0000
0000
0010
0100
,
0000
0000
0010
0000
1000
0000
0000
0100
,
0000
0000
0000
0010
0000
0000
0100
0000
,
0100
0000
0000
0000
1000
0000
0000
0001
,
0000
0000
0100
0100
,
0000
0000
0010
0000
0100
0000
0000
0001
,
0000
0001
0000
0001
0000
0000
0000
0000
,
0110
0000
0000
0000
;

//--------------- dance-single - ----------------
#NOTEDATA:;
#STEPSTYPE:dance-single;
#DESCRIPTION:;
#DIFFICULTY:Easy;
#METER:10;
#RADARVALUES:0,0,0,0,0;
#NOTES:
0000
0000
0000
0000
,
0000
0000
0000
0000
,
0000
0000
0000
0000
,
0000
0000
0000
0000
,
0000
0000
0000
0000
,
1001
0000
0000
0000
1000
0001
0000
0100
,
0000
0000
0010
0010
,
0000
0000
0100
0000
0010
0000
0000
1000
,
0000
0001
0000
1000
0000
0100
0020
0000
,
0031
0000
2000
0000
,
3002
0000
0200
0000
,
0003
0000
0310
0000
0200
0000
0301
2000
,
0000
0000
3000
0100
0020
0000
0032
0000
,
2003
0000
3000
0000
0010
1000
0000
0002
,
0000
0000
1000
1000
,
0000
0000
1003
0000
0010
0100
0000
0010
,
0100
0010
0200
0302
,
0023
0000
0000
0000
0000
0000
0000
0230
,
0000
0000
0000
0300
,
2000
0000
0000
0000
0000
0000
0000
3002
,
0000
0000
0000
0003
,
1000
1000
0100
0100
,
0010
0010
0001
0001
,
0100
0010
1000
0001
,
1000
0100
0010
1001
,
0001
1000
0010
1000
,
0001
0010
0100
0020
,
0031
1000
0010
1000
,
0001
0010
0001
2000
,
3100
0010
0100
1000
,
0001
0100
0010
1000
,
0002
0000
0000
2003
0000
3200
0000
0000
,
0320
0000
0000
0000
0130
0010
0002
0000
,
0100
1003
0010
1000
,
0001
0010
0100
0020
,
0130
1000
0001
0100
,
0001
1000
0100
2000
,
3002
0103
0010
1000
,
0001
0010
0100
0010
,
0002
0013
0200
1300
,
0002
0013
0200
1300
,
2001
0000
0000
0000
3020
0000
1030
0001
,
0000
0100
0100
0000
0010
0000
0100
0000
,
0002
1003
0100
0010
,
0100
0000
1000
0001
0200
0000
0320
0000
,
2030
0000
3001
0000
0010
0000
0100
1000
,
0001
1000
0002
0000
0203
0000
0320
0000
,
2030
0000
3100
0000
0010
0000
0000
0001
,
0000
0010
0000
0100
0000
0010
0001
1000
,
0010
0100
0001
1000
,
0200
0000
2300
0000
3001
0100
0010
1000
,
0000
0000
0001
0000
1000
0000
0100
0020
,
0000
0130
0010
0001
,
0200
0310
0100
0001
,
1000
1000
0001
1000
,
0100
0000
0010
0001
0010
0001
1000
0010
,
0200
0000
0320
0000
,
1030
0000
0002
0000
,
2003
0000
0200
0000
,
0000
3300
2000
0000
,
3020
0000
0000
0130
0002
0000
0000
0000
,
1003
0000
0000
0000
0100
0010
0000
0200
,
0000
0000
1300
1000
,
0000
0100
0020
0000
,
0001
0001
0001
0031
,
1000
0010
1000
0010
,
0100
0001
0100
0001
,
0010
0001
0010
0001
,
1000
0100
1000
0100
,
1000
0001
0100
0001
,
1000
0100
1000
0001
,
0010
0001
1000
0010
,
0100
0000
0002
0000
0203
0000
0320
2030
,
3001
0010
0001
0010
,
0100
1000
0100
1000
,
0001
0100
0001
1000
,
0010
1000
0010
0100
,
0010
0100
0001
0100
,
0010
1000
0010
0100
,
0001
1000
0001
1000
,
2200
0000
0000
3300
,
2000
0000
3010
0000
0000
0000
1000
0001
,
0000
0000
0000
0000
1000
0010
0100
0001
,
0000
0000
0100
0000
0010
0100
0010
1000
,
0000
0000
0000
0001
0000
1000
0100
0010
,
0001
0000
0000
0000
1000
0010
0000
0100
,
0000
0000
0000
0000
0010
0100
0001
1000
,
0000
0000
0001
0100
0001
1000
0000
0001
,
0000
1000
0000
0010
0000
0100
0010
1000
,
0200
0000
0000
0000
,
0000
0000
0000
0000
,
0300
0000
0000
0000
;

//--------------- dance-single - ----------------
#NOTEDATA:;
#STEPSTYPE:dance-single;
#DESCRIPTION:;
#DIFFICULTY:Medium;
#METER:12;
#RADARVALUES:0,0,0,0,0;
#NOTES:
0000
0000
0000
0000
,
0000
0000
0000
0000
,
0000
0000
0000
0000
,
0000
0000
0000
0000
,
0000
0000
0000
0000
,
0000
0000
0000
0000
,
0000
0000
0000
0000
,
0000
0000
0000
0000
,
0000
0000
0000
0000
,
2000
0000
0000
0000
0000
0000
3001
0200
,
0000
0000
0000
0000
0310
0100
0001
1000
,
0000
0000
2100
0000
3100
0010
0001
2000
,
0000
0000
0000
0010
0000
3001
0100
0010
,
0200
0000
0300
0000
0001
1000
0000
1200
,
0000
0000
0000
0310
0010
0001
0010
0001
,
0000
0000
0010
1000
0010
0001
1000
0001
,
0000
1000
0000
0010
0000
0100
0200
0000
,
0302
0103
0020
1030
,
2000
3100
0020
0031
,
2000
3001
0200
0310
,
2000
3001
0020
0130
,
2100
0100
0010
3001
,
0102
0100
0010
1003
,
0201
1300
1200
0301
,
0021
1030
1020
0031
,
1000
0001
0100
0001
,
1000
0000
0100
0000
0010
0000
0001
1000
,
0100
1000
0001
0100
,
0001
0000
1000
0000
0001
0000
1000
0100
,
0010
0100
0010
0001
,
1000
0010
0100
0001
,
2000
0000
3100
0020
0000
0230
0000
0000
,
0320
0000
0000
0000
0000
0000
0130
1000
0100
0000
1000
0001
0200
0000
0000
0000
,
0300
1001
1000
0100
,
1000
0000
0001
0000
0010
0000
0100
0010
,
0001
0010
0001
1000
,
0001
0000
1000
0000
0010
0000
0100
0001
,
2000
3100
0001
0100
,
1000
0001
0100
0010
,
0200
0302
0023
2030
,
3020
0000
0032
0000
0203
0000
2300
0000
,
3200
0000
0000
0310
1000
0000
0001
0000
2000
0000
3200
0000
0310
0000
0200
0000
,
0000
1000
1300
0000
0001
1000
0001
1000
,
0010
0000
0102
0000
1003
0001
0010
0001
,
0000
0000
1000
0000
0000
0000
0001
0100
0001
0000
1000
0000
0100
0000
1000
0000
,
0020
0000
0000
0000
0130
0000
0000
0000
0010
0000
1000
0000
0000
0000
0001
0100
,
0010
0010
0010
0000
0100
0001
2000
3200
,
0320
0000
0130
0010
0001
1000
0001
0011
,
0000
1010
0000
0011
0000
0001
0100
0010
,
1000
0000
0000
0000
0001
0010
0000
0010
0001
0000
1000
0000
0000
0000
0001
0000
,
2000
0000
3002
0000
0023
0000
0230
0000
1300
0001
1000
0001
0100
0001
0100
0001
,
0000
0000
1000
0100
1000
0001
1000
0020
,
0000
0000
0130
1000
0100
0001
1000
0200
,
0000
0000
1300
0000
0001
0000
1000
0100
,
1000
0000
0001
0000
1000
0001
0100
0001
,
0000
0000
1000
1000
0001
0001
0100
0010
,
1000
0001
0100
0001
2000
3200
0320
0032
,
1003
0000
0002
0000
,
2003
0000
0200
0000
,
3000
0000
0000
0000
0320
0000
0001
0032
,
0000
0000
0000
2003
3002
2003
3002
2003
,
3100
0000
0000
0000
1000
0001
0000
0200
,
0000
0000
0000
0310
1000
1000
0001
0010
,
0002
0003
2000
0000
,
0002
0003
0002
0003
0002
0003
0002
0003
,
3001
0000
0000
0100
0001
0000
0000
0000
1000
0000
0000
0000
0100
0000
0000
0000
,
0010
0000
0000
0100
1000
0000
0000
0000
0001
0000
0000
0000
1000
0000
0000
0000
,
0100
0000
0000
0010
0100
0000
0000
0000
1000
0000
0000
0000
0001
0000
0000
0000
,
0100
0000
0000
0010
0100
0000
0000
0000
0010
0000
0000
0000
1000
0000
0000
0000
,
0001
1000
0100
0000
0010
0001
1000
0000
,
0010
1000
0001
0000
0010
0100
1000
0000
,
0100
0010
0001
1000
0010
0100
0001
1000
,
0000
0000
0000
0000
0002
0003
0000
0000
0200
0300
0000
0000
0020
0030
2000
3000
,
0001
0010
0001
0010
0100
1000
0000
0100
,
0000
1000
0000
0001
0000
0100
0001
1000
,
0000
0001
0000
0010
0000
0001
0010
0001
,
0000
1000
0000
0100
0000
0010
0100
1000
,
0001
0100
0010
0000
0100
0001
0000
1000
,
0000
0001
0000
0100
0000
0001
1000
0001
,
1000
0100
0010
0001
1000
0010
0000
1000
,
0000
0001
0000
0100
0010
0100
0001
1000
,
0002
0000
0013
0000
0100
0000
1000
0100
,
0010
0000
0001
0000
1000
0010
0001
0010
,
1000
0000
0201
0000
0310
1000
0001
0010
,
0000
0010
0000
0100
0000
0010
0100
1000
,
0001
0000
0000
0010
0001
0000
0000
0000
1000
0000
0010
0000
0000
0000
0101
0000
,
0000
0100
0000
0001
0100
0010
1000
0001
,
0000
0000
1000
1000
0001
0010
0000
0110
,
0000
1001
0000
0110
0000
0001
0100
0010
,
2000
0000
0000
0000
,
3000
0000
0000
0000
;

//--------------- dance-single - ----------------
#NOTEDATA:;
#STEPSTYPE:dance-single;
#DESCRIPTION:;
#DIFFICULTY:Hard;
#METER:15;
#RADARVALUES:0,0,0,0,0;
#NOTES:
0000
0000
0000
0000
,
0000
0000
0000
0000
,
0000
0000
0000
0000
,
0000
0000
0000
0000
,
0000
0000
0000
0000
,
0000
0000
0000
0000
,
0000
0000
0000
0000
,
0000
0000
0000
0000
,
0000
0000
0000
0000
,
2001
0000
0000
0000
0000
0000
3010
1020
,
0000
0000
0000
0000
0130
0001
1000
0001
,
0000
0000
0021
0000
0031
1000
0100
0120
,
0000
0000
0030
0012
0000
1003
0010
0100
,
0201
0000
0310
0000
1000
1100
0000
0210
,
0000
0000
0000
0000
0000
0000
1300
0001
1000
0000
0001
0000
0010
0000
0001
0000
,
0000
0000
1100
0100
0010
0001
1000
1010
,
0000
1100
0000
0011
0000
1001
0201
0000
,
0310
1000
0002
0000
0013
0100
2000
0000
,
3001
1000
0200
0000
0310
0100
2000
0000
,
3010
0100
0002
0000
0103
0001
2000
0000
,
3100
0010
0002
0000
1003
0100
0020
0000
,
0032
0000
0000
1003
0200
0000
0000
0310
0002
0000
0000
0103
0020
0000
0000
1030
,
0002
0000
0000
0103
0020
0000
0000
1030
0002
0000
0000
1003
0200
0000
0000
1300
,
0002
0023
0230
0320
0032
2003
3002
0203
,
0310
1000
0010
1000
0001
0100
0001
1000
0001
0010
0001
1000
0000
0000
0000
0000
,
0100
1000
0000
0000
0001
0000
0000
1000
0000
0000
0001
0000
0000
0010
0000
0000
,
0100
0000
0000
0010
0000
0000
0001
0000
0000
1000
0000
0000
0001
1000
0010
0000
,
0000
0100
0000
0000
0101
0000
0000
0001
0000
0000
1000
0000
0000
0001
0000
0000
,
0010
0000
0000
0100
0000
0000
0010
0000
0000
0100
0000
0000
1000
0001
0010
0000
,
0100
0000
0000
0000
1001
0000
0000
1000
0000
0000
0010
0000
0000
1000
0000
0000
,
0010
0000
0000
0100
0000
0000
0010
0000
0000
1000
0000
0000
1001
0000
0000
0000
,
00M1
10M0
01M0
100M
001M
010M
00M2
00M0
,
1M03
0000
0M01
0000
1M00
0000
01M0
000M
M020
0000
000M
M000
013M
000M
000M
000M
,
100M
0000
0000
0000
0101
0000
0000
0001
0000
0000
0010
0000
0000
0001
0000
0000
,
1000
0000
0000
0010
0000
0000
0100
0000
0000
0001
0000
0000
1000
0001
0100
0000
,
0000
0001
0000
0000
0001
0000
0000
1000
0000
0000
0001
0000
0000
0010
0000
0000
,
0001
0000
0000
0100
0000
0000
0010
0000
0000
1000
0000
0000
0001
1000
0100
0000
,
00M0
0000
00M0
0000
10M0
0000
0000
0001
0000
0000
0100
0000
0000
0001
0000
0000
,
1000
0000
0000
0001
0000
0000
0010
0000
0000
0100
0000
0000
0010
0001
1000
0000
,
0010
0000
1000
0000
0010
0100
0001
1000
0010
0000
1000
0000
0010
0100
0001
1000
,
0010
0000
1000
0000
0010
0100
0001
1000
0010
0000
1000
0000
0010
1000
0100
0010
,
0001
0000
0000
0001
1000
0000
0100
0000
2000
3002
0203
0302
0023
0030
0100
0000
,
0000
1000
2000
0000
3100
0001
0100
1000
,
0040
0100
0230
0000
0301
1000
0001
0010
,
0000
0000
0010
0000
0000
0000
0100
0010
0100
0000
1000
0000
0001
0000
0100
0000
,
0002
0000
0000
0000
0000
0000
1003
0000
0010
0000
0100
0010
0100
0000
0001
1000
,
0100
0010
0100
0010
0200
0000
0000
0000
1300
0000
0001
0000
0200
0320
2030
3002
,
4003
0000
3001
0001
0100
0010
1000
1020
,
0030
0000
02M1
0000
0000
0300
1M02
0000
0000
0003
100M
0000
0100
0000
1000
0000
,
1001
0000
0000
0000
0001
0100
0000
0010
1000
0000
0010
0000
1000
0000
0001
0000
,
0040
0000
0034
0000
4003
0000
3040
0000
0230
0302
0203
0302
2003
3020
2030
3020
,
0130
0000
0001
0000
1000
0100
0010
0001
1000
0000
0010
0000
0100
0000
0002
0000
,
0000
0000
2003
3020
0230
2300
3200
0302
,
M043
0000
M000
0000
M000
0000
M130
0000
0000
1000
0000
0000
0000
0000
0000
0001
0000
0000
1000
0000
0000
0100
0000
0000
,
0010
0000
0010
0000
0010
1000
0010
0001
,
1000
0001
1001
0101
1001
1100
1001
0101
,
M210
M000
000M
M000
0040
0000
0000
0330
,
1001
0000
0000
0001
0100
0002
0000
0000
,
2003
0000
3002
0000
,
0000
0000
0003
0000
2000
0000
3100
2000
,
0000
0000
0000
3001
0400
0010
0000
0310
,
2010
0000
3001
0000
0010
0001
0000
1200
,
0000
0000
0000
0000
0000
0000
0310
0001
1000
0000
0010
0000
2000
0000
3100
0000
,
0000
0012
2000
0003
,
3020
0030
0020
0030
0020
0030
0020
0030
,
1000
0001
1000
0001
1000
0001
0000
1000
,
0000
0001
0000
0010
0000
0001
0100
0010
,
0000
1000
0000
1000
0000
1000
0100
0010
,
0000
0010
0000
0010
0000
0010
0001
0010
,
0001
1000
0001
1000
0001
1000
0000
0001
,
0000
1000
0000
1000
0000
0001
0100
0001
,
1000
0100
0010
0001
1000
0010
1000
0001
,
0200
0000
M000
0000
00M0
0000
030M
M000
,
0101
0000
0001
0000
0010
0000
0001
0000
1000
0000
0100
0010
0100
0000
1000
0000
,
0001
0100
0010
0100
1000
0100
0001
1000
,
0001
0100
0001
0100
0001
0010
1000
0010
,
0001
0010
0001
0010
0001
0100
1000
0100
,
0001
0000
0000
0001
1000
0000
0100
0000
0010
0000
0001
0000
0100
0000
0001
0000
,
1000
0010
1000
0010
0100
1000
0100
0001
,
1000
0100
0001
0100
0010
0001
1000
0010
,
0000
0000
0100
0010
1000
0000
0001
0000
0010
0000
0100
0000
1000
0001
1000
0001
,
0200
0000
0000
0300
1M01
0000
0000
0001
0010
0000
0001
0000
2000
0000
3200
0000
,
0310
0100
1000
0001
0200
0320
0032
0023
,
0130
0000
0102
0000
2003
3200
2300
3002
,
0103
0010
0100
0020
1030
0002
0203
0320
,
2030
0000
3000
1000
0001
0000
1000
0000
0200
0000
0302
0000
0103
0000
2000
0000
,
3001
0000
0000
1000
0001
0000
0100
0000
0020
0000
0230
0000
0302
0000
2003
0000
,
3001
0100
0020
2030
3002
0023
0130
2000
,
3000
0001
2000
3010
0100
0001
0200
0301
1000
0001
2000
3100
0020
0000
0032
0000
,
2000
0000
0000
0000
,
3003
0000
0000
0000
;

//--------------- dance-double - ----------------
#NOTEDATA:;
#STEPSTYPE:dance-double;
#DESCRIPTION:;
#DIFFICULTY:Easy;
#METER:8;
#RADARVALUES:0,0,0,0,0;
#NOTES:
00000000
00000000
00000000
00000000
,
00000000
00000000
00000000
00000000
,
00000000
00000000
00000000
00000000
,
00000000
00000000
00000000
00000000
,
00000000
00000000
00000000
00000000
,
00000000
00000000
00000000
00000000
,
00000000
00000000
00000000
00000000
,
00000000
00000000
00000000
00000000
,
00000000
00000000
00000000
00000000
,
00011000
00000000
00000000
00000000
00000000
00000000
00010000
00000100
,
00000000
00000000
00001000
00001000
,
00000000
00000000
00000001
00000000
00000100
00000000
00000000
00000010
,
00000000
00000000
00000000
00000100
00000000
00000000
00000001
00000000
,
00001000
00000000
00000000
00000000
00000100
00001000
00000000
00000100
,
00000000
00000000
00001000
00001000
,
00000000
00000100
00000010
00000000
,
00000002
00000000
00000203
00000320
,
00002030
00000000
00000000
00000000
00000000
00000000
00000000
00003200
,
00000000
00000000
00000000
00000300
,
00020000
00000000
00000000
00000000
00000000
00000000
00000000
00032000
,
00000000
00000000
00000000
00003000
,
01000000
01000000
00100000
00100000
,
10000000
10000000
00010000
00010000
,
00100000
00001000
00010000
00000010
,
00000100
00000010
00001000
00001001
,
00000001
00000010
00000001
00000010
,
00000100
00001000
00000100
00010000
,
00001000
00100000
00010000
00100000
,
01000000
10000000
01000000
00100000
,
00010000
01000000
00010000
01000000
,
00001000
01000000
00001000
00010000
,
00000200
00000000
00000300
00002000
00000000
00003020
00000000
00000030
,
00000200
00000300
00000010
00000100
,
00000001
00001010
00000010
00001000
,
00000100
00000010
00000100
00001000
,
00000100
00010000
00001000
01000000
,
00001000
00010000
00001000
00100000
,
00020000
10030000
00100000
01000000
,
00010000
00100000
00001000
00010000
,
00000020
00000030
00000200
00000300
,
00000002
00000003
00002000
00003000
,
00001100
00000000
00000000
00000000
00000000
00000000
00000100
00000100
,
00000000
00010000
00010000
00000000
00001000
00000000
01000000
00000000
,
00200000
00000000
10300000
00000000
10000000
00000000
00000000
01000000
,
00000000
01000000
00000000
00100000
01000000
00000000
10000000
00000000
,
00010000
00000000
00000000
00000000
01000000
00010000
00000000
00200000
,
00000000
00300000
01000000
20000000
,
30010000
00000000
01000000
00000000
00010000
00000000
00000000
00100000
,
00000000
00010000
00000000
00001000
00000000
00000100
00000000
00000010
,
00000001
00001000
00000010
00000100
,
00000002
00000000
00000203
00000000
00000310
00001000
00000001
00001000
,
00000000
00000000
00000100
00000000
00000010
00000000
00000000
00000200
,
00000000
00001300
00000010
00010000
,
00002000
00103000
00010000
10000000
,
01000000
01000000
10000000
00010000
,
01000000
00010000
00100000
00001000
,
00020000
00000000
00002000
00033000
,
00011000
00000000
00010000
00000000
,
00000200
00000000
00000000
00000000
,
00000000
00000000
00000300
00000000
00001000
00000000
00000000
00000020
,
00000000
00000000
00000230
00000000
,
00000301
00000000
00000000
00000000
00000000
00000000
00000000
00001000
,
00000000
00000000
00000100
00000100
,
00000000
00010000
00001000
00000000
,
01000000
01000000
01000000
01000000
,
00100000
00100000
10000000
10000000
,
00010000
00010000
00100000
00001000
,
00010000
00010000
00000100
00000100
,
00001000
00000010
00000100
00000001
,
00001000
00001000
00000001
00000001
,
00000100
00000010
00001000
00000001
,
00000100
00000010
00001000
00000100
,
00010000
00000000
00011000
00000000
00101000
00000000
00100000
00010000
,
01000000
00100000
10000000
00010000
,
00100000
01000000
00100000
00010000
,
10000000
00010000
01000000
00001000
,
00010000
00000100
00001000
00000010
,
00000100
00000001
00000010
00000100
,
00000010
00000001
00000100
00001000
,
00000100
00000010
00001000
00000100
,
00010000
00001000
00010000
00001000
,
00100000
00000000
00000000
00000000
00000000
00000000
01000000
10000000
,
00000000
00000000
01000000
00100000
,
00000000
00000000
01000000
00000000
10000000
00000000
00000000
00100000
,
00000000
00000000
00000000
01000000
00000000
00100000
01000000
00010000
,
10000000
00000000
00000000
00000000
00010000
00100000
00000000
00001000
,
00000000
00000000
00010000
00000100
,
00000000
00000000
00001000
00000000
00000010
00000000
00000000
00000100
,
00000000
00000100
00000000
00000100
00000000
00000100
00000010
00001000
,
00000001
00000000
00000000
00000000
;

//--------------- dance-double - ----------------
#NOTEDATA:;
#STEPSTYPE:dance-double;
#DESCRIPTION:;
#DIFFICULTY:Medium;
#METER:12;
#RADARVALUES:0,0,0,0,0;
#NOTES:
00000000
00000000
00000000
00000000
,
00000000
00000000
00000000
00000000
,
00000000
00000000
00000000
00000000
,
00000000
00000000
00000000
00000000
,
00000000
00000000
00000000
00000000
,
00000000
00000000
00000000
00000000
,
00000000
00000000
00000000
00000000
,
00000000
00000000
00000000
00000000
,
00000000
00000000
00000000
00000000
,
00011000
00000000
00000000
00000000
00000000
00000000
00010000
00000100
,
00000000
00000000
00000000
00000000
00001000
00000010
00000100
00000001
,
00000000
00000000
00000011
00000000
00000001
00000010
00000001
00001001
,
00000000
00000000
00000000
00000101
00000000
00000001
00000100
00000010
,
00001000
00000000
00000000
00000000
00000100
00010000
00000000
00011000
,
00000000
00000000
00000000
00000000
00000000
00000000
00001000
01000000
00001000
00000000
01000000
00000000
00010000
00000000
10000000
00000000
,
00000000
00000000
11000000
01000000
00100000
00010000
01000000
00100000
,
20000000
00000000
30020000
00000000
10030000
01000000
00200000
00000000
,
01300000
10000000
00100000
01000000
,
00010000
00100000
00001000
00010000
,
00000010
00000100
00000001
00000010
,
00000100
00001000
00000010
00000100
,
00001001
00001001
00001100
00001100
,
00010100
00010100
00011000
00011000
,
01001000
01010000
01100000
10100000
,
11000000
01100000
00110000
00002000
,
01003000
00100000
10000000
00010000
,
00100000
00000000
00001000
00000000
00010000
00000000
00000010
00010000
,
00000100
00001000
00000010
00000100
,
00000001
00000000
00001000
00000000
00000010
00000000
00001000
00000100
,
00010000
00001000
01000000
00010000
,
00100000
00000000
00000000
00000000
01000000
00000000
00000000
00000000
10000000
00000000
00000000
10000000
00010000
00000000
00000000
00000000
,
02000000
00000000
00000000
03200000
00000000
20300000
00000000
00000000
,
32000000
00000000
00000000
00000000
00000000
00000000
03100000
00010000
10000000
00000000
00100000
10000000
00020000
00000000
00000000
00000000
,
00030000
11000000
01000000
10000000
,
00010000
00000000
01000000
00000000
00010000
00000000
00100000
00001000
,
00010000
00001000
00010000
00001000
,
01000000
00000000
00100000
00000000
01000000
00000000
00010000
00100000
,
00002000
00013000
00000100
00001000
,
00000010
00000000
00000100
00000000
00000001
00000000
00001000
00000001
,
00000200
00002300
00023000
00230000
,
20300000
00000000
32000000
00000000
03200000
00000000
00320000
00000000
,
01030000
00000000
00000000
00100000
10000000
00000000
00100000
00000000
00010000
00000000
00100000
00000000
10000000
00000000
00010000
00000000
,
00000000
00010000
01000000
00000000
01000000
00010000
00100000
00001000
,
00020000
00000000
00030100
00000000
00001000
00000100
00000010
00000100
,
00000000
00000000
00000010
00000000
00000000
00000000
00000001
00001000
00000001
00000000
00000100
00000000
00000001
00000000
00001000
00000000
,
00000200
00000000
00000310
00000001
00000100
00001000
00000000
00000100
,
00000010
00001000
00000100
00000000
00001000
00000100
00020000
00032000
,
02003000
00000000
03100000
00010000
00100000
10000000
00000000
10100000
,
00000000
01010000
00000000
00110000
00000000
00010000
00100000
01000000
,
10000000
00000000
00000000
00000000
00010000
01000000
00000000
00010000
01000000
00000000
00010000
00000000
00000000
00000000
10000000
00000000
,
02000000
00000000
03200000
00000000
00310000
00001000
00000100
00000010
,
00000000
00000000
00000100
00001000
00000010
00000001
00000010
00000200
,
00000000
00000000
00001300
00010000
00001000
00100000
00001000
01000000
,
00010000
00000000
11000000
00000000
10000000
00100000
00000000
01000000
,
01010000
00000000
01010000
00000000
00010000
00100000
01000000
00100000
,
00000000
00000000
00010000
00010000
10000000
10000000
01000000
01000000
,
00100000
00010000
00001000
00000100
00000020
00000000
00000000
00000000
,
00000130
00000000
00000000
00000000
00000000
00000000
00001000
00000001
,
00000000
00000000
00000000
00000000
,
00000000
00000000
00000100
00000000
00000000
00000000
00000010
00001000
,
00000000
00000000
00000000
00000100
00000000
00000100
00010000
00001000
,
00101000
00000000
00000000
00000000
00100000
00010000
00000000
11000000
,
00000000
00000000
00000000
00000000
00000000
00000000
00010000
01000000
00010000
00000000
01000000
00000000
00100000
00000000
10000000
00000000
,
00000000
10010000
00210000
00000000
,
00001000
00000000
00010000
00000000
00001000
00000000
00320000
00000000
,
10030000
00000000
00000000
10000000
00100000
00000000
00000000
00000000
00100000
00000000
00000000
00100000
01000000
00000000
00000000
00000000
,
01000000
00000000
00000000
01000000
00010000
00000000
00000000
00000000
00010000
00000000
00000000
00010000
00100000
00000000
00001000
00000000
,
00010000
00000000
00000000
00010000
00001000
00000000
00000000
00000000
00010000
00000000
00000000
00010000
00000100
00000000
00000000
00000000
,
00000100
00000000
00000000
00000100
00001000
00000000
00000000
00000000
00000010
00000000
00000000
00000010
00000100
00000000
00000001
00000000
,
00002000
00003100
00000200
00010300
,
00002000
01003000
00200000
01300000
,
00100000
10000000
00100000
10000000
00010000
01000000
00100000
10000000
,
00010000
00000000
11000000
00000000
00110000
00000000
00100000
00010000
,
00001000
00000100
00001000
00000010
00000100
00000001
00000000
00001000
,
00000000
00000010
00000000
00000010
00000000
00000010
00000001
00000010
,
00000000
00000100
00000000
00000100
00000000
00000100
00000001
00001000
,
00000000
00001000
00000000
00001000
00000000
00001000
00000100
00010000
,
00001000
00010000
00001000
00100000
00010000
10000000
00000000
00100000
,
01000000
00100000
00000000
00100000
00000000
00100000
00010000
00100000
,
10000000
01000000
00100000
00010000
00100000
00010000
01000000
00002000
,
00000000
00010000
00010000
00000000
00100000
00000000
00013000
00000000
,
00021000
00000000
00030010
00000000
00000100
00000001
00001000
00001000
,
00000000
00000001
00000010
00000000
00000100
00000100
00001000
00001000
,
00000000
00000000
00000100
00000000
00001000
00001000
00000010
00010000
,
00000000
00010000
00000000
00010000
00001000
01000000
00100000
10000000
,
01000000
00000000
00000000
00000000
00100000
00100000
00000000
01000000
,
00000000
01000000
00000000
01000000
10000000
00100000
01000000
00010000
,
00000000
00000000
00100000
00001000
00010000
00000010
00000000
00001010
,
00000000
00001010
00000000
00000101
00000000
00000001
00000100
00000010
,
00010000
00000000
00000000
00000000
;

//--------------- dance-double - ----------------
#NOTEDATA:;
#STEPSTYPE:dance-double;
#DESCRIPTION:;
#DIFFICULTY:Hard;
#METER:16;
#RADARVALUES:0,0,0,0,0;
#NOTES:
00000000
00000000
00000000
00000000
,
00000000
00000000
00000000
00000000
,
00000000
00000000
00000000
00000000
,
00000000
00000000
00000000
00000000
,
00000000
00000000
00000000
00000000
,
00000000
00000000
00000000
00000000
,
00000000
00000000
00000000
00000000
,
00000000
00000000
00000000
00000000
,
00000000
00000000
00000000
00000000
,
00102000
00000000
00000000
00000000
00000000
00000000
00013000
00010200
,
00000000
00000000
00000000
00000000
00001300
00000010
00000100
00000001
,
00000000
00000000
00020010
00000000
00031000
00100000
00010000
20010000
,
00000000
00000000
30000000
00110000
00000000
00110000
00100000
00001000
,
00021000
00000000
00030100
00000000
00001000
00001100
00000000
00000021
,
00000000
00000000
00000000
00000000
00000000
00000000
00000130
00001000
00000001
00000000
00000100
00000000
00000010
00000000
00010000
00000000
,
00000000
00000000
00011000
00001000
01001000
01000000
00010000
00110000
,
00000000
11000000
00000000
00110000
00000000
11000000
10020000
00000000
,
01030000
00000000
00000000
00100000
10000000
00000000
01000000
00000000
00100000
00000000
00000000
00010000
01000000
00000000
00010000
00000000
,
00100000
00000000
00000000
00001000
00010000
00000000
00000010
00000000
00001000
00000000
00000000
00000010
00000100
00000000
00000001
00000000
,
00001000
00000000
00000000
00000100
00010000
00000000
00001000
00000000
01000000
00000000
00000000
00001000
01000000
00000000
00010000
00000000
,
00100000
00000000
00000000
01000000
00100000
00000000
00010000
00000000
10000000
00000000
00000000
00100000
10000000
00000000
00010000
00000000
,
00110000
00000000
00100000
01000000
00100000
00000000
01000000
10000000
01000000
00000000
10000000
00100000
10000000
00000000
00010000
01000000
,
00010000
00000000
00100000
00010000
00100000
00000000
00001000
00100000
00001000
00000000
00010000
00000010
00010000
00000000
00000010
00000100
,
00000002
00000000
00000013
00000100
00002000
00000000
00003010
00010000
00002000
00000000
00103000
00010000
02000000
00000000
03100000
10000000
,
00020000
00000000
20030000
32000000
03200000
00300000
02000000
03200000
00320000
00030000
20000000
30020000
0MM30000
00000000
00000000
00000000
,
00100000
00001000
00000000
00000000
00010000
00000000
00000000
00001000
00000000
00000000
00010000
00000000
00000000
00000010
00000000
00000000
,
00000100
00000000
00000000
00000001
00000000
00000000
00000010
00000000
00000000
00000100
00000000
00000000
00000010
00000001
00001000
00000000
,
00000010
00000100
00000000
00000000
00000010
00000000
00000000
00001000
00000000
00000000
00000010
00000000
00000000
00001000
00000000
00000000
,
00000100
00000000
00000000
00010000
00000000
00000000
00001000
00000000
00000000
01000000
00000000
00000000
00010000
10000000
01000000
00000000
,
10000000
00010000
00000000
00000000
01000000
00000000
00000000
00010000
00000000
00000000
01000000
00000000
00000000
00100000
00000000
00000000
,
10000000
00000000
00000000
00010000
00000000
00000000
00100000
00000000
00000000
01000000
00000000
10000000
01000000
00000000
00000000
00000000
,
10000000
01000000
00100000
00010000
00001000
00000200
00000000
00000300
,
00000020
00000000
00000000
00000000
00000030
00000000
00000100
00001000
00000001
00000000
00000100
00000001
00001000
00000000
00000100
00000000
,
00001100
00000000
00000M00
00000000
00011000
00000000
00001000
01000000
00000000
01000000
00010000
00000000
00010000
00100000
00000000
00100000
,
01000000
00000000
01000000
10000000
00000000
10000000
00010000
00000000
00010000
01000000
00000000
01000000
00001000
00010000
00001000
00000000
,
00010000
00000100
00000000
00000000
00001100
00000000
00001000
00000010
00000000
00000010
00000100
00000000
00000100
00000001
00000000
00000001
,
00001000
00000000
00001000
00000100
00000000
00000100
00000010
00000000
00000010
00000100
00000000
00000100
00001000
00000001
00001000
00000000
,
00000M2M
00000000
00000000
00000000
00000M0M
00000000
00000000
00000000
00000M0M
00000000
00000000
00000000
00001M3M
00000000
00000000
00000000
00000000
00000000
00000100
00000000
00000000
00001000
00000000
00000000
00000000
00000000
00000000
00001000
00000000
00000000
00000010
00000000
00000000
00000000
00000000
00000000
00000010
00000000
00000000
00010000
00000000
00000000
00000000
00000000
00000000
00010000
00000000
00000000
,
00001000
00000000
00001000
00010000
00000000
00001000
01000000
00000000
01000000
00010000
00000000
00010000
00100000
01000000
00100000
01000000
,
40000000
04000000
00000000
00000000
33000000
00000000
00000000
00000000
00400000
00040000
00000000
00000000
00330000
00000000
00000000
00000000
,
00040000
04000000
00000000
00000000
03030000
00000000
00000000
00000000
00004000
00040000
00000000
00000000
00000000
00000000
00003000
00000000
,
00030100
00000000
00000000
00010000
00000100
00000000
00001000
00000000
00000010
00000100
00001000
00010000
00000100
00000000
00000020
00000000
,
00000000
00000000
00000100
00000000
00000100
00000000
00000000
00000000
00002030
00003000
00000020
00000030
00020000
00030000
00002000
00003000
,
002M0000
00000000
000M0000
00001000
000M0000
00000000
003M1000
00000000
00000000
00000000
00000000
00000000
00110000
00000000
00000000
00100000
00000000
00000000
01000000
00000000
00000000
11000000
00000000
00000000
,
00000000
00000000
01010000
00000000
00000000
00000000
01000000
10000000
00100000
00000000
00010000
00000000
00100000
00000000
01000000
00000000
,
00002000
00000000
00000000
00000000
00103000
00000000
00001000
00000000
00010000
00000000
00000010
00000000
00000000
00000000
00001000
00000100
,
00000010
00000001
00000010
00000001
00002000
00000000
00000000
00000000
00003010
00000000
00000100
00000000
00001000
00010000
00100000
01000000
,
200M0000
00000000
000M0000
00000000
000M0000
00000000
310M0000
00000000
00000000
00100000
00000000
00000000
00110000
00000000
00000000
11000000
00000000
00000000
00000000
00000000
00000000
10010000
00000000
00000000
,
00000000
00011000
00000000
00001001
00000000
00000001
00000100
00000010
,
00001010
00000000
00000000
00000000
00000010
00010000
00000000
00010000
00001000
00000000
02000000
00000000
03010000
00000000
00200000
00000000
,
01300000
10000000
01000000
10000000
00010000
00100000
00010000
00100000
02000000
03020000
02030000
23000000
30200000
00320000
00230000
20300000
,
30010000
00000000
11000000
01000000
00010000
01000000
00100000
00002000
,
00000000
00000000
00013000
00000100
00001000
00000010
00000001
00000010
,
00002M00
00000000
00000M00
00000000
00000M00
00000000
00003M01
00000000
00000000
00001001
00000000
00000000
00000000
00000000
00000000
00000001
00000000
00000000
00000100
00000000
00000000
00000010
00000000
00000000
,
00001010
00000000
00000011
00000000
00000010
00000100
00000001
00001000
,
00000100
00001000
00000010
00100000
00001000
00100000
00000010
00020000
,
00032000
00000000
02003000
00000000
03020000
00000000
00230000
00000000
01300000
10000000
01000000
00100000
00010000
00100000
00001000
00010000
,
00001000
00000000
00000000
00010000
00000010
00020000
00000000
00000000
,
00032000
00000000
00000000
00003000
00002000
00000000
00000000
00000000
,
00000000
00000000
00003000
00000000
00010000
00000000
00000100
00002000
,
00000000
00000000
00000000
00000000
00000000
00000000
00003010
00000000
00000400
00000004
00000000
00000000
00000000
00000000
00000303
00000000
,
00001020
00000000
00000030
00000000
00001000
00001200
00000300
00021000
,
00000000
00000000
00000000
00000000
00000000
00000000
00031000
01000000
00100000
00000000
10000000
00000000
01000000
00000000
00100000
00000000
,
00000000
01100000
10020000
00000000
,
02030000
00000000
00000000
03000000
00000000
00000000
00200000
0M000000
00000000
00300000
00000000
00000000
02000000
00M00000
00000000
03000000
00000000
00000000
00200000
0M000000
00000000
00300000
00000000
00000000
,
10M10000
00010000
10000000
00010000
00100000
00010000
00000000
00100000
,
00000000
00100000
00000000
00001000
00000000
00001000
00010000
00000100
,
00000000
00001000
00000000
00001000
00000000
00001000
00000001
00000100
,
00000000
00000100
00000000
00000100
00000000
00000100
00000010
00001000
,
00000100
00010000
00001000
01000000
00010000
10000000
00000000
01000000
,
00000000
00100000
00000000
00100000
00000000
00100000
00010000
00001000
,
00010000
00001000
00100000
00001000
00010000
00000010
00000100
00000001
,
00001000
00000000
00001100
00000000
01010000
00000000
00010000
00100000
,
00101000
00000000
00001000
00000000
01000000
00000000
00010000
00000000
10000000
00000000
01000000
10000000
00010000
00000000
00100000
00000000
,
00001000
00000000
00010000
00000000
00000010
00000000
00000100
00000000
00000001
00000000
00001000
00000100
00001000
00000000
00000001
00000000
,
00000100
00000000
00000010
00000000
00001000
00000000
00000010
00000000
00000100
00000000
00000001
00001000
00000001
00000000
00000010
00000000
,
00000001
00000000
00001000
00000000
00000100
00000000
00010000
00000000
00001000
00000000
01000000
00010000
10000000
00000000
01000000
00000000
,
00100000
00000000
00000000
10000000
00100000
00000000
00010000
00000000
01000000
00000000
00100000
00000000
10000000
00000000
01000000
00000000
,
00100000
00000000
00001000
00000000
00010000
00000000
00000010
00000000
00001000
00000000
00000010
00000100
00000010
00000000
00001000
00000000
,
00000001
00000010
00001000
00000010
00000001
00001000
00000100
00020100
,
00000000
00001000
00031000
00000000
00011000
00000000
10010000
00000000
,
01010000
00000000
00000000
00000000
0M011000
00000000
00000000
00000000
00010000
00000000
00000100
00000000
00001000
00000010
00001000
00000000
,
00000001
00000100
00000010
00001000
00010000
00100000
01000000
10000000
,
00010000
00000000
10000000
00000000
11000000
00000000
00000000
00000000
00110000
00000000
00100000
00000000
01000000
00000000
10000000
00010000
,
01000000
00000000
00001000
00000000
01000000
00000000
00001000
00000000
00010000
00000000
00000100
00001000
00000100
00000000
00001000
00000000
,
00000001
00000000
00000000
00001000
00000010
00000000
00000100
00000000
00000001
00000000
00001000
00000000
00000100
00000000
00010000
00001000
,
00010000
00001000
01000000
00010000
10000000
01000000
00100000
00010000
,
00001000
00000100
00000010
00000001
00001000
00010000
00100000
01000000
,
00000000
01000000
00000000
01000000
00000000
10000000
01000000
00010000
,
10010000
00000000
00000000
00000000
;
