#VERSION:0.83;
#TITLE:NEW GENERATION -もう、お前しか見えない-;
#SUBTITLE:;
#ARTIST:SUPER STAR 満-MITSURU-;
#TITLETRANSLIT:;
#SUBTITLETRANSLIT:;
#ARTISTTRANSLIT:;
#GENRE:;
#CREDIT:;
#MUSIC:NEW GENERATION -mou, omae shika mienai-.ogg;
#BANNER:banner.png;
#BACKGROUND:NEW GENERATION -mou, omae shika mienai--bg.png;
#JACKET:jacket.png;
#DISCIMAGE:;
#CDIMAGE:;
#SELECTABLE:YES;
#LYRICSPATH:;
#CDTITLE:cdtitle.png;
#SAMPLESTART:65.529;
#SAMPLELENGTH:13.091;
#OFFSET:-0.074;
#BPMS:0.000000=165.000000;
#STOPS:248.000000=1.091000;
#WARPS:;
#DELAYS:;
#SPEEDS:;
#SCROLLS:;
#TICKCOUNTS:;
#TIMESIGNATURES:;
#LABELS:;
#COMBOS:;
#FAKES:;
#BGCHANGES:;
#FGCHANGES:;
#ATTACKS:;

//---------------dance-single - ---------------
#NOTEDATA:;
#CHARTNAME:;
#CHARTSTYLE:;
#CREDIT:Pandemonium X;
#STEPSTYPE:dance-single;
#DESCRIPTION:;
#DIFFICULTY:Beginner;
#METER:4;
#METERF:4;
#RADARVALUES:0,0,0,0,0;
#NOTES:
// measure 0
0000
0000
0000
0000
,  // measure 1
0000
0000
0000
0000
,  // measure 2
0000
0000
0000
0000
,  // measure 3
0000
0000
0000
0000
,  // measure 4
0000
0000
0000
0000
,  // measure 5
0000
0001
0000
0000
,  // measure 6
1000
0000
0001
0001
,  // measure 7
0000
1000
0000
0000
,  // measure 8
1001
0000
0000
0000
,  // measure 9
0010
0000
0000
0000
,  // measure 10
0100
0000
0000
0000
,  // measure 11
0001
0000
0000
0000
,  // measure 12
1000
0000
0100
0000
,  // measure 13
0010
0000
0000
0000
,  // measure 14
0100
0000
0000
0000
,  // measure 15
1000
0000
0001
0000
,  // measure 16
1000
1000
1000
1000
,  // measure 17
0001
0000
0000
0000
,  // measure 18
0100
0000
0000
0000
,  // measure 19
0010
0000
0000
0000
,  // measure 20
1000
0000
0000
1001
,  // measure 21
0001
0000
0000
0000
,  // measure 22
1000
0000
0000
0000
,  // measure 23
0010
0000
0100
0000
,  // measure 24
0010
0000
0000
0000
,  // measure 25
1000
0000
0000
0000
,  // measure 26
0001
0000
1000
0000
,  // measure 27
0010
0000
0100
0000
,  // measure 28
1001
0000
0000
0000
,  // measure 29
0000
0000
0000
0000
,  // measure 30
0001
0000
0000
0000
,  // measure 31
1000
0000
0001
1000
,  // measure 32
0001
0000
0000
0000
,  // measure 33
0100
0000
0000
0000
,  // measure 34
0010
0000
0000
0000
,  // measure 35
1000
0000
0000
0000
,  // measure 36
0001
0000
0001
0000
,  // measure 37
0001
0000
0001
0000
,  // measure 38
1000
0000
1000
0000
,  // measure 39
1000
0000
1000
0000
,  // measure 40
0010
0000
0010
0000
,  // measure 41
0200
0000
0000
0000
,  // measure 42
0300
0000
0000
0000
,  // measure 43
1001
0000
0000
0000
,  // measure 44
0110
0000
0000
0000
,  // measure 45
1000
1000
1000
0000
,  // measure 46
0001
0000
0000
0000
,  // measure 47
0010
0010
0010
0000
,  // measure 48
0100
0000
0000
0000
,  // measure 49
0010
0010
0010
0000
,  // measure 50
0001
0000
0000
0000
,  // measure 51
0100
0100
0100
0000
,  // measure 52
0010
0000
0000
0000
,  // measure 53
0100
0000
0000
0000
,  // measure 54
0001
0000
0000
0000
,  // measure 55
0000
0000
0000
1000
0000
1000
0000
0000
,  // measure 56
0001
0000
0000
0000
,  // measure 57
0000
0000
0000
0100
0000
0100
0000
0000
,  // measure 58
0010
0000
0000
0000
,  // measure 59
0000
0000
0000
1000
0000
1000
0000
0000
,  // measure 60
0100
0000
0000
0000
,  // measure 61
0010
0000
0000
0001
,  // measure 62
1001
1000
0000
0000
,  // measure 63
0000
0001
0000
0000
,  // measure 64
0000
0100
0000
0000
,  // measure 65
0000
0010
0000
0100
,  // measure 66
0010
0100
0000
0000
,  // measure 67
0000
0001
0000
0000
,  // measure 68
0000
1000
0000
0000
,  // measure 69
0000
0110
0000
0000
,  // measure 70
0000
1001
0000
0000
,  // measure 71
0000
0001
0001
0001
,  // measure 72
0000
0100
0000
0000
,  // measure 73
0000
0010
0010
0010
,  // measure 74
0000
1000
0000
0000
,  // measure 75
0000
0100
0100
0100
,  // measure 76
0000
0010
0000
0000
,  // measure 77
0000
0001
0001
0001
,  // measure 78
0000
1000
0000
0001
,  // measure 79
0000
0200
0000
0000
,  // measure 80
0000
0300
0000
0000
0000
0000
0000
0000
;

//---------------dance-single - ---------------
#NOTEDATA:;
#CHARTNAME:;
#CHARTSTYLE:;
#CREDIT:Pandemonium X;
#STEPSTYPE:dance-single;
#DESCRIPTION:;
#DIFFICULTY:Easy;
#METER:7;
#METERF:7;
#RADARVALUES:0,0,0,0,0;
#NOTES:
// measure 0
0000
0000
0000
0000
,  // measure 1
0000
0000
0000
0000
,  // measure 2
0000
0000
0000
0000
,  // measure 3
0000
0000
0000
0000
,  // measure 4
0000
0000
0000
0000
,  // measure 5
0001
0010
0000
0000
,  // measure 6
0010
0000
0010
0010
,  // measure 7
0001
0010
0000
0000
,  // measure 8
0100
0100
0100
0000
0000
0000
0000
0000
,  // measure 9
1000
0001
0100
0001
,  // measure 10
0010
0001
1000
0010
,  // measure 11
1000
0100
1000
0001
,  // measure 12
0100
0010
1000
0001
,  // measure 13
1001
1000
0010
1000
,  // measure 14
0001
0010
0001
0100
,  // measure 15
0010
1000
0010
0100
,  // measure 16
0001
0010
0100
1000
,  // measure 17
0001
1000
0010
1000
,  // measure 18
0100
0100
0100
0100
,  // measure 19
0010
0001
1000
0010
,  // measure 20
0100
0100
0100
1001
,  // measure 21
0001
1000
0010
0010
,  // measure 22
1000
0001
0010
0010
,  // measure 23
0011
0000
1100
0000
,  // measure 24
1010
0000
0101
0000
,  // measure 25
1001
0000
1010
0000
,  // measure 26
2000
3200
0320
0032
,  // measure 27
0023
2030
3020
0032
,  // measure 28
0203
0000
0000
0000
,  // measure 29
0000
0000
0000
0000
0300
0000
0000
0001
,  // measure 30
1000
0000
0000
0000
,  // measure 31
0001
0000
1000
0001
,  // measure 32
1000
1000
1000
0000
,  // measure 33
0001
0001
0001
0000
,  // measure 34
0100
0100
0100
0000
,  // measure 35
0010
0010
0010
0000
,  // measure 36
1000
1000
0001
0001
,  // measure 37
1000
1000
0001
0001
,  // measure 38
1000
1000
0001
0001
,  // measure 39
1000
1000
0001
0001
,  // measure 40
0100
0100
0100
0100
,  // measure 41
2002
0000
0000
0000
,  // measure 42
3003
0000
0000
0000
,  // measure 43
0010
0000
0000
0000
,  // measure 44
2002
0000
0000
3003
,  // measure 45
0001
0100
0010
2000
,  // measure 46
3100
0010
0100
1000
,  // measure 47
0001
0100
0001
0020
,  // measure 48
0031
0100
0001
0010
,  // measure 49
0001
1000
0100
0020
,  // measure 50
0130
0010
0001
1000
,  // measure 51
0010
1000
0100
0010
,  // measure 52
0100
1000
0010
0100
,  // measure 53
1000
0100
0001
1000
,  // measure 54
0001
0000
1000
0000
,  // measure 55
0010
0000
0100
0001
,  // measure 56
0010
0000
0100
0000
,  // measure 57
0010
0000
0001
0010
,  // measure 58
0200
0300
0000
0000
,  // measure 59
0000
0000
0000
1000
0000
1000
0000
0000
,  // measure 60
0002
0003
1000
0000
,  // measure 61
0010
0010
0010
0000
0000
0100
0002
0000
,  // measure 62
0013
0200
0000
0000
,  // measure 63
0300
2000
0000
0000
,  // measure 64
3000
0010
0200
0000
0000
0000
0000
0000
,  // measure 65
0300
0002
0000
1003
,  // measure 66
0001
0010
0001
0200
,  // measure 67
0320
1030
0010
0100
,  // measure 68
0001
0010
0100
0010
,  // measure 69
0001
0000
1001
0000
0000
0101
0000
0000
,  // measure 70
1001
0000
1100
0000
0000
1010
0000
0000
,  // measure 71
1001
0001
1010
0010
,  // measure 72
0200
0301
0010
1000
,  // measure 73
0010
0001
1000
0010
,  // measure 74
2000
3100
0100
1000
,  // measure 75
1000
0001
0100
0010
,  // measure 76
0200
0301
0010
0100
,  // measure 77
1000
0001
1000
0010
,  // measure 78
2000
3100
0010
0001
,  // measure 79
1000
0001
0100
0001
,  // measure 80
0020
0030
0000
0000
;

//---------------dance-single - ---------------
#NOTEDATA:;
#CHARTNAME:;
#CHARTSTYLE:;
#CREDIT:Pandemonium X;
#STEPSTYPE:dance-single;
#DESCRIPTION:;
#DIFFICULTY:Medium;
#METER:11;
#METERF:11;
#RADARVALUES:0,0,0,0,0;
#NOTES:
// measure 0
0000
0000
0000
0000
,  // measure 1
0000
0000
0000
0000
,  // measure 2
0000
0000
0000
0000
,  // measure 3
0000
0000
0000
0000
,  // measure 4
0000
0000
0000
0000
,  // measure 5
0000
0000
1000
0100
0000
0000
0000
1000
,  // measure 6
0100
1000
0000
0001
0100
0001
0001
0000
,  // measure 7
0000
1000
0001
1000
0000
0000
0000
0000
,  // measure 8
0001
0001
0001
0100
1000
0100
0002
0000
,  // measure 9
0003
0000
1000
0000
0000
0001
0000
0000
0100
0000
0000
0010
0000
0000
1000
0000
,  // measure 10
0000
0000
0010
0000
0000
1000
0000
0000
0001
0000
0000
0010
0000
0000
0100
0000
,  // measure 11
0000
0000
0010
0000
0000
0001
0000
0000
1000
0000
0000
0001
0000
0000
1000
0000
,  // measure 12
0000
0000
0010
0000
0000
1000
0000
0000
0001
0000
0000
0010
0000
0000
0100
0000
,  // measure 13
0000
0000
0010
0000
0000
0001
0000
0000
1000
0000
0000
0010
0000
0000
1000
0000
,  // measure 14
0000
0000
1000
0000
0000
0001
0000
0000
0010
0000
0000
0001
0000
0000
1000
0000
,  // measure 15
0000
0000
0001
0000
0000
0001
0000
0000
0000
0000
1000
0000
0000
1000
0000
0000
,  // measure 16
0000
0000
0001
0000
0000
1000
0000
0000
0010
0000
0000
1000
0000
0000
0100
0000
,  // measure 17
0000
0000
0010
0000
0000
0100
0000
0000
1000
0000
0000
0001
0000
0000
0100
0000
,  // measure 18
0000
0000
1000
0000
0000
0100
0000
0000
1000
0000
0000
0100
0000
0000
1000
0000
,  // measure 19
0000
0000
0100
0000
0000
0010
0000
0000
1000
0000
0000
0001
0000
0000
0010
0000
,  // measure 20
0000
0000
1000
0000
0000
0010
0000
0000
1000
0000
0010
0000
0001
0000
0000
0000
,  // measure 21
0000
0000
1000
0000
0000
0001
0000
0000
0010
0000
0000
0100
0000
0000
1000
0000
,  // measure 22
0000
0000
0100
0000
0000
1000
0000
0000
0001
0000
0000
0100
0000
0000
0001
0000
,  // measure 23
0000
0000
1000
0000
0000
1000
0000
0000
0000
0000
0001
0000
0000
0001
0000
0000
,  // measure 24
0000
0000
0100
0000
0000
0100
0000
0000
0010
0000
0000
0010
0000
0000
1001
0000
,  // measure 25
0000
0000
0001
0000
0000
0001
0000
0000
1000
0000
0000
1000
0000
0000
1001
0000
,  // measure 26
0002
0203
0320
2030
,  // measure 27
3001
0100
0010
1000
0001
0100
0010
1000
0001
0100
0010
1000
,  // measure 28
0002
0000
0000
0000
,  // measure 29
0000
0000
0000
0000
0003
0000
0000
1000
,  // measure 30
0001
0000
0000
0000
,  // measure 31
0001
0000
0000
0000
0001
0000
1000
0001
,  // measure 32
0001
0100
0020
0030
,  // measure 33
0100
0001
2000
3000
,  // measure 34
0100
0010
0002
0003
,  // measure 35
0010
0001
2000
3000
,  // measure 36
0010
1000
0010
0000
1000
0010
1000
0000
,  // measure 37
0001
0100
0001
0000
0100
0001
0100
0000
,  // measure 38
0001
0001
1000
1000
,  // measure 39
0010
0010
0100
0100
,  // measure 40
0001
0100
0001
0100
0010
0100
0010
0100
,  // measure 41
0010
1000
0010
1000
0001
0100
0001
0100
,  // measure 42
0020
0000
0000
0000
,  // measure 43
0130
0000
0000
0000
,  // measure 44
0010
0000
0000
0010
0000
0000
0010
0000
0000
0010
0100
0000
1001
0000
0000
0000
,  // measure 45
1000
0000
0100
0000
1000
0000
0001
0000
0100
0000
0000
0100
0000
0000
0010
0000
,  // measure 46
1000
0000
0001
0000
0010
0000
0000
0100
0000
0000
0010
0000
0001
0000
1000
0000
,  // measure 47
0010
0000
1000
0000
0010
0000
0100
0000
0010
0000
0000
0010
0000
0000
0100
0000
,  // measure 48
0001
0000
0000
0010
0000
0000
0100
0000
0000
0010
0000
0000
0001
0000
1000
0000
,  // measure 49
0010
0000
1000
0000
0010
0000
1000
0000
0001
0000
0000
0001
0000
0000
0010
0000
,  // measure 50
0001
0000
1000
0000
0001
0000
0000
0010
0000
0000
0001
0000
1000
0000
0001
0000
,  // measure 51
1000
0000
0100
0000
1000
0000
0100
0000
0010
0000
0000
0100
0000
0000
0000
0000
,  // measure 52
0010
0000
0000
0001
0000
0000
0100
0000
0000
0010
0000
0000
1000
0000
0000
0000
,  // measure 53
0100
0000
0000
1000
0000
0000
0001
0000
0000
0100
0000
0000
0001
2000
0000
0000
,  // measure 54
3100
0000
0000
0100
0000
0000
0100
0000
0010
0000
0000
0010
0000
0000
0010
0000
,  // measure 55
0001
0000
0000
0001
0000
0000
0001
0000
1000
0000
0000
1000
0000
0000
1000
0000
,  // measure 56
0010
0000
0000
0010
0000
0000
0010
0000
0100
0000
0000
0100
0000
0000
0100
0000
,  // measure 57
0001
0000
0000
0001
0000
0000
0001
0000
1000
0000
0000
1000
0000
0000
1000
0000
,  // measure 58
1100
1000
0010
0100
,  // measure 59
1001
0001
1000
0010
,  // measure 60
0101
0001
1100
1000
,  // measure 61
1001
0000
1001
0000
1001
0000
0000
0000
0000
0000
1000
0001
1000
0000
0000
0000
,  // measure 62
0000
0000
0000
0000
0002
0000
0000
0000
0000
0000
0000
0000
0000
0000
0000
0003
,  // measure 63
0000
2000
0000
0000
,  // measure 64
0000
0000
3010
0000
0200
0000
0000
0000
0000
0000
0000
0000
0000
0000
0000
0300
,  // measure 65
0000
0110
0000
0101
,  // measure 66
1010
1000
1000
2000
,  // measure 67
3000
0001
0001
0010
,  // measure 68
0001
0100
0100
0002
,  // measure 69
0003
0000
0000
0000
0100
0000
0000
0100
0000
0000
0001
0000
0000
1000
0001
0000
,  // measure 70
0010
0000
0100
0000
0010
0000
0000
0010
0000
0000
0100
0000
0000
0010
0100
0000
,  // measure 71
1000
0000
0001
0000
2000
0000
0000
0000
3100
0000
0010
0000
0100
0000
0000
0100
,  // measure 72
0000
0000
0010
0000
0001
0000
1000
0000
0010
0000
0000
0100
0000
0000
0001
0000
,  // measure 73
1000
0000
0100
0000
0010
0000
0001
0000
1000
0000
0001
0000
0010
0000
0000
0010
,  // measure 74
0000
0000
0000
0000
0100
0000
0000
0010
0000
0000
0001
0000
0000
1000
0000
0000
,  // measure 75
0010
0000
0100
0000
0001
0000
1000
0000
0010
0000
1000
0000
0100
0000
0000
0100
,  // measure 76
0000
0000
0000
0000
0010
0000
0100
0000
1000
0000
0000
0001
0000
0000
0100
0000
,  // measure 77
0010
0000
1000
0000
0001
0000
0010
0000
0100
0000
0010
0000
0001
0000
0000
0001
,  // measure 78
0000
0000
0000
0000
1000
0000
0000
0001
0000
0000
0100
0000
0000
0010
0000
0000
,  // measure 79
1000
0000
0000
0000
0001
0000
0000
0100
0000
0000
0010
0000
0000
1000
0000
0000
,  // measure 80
0100
0020
0000
0000
0030
0000
0000
0000
0000
0000
0000
0000
0000
0000
0000
0000
;

//---------------dance-single - ---------------
#NOTEDATA:;
#CHARTNAME:;
#CHARTSTYLE:;
#CREDIT:Pandemonium X;
#STEPSTYPE:dance-single;
#DESCRIPTION:;
#DIFFICULTY:Hard;
#METER:15;
#METERF:15;
#RADARVALUES:0,0,0,0,0;
#NOTES:
// measure 0
0000
0000
0000
0000
,  // measure 1
0000
0000
0000
0000
,  // measure 2
0000
0000
0000
0000
,  // measure 3
0000
0000
0000
0000
,  // measure 4
0000
0000
0000
0000
,  // measure 5
0001
0010
0001
1000
0000
0000
0000
0100
,  // measure 6
1000
0001
0000
0100
0001
1000
0001
0001
,  // measure 7
1000
0100
1000
0001
0000
0100
0001
0010
,  // measure 8
0100
0100
0100
0010
0100
0010
0002
0000
,  // measure 9
0003
0000
1000
0000
0000
0100
0000
0000
0010
0000
0100
0010
0000
0010
0001
0000
,  // measure 10
0000
0000
1000
0000
0000
0010
0000
0000
0100
0000
0010
0100
0000
0001
1000
0000
,  // measure 11
0000
0000
0100
0000
0000
1000
0000
0000
0001
0000
0010
0100
0000
0100
0010
0000
,  // measure 12
0000
0000
0100
0000
0000
1000
0000
0001
0100
0000
0010
0000
1000
0000
0001
0010
,  // measure 13
0001
0000
0010
0000
0000
0001
0000
0000
1000
0000
0010
0100
0000
0100
0001
0000
,  // measure 14
0000
0000
1000
0000
0000
0100
0000
0000
1000
0000
0001
0010
0000
0100
0010
0000
,  // measure 15
0001
0000
2000
0000
0000
3020
0000
0000
1030
0000
0002
0000
0000
0023
0000
0000
,  // measure 16
0130
0000
0000
1000
0000
0000
0001
0000
0000
0001
0100
0000
0001
0000
0100
0000
,  // measure 17
0001
0000
1000
0000
0000
0010
0000
0000
1000
0000
0000
0001
0000
0010
0100
0000
,  // measure 18
1000
0000
0000
1000
0000
0000
1000
0000
0000
1000
0000
0000
1000
0000
0001
0100
,  // measure 19
0010
0000
0100
0000
0000
0001
0000
0000
0010
0000
0000
0100
0000
0000
0010
0000
,  // measure 20
0001
1000
0001
0000
0010
0000
0100
1000
0100
0000
0010
0000
1001
0000
0000
0000
,  // measure 21
0001
0000
0100
0000
0000
0010
0000
0000
1000
0000
0001
0010
0000
0010
0001
0000
,  // measure 22
1000
0000
0001
0000
0000
0010
0000
0000
0100
0000
0010
0001
0000
1000
0001
0000
,  // measure 23
0010
0001
0010
0000
0001
1000
0000
0000
0010
1000
0010
0000
1000
0001
0000
0000
,  // measure 24
1000
0100
1000
0000
0100
0010
0000
0100
1000
0000
0001
0010
0000
0100
0010
0000
,  // measure 25
0001
1000
0001
0000
0100
0010
0000
1000
0001
0000
0010
0100
0000
1000
0001
0000
,  // measure 26
0100
0010
1000
0100
1000
0100
0010
0001
0010
0100
1000
0100
0010
0001
1000
0010
,  // measure 27
0100
0001
0100
0010
1000
0010
1000
0001
0010
0100
1000
0001
,  // measure 28
0020
0000
0000
0000
,  // measure 29
0000
0000
0000
0000
0000
0000
0000
0130
,  // measure 30
1001
0000
0000
0000
,  // measure 31
0110
0000
1001
1001
,  // measure 32
0001
0000
0100
0000
0000
0000
0100
0000
0000
0000
0100
0010
0000
0000
0100
0000
,  // measure 33
0010
0000
0100
0000
0000
0000
0100
0000
0000
0000
0100
0010
0000
0000
0100
0000
,  // measure 34
0010
0000
1000
0000
0001
0000
0010
0000
0200
0000
0000
0300
0000
0000
0010
0000
,  // measure 35
0001
0000
1000
0000
0010
0000
1000
0000
0200
0000
0000
0300
0000
0000
0010
0000
,  // measure 36
0001
0000
1000
0000
0010
0000
0100
0001
1000
0000
0100
0000
0010
0000
0001
1000
,  // measure 37
0010
0000
1000
0000
0001
0000
0010
0001
0100
0000
0001
0000
1000
0000
0001
0100
,  // measure 38
0001
0000
0100
0010
0100
0000
0010
1000
0010
0000
1000
0001
1000
0000
0001
0010
,  // measure 39
0001
0000
1000
0100
1000
0000
0100
0010
0100
0000
0010
0001
0010
0000
0001
0000
,  // measure 40
1000
0010
1000
0010
0100
0001
0100
0001
0010
0001
0010
0001
1000
0100
1000
0100
,  // measure 41
4000
0004
0000
0000
0000
0000
0000
0000
0000
0000
0000
0000
0000
0000
0000
0000
,  // measure 42
3003
0000
0000
0000
,  // measure 43
0110
0000
0000
0000
,  // measure 44
1001
0000
0000
0011
0000
0000
0110
0000
0000
0100
1000
0000
1001
0000
0000
0000
,  // measure 45
1000
0000
1000
0000
1000
0000
0001
0010
0200
0000
0000
0310
0000
0000
0100
1000
,  // measure 46
0001
0000
0001
0000
0001
0000
1000
0100
0000
0010
0100
0000
1000
0000
0001
0000
,  // measure 47
0100
0000
0100
0000
0100
0000
0010
1000
0002
0000
0000
1003
0000
0000
0100
0010
,  // measure 48
0001
1000
0001
0020
0000
0030
0100
1000
0001
0200
0000
0310
0100
0010
1000
0001
,  // measure 49
0010
0000
0010
0000
0010
0000
0010
0001
2000
0000
0000
3100
0000
0000
0010
0100
,  // measure 50
1000
0000
1000
0000
1000
0000
0001
0100
0000
0001
1000
0000
0100
0000
0010
0000
,  // measure 51
0001
0000
0001
0000
0001
0000
0001
1000
0020
0000
0000
0130
0000
0000
0010
0100
,  // measure 52
0001
0000
0001
1000
0000
1000
0010
0000
0010
0100
0000
0100
0001
0000
0001
0010
,  // measure 53
0100
0000
0100
1000
0000
1000
0001
0000
0001
0100
0000
0010
1000
0200
0000
0000
,  // measure 54
0310
0000
0001
1000
0000
0010
1000
0000
0001
0000
0010
0100
0000
0010
0001
0000
,  // measure 55
1000
0000
0001
0010
0000
0100
0010
0000
0001
0000
1000
0010
0000
0100
0010
1000
,  // measure 56
0001
0000
0010
0100
0000
0010
0001
0000
1000
0000
0010
1000
0000
0001
0010
0000
,  // measure 57
0100
0000
1000
0001
0000
0010
0100
0000
0010
0000
0001
1000
0000
0010
0100
0001
,  // measure 58
1000
0000
0001
0000
0000
0000
0001
0000
0000
0000
0001
1000
0000
0000
0001
0000
,  // measure 59
0000
0000
0001
0000
0000
0000
0001
0000
0000
0000
0001
1000
0000
0001
1000
0001
,  // measure 60
0020
0000
0130
1000
0001
0000
0001
1000
,  // measure 61
0010
0000
0010
0000
0010
0000
0000
0000
0000
0000
0100
0001
0020
0000
0000
0000
,  // measure 62
0030
0000
0000
0000
1001
0000
0001
0000
1000
0000
0001
0000
2000
0000
0000
3000
,  // measure 63
0000
0000
0001
0000
0100
0000
0010
0000
1000
0000
0000
0010
0000
0000
0100
0000
,  // measure 64
0001
0000
0011
0000
0110
0000
0010
0000
0100
0000
0010
0000
0002
0000
0000
0003
,  // measure 65
0000
0000
0000
0000
1000
0000
0100
1000
0000
0000
0100
0000
0010
0001
0000
0001
,  // measure 66
1000
0001
1000
0001
0100
0000
0001
0000
0010
0000
0100
1000
0020
0000
0000
0130
,  // measure 67
0000
0000
0010
1000
0001
0000
0100
0000
0001
0000
1000
0100
0000
0010
0100
0000
,  // measure 68
1000
0001
0100
0001
0022
0033
0100
1000
,  // measure 69
2020
0000
3030
0000
1001
0000
0000
0101
0000
0000
1001
0000
0000
1000
0100
0000
,  // measure 70
0110
0000
0011
0000
1001
0000
0000
0011
0000
0000
1001
0000
0000
0001
0100
0000
,  // measure 71
1010
0000
1001
0000
1000
0000
0000
0000
0001
0100
0001
1000
0002
0000
0000
1003
,  // measure 72
0000
0000
0100
0010
0001
0000
0001
0000
0001
0000
1000
0010
0000
0100
0010
0000
,  // measure 73
0100
0001
1000
0100
0010
0000
0010
0000
0010
0000
0010
0001
2000
0000
0000
3010
,  // measure 74
0000
0000
0100
0010
1000
0100
0010
0002
0000
0000
1003
0100
0010
0200
0000
0310
,  // measure 75
0001
0100
0010
1000
0001
0000
0001
0000
0001
0000
0001
1000
0200
0000
0000
0310
,  // measure 76
0000
0000
0100
1000
0001
0000
0001
0000
0001
0000
0000
1000
0000
0010
0100
0000
,  // measure 77
0010
0000
0100
0000
0001
0000
1000
0000
0100
0010
0100
0010
0001
0000
1000
0000
,  // measure 78
0010
0100
0010
0100
0001
0100
0010
1000
0001
0100
0010
1000
0001
0100
0010
1000
,  // measure 79
0001
0100
0010
1000
0001
0000
0010
0200
0000
1300
0020
0000
0130
0002
0000
1003
,  // measure 80
0100
0020
0000
0000
0030
0000
0000
0000
0000
0000
0000
0000
0000
0000
0000
0000
;

//---------------dance-single - ---------------
#NOTEDATA:;
#CHARTNAME:;
#CHARTSTYLE:;
#CREDIT:Pandemonium X;
#STEPSTYPE:dance-single;
#DESCRIPTION:;
#DIFFICULTY:Challenge;
#METER:16;
#METERF:16;
#RADARVALUES:0,0,0,0,0;
#NOTES:
// measure 0
0000
0000
0000
0000
,  // measure 1
0000
0000
0000
0000
,  // measure 2
0000
0000
0000
0000
,  // measure 3
0000
0000
0000
0000
,  // measure 4
0000
0000
0000
0000
,  // measure 5
0001
0100
1000
0100
0000
0000
0000
1000
,  // measure 6
0100
0001
0000
0001
0100
1000
0002
0000
,  // measure 7
1003
0100
0001
0100
1000
0000
0001
0000
,  // measure 8
1001
1001
1001
0001
0010
1000
0020
0000
,  // measure 9
0031
0000
1000
0000
0001
0100
0000
0001
1000
0000
0001
0010
0000
0001
1000
0000
,  // measure 10
0100
0000
0010
0000
0100
0010
0000
0100
1000
0000
0100
0010
0000
0010
0001
0000
,  // measure 11
1000
0000
0010
0000
1000
0100
0000
1000
0001
0000
1000
0010
0000
1000
0001
0000
,  // measure 12
0100
0000
0001
0000
0010
0100
0000
0010
0001
0000
0010
0100
0000
0100
1000
0000
,  // measure 13
0001
0000
0100
0000
0001
0100
0000
0100
0010
0000
0010
1000
0000
1000
0001
0000
,  // measure 14
1000
0000
0001
0000
1000
0100
0000
0100
0010
0000
0010
0001
0000
0001
1000
0000
,  // measure 15
0010
1000
0002
0000
0000
0013
0000
0000
0100
0010
0002
0000
0000
0103
0000
0000
,  // measure 16
0110
0000
0000
1010
0000
0000
1001
0000
0000
1000
0100
0000
0110
0000
0010
0000
,  // measure 17
0001
1000
0001
0000
0100
0001
0000
1000
0100
0000
0010
0100
0000
1000
0001
0000
,  // measure 18
0100
0000
0000
0100
0000
0000
0100
0000
0000
0100
0010
0000
0100
0000
0100
0000
,  // measure 19
0010
1000
0001
0000
0010
0100
0000
0010
0001
0000
1000
0010
0000
0100
0001
0000
,  // measure 20
1000
0010
0001
0000
0010
0000
0100
1000
0100
0001
1000
0000
1001
0000
0000
0000
,  // measure 21
0001
1000
0100
0000
0010
0100
0000
1000
0001
0000
0100
0001
0000
1000
0100
0000
,  // measure 22
0010
0001
1000
0000
0100
1000
0000
0100
0010
0000
0001
1000
0000
0010
1000
0000
,  // measure 23
0001
0000
0100
0000
0010
1000
0010
1000
0010
0000
1000
0000
0001
0010
0001
0010
,  // measure 24
0001
0000
0000
1001
0000
0000
1010
0000
0000
0001
0100
0000
0110
0000
0101
0000
,  // measure 25
0001
4000
3100
4000
3001
4000
3010
4000
,  // measure 26
3M01
0000
0000
0010
0M00
0000
0001
0000
0M00
1000
0000
0000
0M01
0000
0000
0010
0M00
0000
0001
0000
0M00
1000
0000
0000
0M10
0000
0000
1000
0M00
0000
0001
0000
0M00
1000
0000
0000
0M01
0000
0000
0010
0000
0000
0001
0000
0000
1000
0000
0000
,  // measure 27
0001
0010
0001
1000
0010
1000
0001
0010
0001
1000
0100
0010
,  // measure 28
2002
0000
0000
0000
,  // measure 29
0000
0000
0000
0000
3003
0000
0000
0101
,  // measure 30
1010
0000
0000
0000
,  // measure 31
1001
0000
0101
1100
,  // measure 32
1001
0000
0001
0000
0010
0000
0001
0000
1000
0000
0000
1000
0000
0000
0000
0000
,  // measure 33
0001
0000
1000
0000
0010
0000
1000
0000
0001
0000
0000
0001
0000
0000
0000
0000
,  // measure 34
1000
0000
0100
0000
1000
0000
0001
0000
0100
0000
0000
0100
0000
0000
0000
0000
,  // measure 35
0001
0000
1000
0000
0001
0000
0100
0000
0010
0000
0000
0010
0000
0000
0100
0000
,  // measure 36
0001
0000
0001
0000
0001
0000
0001
1000
0010
0000
0010
0000
0010
0000
0010
0100
,  // measure 37
0001
0000
0001
0000
0001
0000
0001
0010
0100
0000
0100
0000
0100
0000
0100
1000
,  // measure 38
0001
0000
0001
1000
0010
0000
0010
0100
0001
0000
0001
0010
0100
0000
0100
1000
,  // measure 39
0001
0000
0001
1000
0010
0000
0010
0100
0001
0000
0001
0010
0100
0000
0100
1000
,  // measure 40
0001
1000
0001
1000
0001
1000
0001
1000
0001
1000
0001
1000
0001
1000
0001
1000
,  // measure 41
0001
0100
0010
1000
0001
0010
0001
1000
0100
0010
0001
1000
0010
1000
0001
0010
,  // measure 42
M100
0000
0000
0000
0000
0000
0000
0000
M000
000M
0000
0M00
M010
0001
0M10
0001
,  // measure 43
1000
0000
0000
0000
,  // measure 44
0101
0000
0000
0011
0000
0000
1100
0000
0000
0100
0010
0000
1001
0000
0000
0000
,  // measure 45
0001
0100
0001
0100
0010
1000
0010
1000
0002
0000
0000
0043
0400
0000
0030
0000
,  // measure 46
1300
0000
1000
0000
1000
0000
1000
0001
0000
0001
0100
0000
0010
1000
0001
0010
,  // measure 47
0100
1000
0100
1000
0001
0010
0001
0010
0200
0000
0000
0340
0004
0000
0030
0000
,  // measure 48
1003
0010
0100
0002
0000
0000
0103
0010
1000
0020
0000
0130
1000
0100
0001
1000
,  // measure 49
0001
0010
0001
0010
0100
1000
0100
1000
0002
0000
0000
0403
0040
0000
0300
0000
,  // measure 50
1030
0000
1000
0000
1000
0000
0001
0100
0000
0001
1000
0000
0001
0010
0001
1000
,  // measure 51
0100
0010
0100
0010
0001
0010
0001
0010
0200
0000
0000
4300
0004
0000
3000
0000
,  // measure 52
0103
0000
0010
1000
0000
0001
0010
0000
0100
0010
0000
0100
1000
0000
0001
1000
,  // measure 53
0001
0100
0001
1000
0100
1000
0001
0100
0001
1000
0100
1000
0001
0020
0000
0000
,  // measure 54
0230
0000
1300
0002
0000
0103
0001
1000
0020
0000
0130
0002
0000
0013
0100
0010
,  // measure 55
0002
0000
1003
0020
0000
0130
0001
1000
0200
0000
0310
0002
0000
0013
0100
1000
,  // measure 56
0020
0000
0130
0002
0000
0103
0010
1000
0002
0000
0013
0200
0000
1300
0001
0100
,  // measure 57
0002
0000
1003
0200
0000
0310
0001
1000
0002
0000
0013
0200
0000
0310
0001
1000
,  // measure 58
0001
0000
1000
0000
0000
0000
1000
0000
0000
0000
1000
0001
0000
0000
1000
0000
,  // measure 59
1001
0000
0001
0000
0000
0000
0001
0000
0000
0000
0001
1000
0000
0001
1000
0000
,  // measure 60
1001
0000
1000
0000
0040
0400
0000
0030
0301
0000
1000
0000
0400
0040
0000
0300
,  // measure 61
0031
0000
1001
0000
1001
0000
1000
0000
0000
0000
0010
0100
0002
0000
0000
0000
,  // measure 62
0013
1001
0000
0000
,  // measure 63
0000
0000
0000
0000
,  // measure 64
0000
0101
0011
0000
0000
0000
0000
0000
,  // measure 65
0000
0110
0000
1100
,  // measure 66
0101
0000
0100
1000
0001
0000
0001
0000
0001
0000
0001
1000
0020
0000
0000
0130
,  // measure 67
0000
0000
0000
0000
0010
0000
0010
0000
0010
0000
0100
0010
0000
1000
0001
0000
,  // measure 68
1000
0000
0001
0000
1001
0000
0001
0000
0400
0000
0000
0300
1001
0000
1000
0000
,  // measure 69
0400
0000
0000
0300
0011
0000
0000
1100
0000
0000
0011
0000
0000
0001
0100
0000
,  // measure 70
1010
0000
0101
0000
0011
0000
0000
0110
0000
0000
1100
0000
0000
0100
0010
0000
,  // measure 71
0011
0000
1100
0000
1001
0000
M00M
0000
0001
0100
0010
1000
0200
0000
0000
0340
,  // measure 72
0004
0000
0030
0000
1003
0000
1000
0000
1000
0100
0010
0100
0000
0010
0001
0000
,  // measure 73
1000
0010
0100
0001
1000
0001
1000
0001
0100
0001
0100
0001
0020
0000
0000
0430
,  // measure 74
4000
0000
0300
0000
3001
0100
1000
0200
0000
0000
1300
0100
0010
2000
0000
3100
,  // measure 75
0010
0100
1000
0001
1000
0100
1000
0100
0010
0100
0010
0100
2000
0000
0000
3040
,  // measure 76
0400
0000
0030
0000
0301
1000
0001
0000
1000
0001
1000
0020
0000
0130
0001
0000
,  // measure 77
0010
0100
1000
0100
0010
0000
0010
0000
0010
0100
0010
0001
2000
0000
0000
3004
,  // measure 78
0040
0000
0000
0003
0130
0000
0100
0010
0000
0010
0001
0000
0001
0100
0000
0100
,  // measure 79
0010
0000
1000
0001
1000
0010
0100
0001
1000
0010
0100
0001
1000
0010
0100
0001
,  // measure 80
1000
0020
0000
0000
0030
0000
0000
0000
0000
0000
0000
0000
0000
0000
0000
0000
;

//---------------dance-double - ---------------
#NOTEDATA:;
#CHARTNAME:;
#CHARTSTYLE:;
#CREDIT:Pandemonium X;
#STEPSTYPE:dance-double;
#DESCRIPTION:;
#DIFFICULTY:Easy;
#METER:7;
#METERF:7;
#RADARVALUES:0,0,0,0,0;
#NOTES:
// measure 0
00000000
00000000
00000000
00000000
,  // measure 1
00000000
00000000
00000000
00000000
,  // measure 2
00000000
00000000
00000000
00000000
,  // measure 3
00000000
00000000
00000000
00000000
,  // measure 4
00000000
00000000
00000000
00000000
,  // measure 5
00100000
00001000
00000000
00000000
,  // measure 6
00010000
00000000
00001000
00010000
,  // measure 7
00000100
00001000
00000000
00000000
,  // measure 8
00000001
00000100
00000001
00000000
00000000
00000000
00000000
00000000
,  // measure 9
00000100
00000001
00001000
00000100
,  // measure 10
00000010
00000001
00000100
00000010
,  // measure 11
00001000
00000100
00010000
00001000
,  // measure 12
01000000
00010000
00100000
01000000
,  // measure 13
11000000
01000000
10000000
00100000
,  // measure 14
01000000
00010000
00100000
00001000
,  // measure 15
00010000
00000000
00010000
00000000
,  // measure 16
00010000
00000100
00001000
00000010
,  // measure 17
00000100
00000001
00000010
00000100
,  // measure 18
00002000
00000000
00000000
00000000
,  // measure 19
00003100
00010000
00001000
01000000
,  // measure 20
00020000
00130000
02000000
13000000
,  // measure 21
10010000
00010000
10000000
00100000
,  // measure 22
10000000
00010000
00100000
00001000
,  // measure 23
00020000
00030000
00000200
00000300
,  // measure 24
00002000
00000000
00000000
00003000
,  // measure 25
00000020
00000000
00000000
00000030
,  // measure 26
00000200
00000000
00000000
00000000
,  // measure 27
00000310
00000100
00001000
00010000
,  // measure 28
00022000
00000000
00000000
00000000
,  // measure 29
00000000
00000000
00000000
00000000
00033000
00000000
00000000
00010000
,  // measure 30
00001000
00000000
00000000
00000000
,  // measure 31
00010000
00000000
00001000
00010000
,  // measure 32
00001000
01000000
00200000
00300000
,  // measure 33
01000000
00010000
20000000
30000000
,  // measure 34
01000000
00100000
00002000
00003000
,  // measure 35
00010000
00000100
00002000
00003000
,  // measure 36
00000001
00000000
00001000
00000000
,  // measure 37
00000010
00000000
00000100
00000000
,  // measure 38
00000001
00001000
00000010
00001000
,  // measure 39
00000100
00010000
00001000
01000000
,  // measure 40
00010000
00100000
01000000
10000000
,  // measure 41
00010000
01000000
00010000
01000000
00010000
01000000
00010000
01000000
,  // measure 42
00200000
00000000
00000000
00000000
00000000
00000000
01000000
01000000
,  // measure 43
01300000
00000000
00000000
00000000
,  // measure 44
02002000
00000000
00000000
03003000
,  // measure 45
01000000
00010000
00200000
00300000
,  // measure 46
01000000
10000000
00010000
01000000
,  // measure 47
00001000
00010000
00000200
00000300
,  // measure 48
00001000
00000000
00000000
00000001
00000000
00000000
00001000
00000000
,  // measure 49
00000001
00000100
00000020
00000030
,  // measure 50
00000100
00000001
00000010
00001000
,  // measure 51
00000010
00000001
00002000
00003000
,  // measure 52
00000200
00000000
00000000
00000300
,  // measure 53
00022000
00000000
00000000
00033000
,  // measure 54
00001000
00000000
00100000
00000000
,  // measure 55
00010000
00000000
10000000
00010000
,  // measure 56
01000000
00000000
00100000
00000000
,  // measure 57
10000000
00000000
01000000
00100000
,  // measure 58
00001000
00000000
00000000
00000000
,  // measure 59
00010000
00000000
00000000
00000000
,  // measure 60
00001000
00000000
00010000
00000000
,  // measure 61
00001000
00001000
00001000
00000000
00000000
00010000
00022000
00000000
,  // measure 62
00033000
00000200
00000000
00000300
,  // measure 63
00000000
00002000
00000000
00003000
,  // measure 64
00000000
00000001
00000200
00000000
00000000
00000000
00000300
00000000
,  // measure 65
00000000
00000120
00000000
00001000
,  // measure 66
00001030
00000100
00010000
00002000
,  // measure 67
00003000
00010000
00001000
01000000
,  // measure 68
00010000
00100000
02000000
13000000
,  // measure 69
00020000
00000000
10030000
00000000
00000000
00110000
00000000
00000000
,  // measure 70
01010000
00000000
01001000
00000000
00000000
00011000
00000000
00000000
,  // measure 71
00010100
00001000
02001000
03100000
,  // measure 72
02000000
03010000
00100000
00001000
,  // measure 73
00010000
00000010
00000100
00000001
,  // measure 74
00000020
00000000
00000130
00000000
00000000
00000010
00000000
00000000
,  // measure 75
00000001
00001000
00000100
00010000
,  // measure 76
00002000
01003000
00010000
00100000
,  // measure 77
01000000
10000000
00010000
01000000
,  // measure 78
00002000
00013000
00001000
00010000
,  // measure 79
00001000
00200000
00000000
00000000
,  // measure 80
00000000
00300000
00000000
00000000
00000000
00000000
00000000
00000000
;

//---------------dance-double - ---------------
#NOTEDATA:;
#CHARTNAME:;
#CHARTSTYLE:;
#CREDIT:Pandemonium X;
#STEPSTYPE:dance-double;
#DESCRIPTION:;
#DIFFICULTY:Medium;
#METER:11;
#METERF:11;
#RADARVALUES:0,0,0,0,0;
#NOTES:
// measure 0
00000000
00000000
00000000
00000000
,  // measure 1
00000000
00000000
00000000
00000000
,  // measure 2
00000000
00000000
00000000
00000000
,  // measure 3
00000000
00000000
00000000
00000000
,  // measure 4
00000000
00000000
00000000
00000000
,  // measure 5
10000000
00010000
10000000
00100000
00000000
00000000
00000000
00100000
,  // measure 6
01000000
00010000
00000000
00010000
10000000
00010000
00100000
00000000
,  // measure 7
00000000
11000000
00000000
00110000
00000000
11000000
00000000
00110000
,  // measure 8
00010000
00010000
00010000
01000000
00001000
00010000
00000200
00000000
,  // measure 9
00000300
00000000
00001000
00000000
00000000
00001000
00000000
00000000
00000100
00000000
00000000
00000010
00000000
00000000
00000001
00000000
,  // measure 10
00000000
00000000
00001000
00000000
00000000
00001000
00000000
00000000
00000010
00000000
00000000
00010000
00000000
00000000
00001000
00000000
,  // measure 11
00000000
00000000
00010000
00000000
00000000
00010000
00000000
00000000
00001000
00000000
00000000
01000000
00000000
00000000
00010000
00000000
,  // measure 12
00000000
00000000
00100000
00000000
00000000
01000000
00000000
00000000
00100000
00000000
00000000
01000000
00000000
00000000
10000000
00000000
,  // measure 13
00010000
00000000
01000000
00000000
00000000
01000000
00000000
00000000
00100000
00000000
00000000
10000000
00000000
00000000
00010000
00000000
,  // measure 14
00000000
00000000
00100000
00000000
00000000
00100000
00000000
00000000
00001000
00000000
00000000
00010000
00000000
00000000
00000100
00000000
,  // measure 15
00000000
00000000
00001000
00000000
00000000
00001000
00000000
00000000
00000000
00000000
00000001
00000000
00000000
00000001
00000000
00000000
,  // measure 16
00001001
00000000
00000000
00001000
00000000
00000000
00001001
00000000
00000000
00000001
00000000
00000000
00001001
00000000
00000001
00000000
,  // measure 17
00000100
00000000
00000010
00000000
00000000
00000010
00000000
00000000
00001000
00000000
00000000
00000100
00000000
00000000
00010000
00000000
,  // measure 18
00001000
00000000
00000000
00001000
00000000
00000000
00001000
00000000
00000000
00001000
00000000
00000000
00001000
00000000
00010000
00000000
,  // measure 19
00001000
00000000
01000000
00000000
00000000
01000000
00000000
00000000
00010000
00000000
00000000
00100000
00000000
00000000
01000000
00000000
,  // measure 20
10000000
01000000
00010000
01000000
00100000
00001000
00011000
00000000
,  // measure 21
00000000
00000000
00010000
00000000
00000000
00010000
00000000
00000000
00000100
00000000
00000000
00001000
00000000
00000000
00000001
00000000
,  // measure 22
00000000
00000000
00001000
00000000
00000000
00001000
00000000
00000000
00000100
00000000
00000000
00010000
00000000
00000000
00001000
00000000
,  // measure 23
00000000
00000000
00100000
00000000
00000000
00100000
00000000
00000000
00000000
00000000
00010000
00000000
00000000
00010000
00000000
00000000
,  // measure 24
01000000
00000000
00010000
00000000
00000000
00100000
00000000
00000000
01000000
00000000
00000000
10000000
00000000
00000000
10010000
00000000
,  // measure 25
00000000
00000000
10000000
00000000
00000000
01000000
00000000
00000000
00100000
00000000
00000000
00010000
00000000
00000000
10010000
00000000
,  // measure 26
20000000
32000000
03200000
00320000
,  // measure 27
00032000
00003200
00000320
00000032
,  // measure 28
00001003
00000000
00000000
00000000
,  // measure 29
00000000
00000000
00000000
00000000
00000000
00000000
00000000
00000001
,  // measure 30
00001001
00000000
00000000
00000000
,  // measure 31
00000110
00000000
00001001
00000000
,  // measure 32
00000001
00001000
00000200
00000300
,  // measure 33
00001000
00000100
00020000
00030000
,  // measure 34
00001000
01000000
00200000
00300000
,  // measure 35
01000000
00010000
20000000
30000000
,  // measure 36
02000000
03100000
02000000
13000000
,  // measure 37
02000000
03100000
02000000
13000000
,  // measure 38
02000000
03200000
00320000
02030000
,  // measure 39
03002000
00023000
00030200
00002300
,  // measure 40
00003001
00001000
00000001
00001000
00000001
00001000
00000001
00001000
,  // measure 41
00000020
00000000
00000000
00000000
,  // measure 42
00000130
00000000
00000000
00000000
00000000
00000000
00000000
00000000
00000000
00000000
00000000
00000000
00000001
00001000
00000001
00001000
,  // measure 43
00000001
00000000
00000000
00000000
,  // measure 44
00001000
00000000
00000000
00000100
00000000
00000000
00010000
00000000
00000000
00001000
00010000
00000000
00011000
00000000
00000000
00000000
,  // measure 45
00001000
00000000
01000000
00000000
00001000
00000000
01000000
00000000
00200000
00000000
00000000
00300000
00000000
00000000
00000000
00000000
,  // measure 46
01000000
00000000
00010000
00000000
01000000
00000000
00000000
00100000
00000000
00000000
10000000
00000000
01000000
00000000
00100000
00000000
,  // measure 47
00001000
00000000
00010000
00000000
00001000
00000000
00010000
00000000
00002000
00000000
00000000
00003000
00000000
00000000
00000000
00000000
,  // measure 48
00010000
00000000
00000000
00010000
00000000
00000000
00000100
00000000
00000000
00000100
00000000
00000000
00001000
00000000
00000100
00000000
,  // measure 49
00000010
00000000
00000001
00000000
00000010
00000000
00000001
00000000
00000020
00000000
00000000
00000030
00000000
00000000
00000000
00000000
,  // measure 50
00000001
00000000
00000100
00000000
00000001
00000000
00000000
00001000
00000000
00000000
00000100
00000000
00000001
00000000
00000100
00000000
,  // measure 51
00001000
00000000
00000100
00000000
00001000
00000000
00000100
00000000
00002000
00000000
00000000
00003000
00000000
00000000
00000000
00000000
,  // measure 52
00000100
00000000
00000000
00000100
00000000
00000000
00000100
00000000
00000000
00000100
00000000
00000000
00000100
00000000
00000000
00000100
,  // measure 53
00010000
00000000
00000000
00010000
00000000
00000000
00010000
00000000
00000000
00010000
00000000
00000000
00010000
00001000
00000000
00000000
,  // measure 54
01000000
00000000
00000000
00010000
00000000
00000000
01000000
00000000
00100000
00000000
00000000
10000000
00000000
00000000
01000000
00000000
,  // measure 55
00100000
00000000
00000000
00001000
00000000
00000000
00010000
00000000
00000100
00000000
00000000
00001000
00000000
00000000
00000010
00000000
,  // measure 56
00010000
00000000
00000000
00001000
00000000
00000000
01000000
00000000
00010000
00000000
00000000
00100000
00000000
00000000
00001000
00000000
,  // measure 57
00010000
00000000
00000000
00000100
00000000
00000000
00001000
00000000
00000010
00000000
00000000
00000100
00000000
00000000
00000001
00000000
,  // measure 58
00001000
00000100
00000000
00000000
00000000
00000000
00000000
00000000
,  // measure 59
00000000
00000000
00000000
00000010
00000000
00000001
00000000
00001000
,  // measure 60
00000010
00000101
00000001
00001100
,  // measure 61
00001000
00000000
00001000
00000000
00001000
00000000
00000000
00000000
00000000
00000000
00000100
00010000
00001000
00000000
00000000
00000000
,  // measure 62
00011000
00000000
00000000
00000000
00020000
00000000
00000000
00000000
00000000
00000000
00000000
00000000
00000000
00000000
00000000
00030000
,  // measure 63
00000000
00000000
00000000
00000000
00002000
00000000
00000000
00000000
00000000
00000000
00000000
00000000
00000000
00000000
00000000
00003000
,  // measure 64
00000000
00000000
00100000
00000000
02000000
00000000
00000000
00000000
00000000
00000000
00000000
00000000
00000000
00000000
00000000
03000000
,  // measure 65
00000000
11000000
00000000
01010000
,  // measure 66
11000000
01000000
00100000
00010000
00000000
01000000
00000000
00010000
,  // measure 67
00000000
01000000
00000000
00001000
00000000
00010000
00000000
00001000
,  // measure 68
00000000
00010000
00000100
00001000
00000020
00000000
00000130
00000001
,  // measure 69
00000020
00000000
00000000
00000000
00000130
00000000
00000000
00000100
00000000
00000000
00000100
00000000
00000000
00000100
00000010
00000000
,  // measure 70
00000001
00000000
00001000
00000000
00000100
00000000
00000000
00000100
00000000
00000000
00000100
00000000
00000000
00000100
00010000
00000000
,  // measure 71
00011000
00000000
00000000
00000000
00210000
00000000
00000000
00000000
01300000
00000000
10000000
00000000
00010000
00000000
00000000
00010000
,  // measure 72
00000000
00000000
00000000
00000000
01000000
00000000
00100000
00000000
01000000
00000000
00000000
00010000
00000000
00000000
00100000
00000000
,  // measure 73
01000000
00000000
10000000
00000000
00010000
00000000
01000000
00000000
00010000
00000000
01000000
00000000
00010000
00000000
00000000
00100000
,  // measure 74
00000000
00000000
00000000
00000000
00010000
00000000
00000000
00010000
00000000
00000000
00100000
00000000
00000000
00100000
00000000
00000000
,  // measure 75
00010000
00000000
00100000
00000000
00001000
00000000
00010000
00000000
00001000
00000000
00010000
00000000
00002000
00000000
00000000
01003000
,  // measure 76
00000000
00000000
00000000
00000000
00001000
00000000
00010000
00000000
00000100
00000000
00001000
00000100
00000000
00000100
00001000
00000000
,  // measure 77
00000001
00000000
00000100
00000000
00000010
00000000
00001000
00000000
00000100
00000000
00000010
00000000
00000002
00000000
00000000
00000013
,  // measure 78
00000000
00000000
00000000
00000000
00000100
00000000
00000000
00000100
00000000
00000000
00000100
00000000
00000000
00000100
00000000
00000000
,  // measure 79
00000100
00000000
00000000
00000100
00010000
00000000
00000000
00001000
00000000
00000000
00010000
00000000
00000000
00001000
00000000
00000000
,  // measure 80
00010000
00000020
00000000
00000000
00000000
00000000
00000000
00000000
00000030
00000000
00000000
00000000
00000000
00000000
00000000
00000000
;

//---------------dance-double - ---------------
#NOTEDATA:;
#CHARTNAME:;
#CHARTSTYLE:;
#CREDIT:Pandemonium X;
#STEPSTYPE:dance-double;
#DESCRIPTION:;
#DIFFICULTY:Hard;
#METER:15;
#METERF:15;
#RADARVALUES:0,0,0,0,0;
#NOTES:
// measure 0
00000000
00000000
00000000
00000000
,  // measure 1
00000000
00000000
00000000
00000000
,  // measure 2
00000000
00000000
00000000
00000000
,  // measure 3
00000000
00000000
00000000
00000000
,  // measure 4
00000000
00000000
00000000
00000000
,  // measure 5
00100000
00001000
00010000
00010000
00000000
00000000
00000000
00001000
,  // measure 6
00010000
00000100
00000000
00000100
00010000
00001000
00001000
00000000
,  // measure 7
00010000
00000100
00001000
00000001
00000000
00000000
00000000
00000100
,  // measure 8
00000101
00000101
00000101
00000001
00000100
00001000
00000200
00000000
,  // measure 9
00000300
00000000
00000010
00000000
00000000
00001000
00000000
00000000
00000100
00000000
00000000
00010000
00000000
00000000
00011000
00000000
,  // measure 10
00000000
00000000
00001000
00000000
00000000
00100000
00000000
00000000
01000000
00000000
00000000
00100000
00000000
00000000
00110000
00000000
,  // measure 11
00000000
00000000
00100000
00000000
00000000
01000000
00000000
00000000
10000000
00000000
00000000
00100000
00000000
00000000
01100000
00000000
,  // measure 12
00000000
00000000
00100000
00000000
00000000
01000000
00000000
01000000
00010000
00000000
01000000
00000000
00001000
00000000
00010000
00001000
,  // measure 13
00010000
00000000
00001000
00000000
00000000
00100000
00000000
00000000
00010000
00000000
00000000
10000000
00000000
00000000
11000000
00000000
,  // measure 14
00000000
00000000
01000000
00000000
00000000
00100000
00000000
00000000
00010000
00000000
00000000
00001000
00000000
00000000
00011000
00000000
,  // measure 15
00010000
00000000
00000100
00000000
00000000
00000100
00000000
00000000
00010000
00000000
00001000
00000000
00000000
00001000
00000000
00000000
,  // measure 16
00011000
00000000
00000000
00110000
00000000
00000000
00011000
00000000
00000000
00000010
00001000
00000000
00000010
00000000
00000100
00000000
,  // measure 17
00000001
00000000
00000010
00000000
00000000
00000001
00000000
00000000
00000010
00000000
00000000
00000100
00000000
00000000
00001000
00000000
,  // measure 18
00000100
00000000
00001000
00000001
00000000
00000100
00000010
00000000
00001000
00000001
00000000
00000100
00000010
00000000
00001000
00000001
,  // measure 19
00001000
00000000
00000100
00000000
00000000
00001000
00000000
00000000
00000010
00000000
00000000
00010000
00000000
00000000
00001000
00000000
,  // measure 20
00100000
00010000
00100000
00000000
01000000
00000000
10000000
00100000
10000000
00000000
00010000
00000000
10010000
00000000
00000000
00000000
,  // measure 21
11000000
00000000
10000000
00000000
00000000
00010000
00000000
00000000
00100000
00000000
00000000
00001000
00000000
00000000
00011000
00000000
,  // measure 22
00000000
00000000
00010000
00000000
00000000
00000100
00000000
00000000
00001000
00000000
00000000
00000010
00000000
00000000
00001010
00000000
,  // measure 23
00000010
00001000
00000001
00000000
00000010
00000100
00000000
00000000
00000010
00000001
00001000
00000000
00000010
00001000
00000000
00000000
,  // measure 24
00001100
00000000
00000000
00011000
00000000
00000000
01001000
00000000
00000000
01000000
00010000
00000000
00100000
00000000
01000000
00000000
,  // measure 25
11000000
00000000
00000000
01100000
00000000
00000000
00110000
00000000
00000000
00100000
00001000
00000000
00010000
00000000
00000100
00000000
,  // measure 26
00004000
00000040
00000000
00000000
00000000
00000000
00000000
00000000
00000000
00000000
00000000
00000000
00003030
00000000
00000000
00000000
,  // measure 27
00000010
00000100
00000010
00001000
00000001
00000010
00000100
00001000
00000100
00010000
00001000
01000000
,  // measure 28
00020000
00000000
00000000
00000000
,  // measure 29
00000000
00000000
00000000
00000000
00000000
00000000
00000000
00130000
,  // measure 30
00101000
00000000
00000000
00000000
,  // measure 31
00011000
00000000
00010010
00001010
,  // measure 32
00000001
00000000
00000100
00000000
00000010
00000000
00001000
00000000
00000100
00000000
00000000
00000100
00000000
00000000
00000000
00000000
,  // measure 33
00001000
00000000
00000100
00000000
00010000
00000000
00001000
00000000
01000000
00000000
00000000
01000000
00000000
00000000
00000000
00000000
,  // measure 34
00100000
00000000
10000000
00000000
00010000
00000000
00100000
00000000
01000000
00000000
00000000
01000000
00000000
00000000
00000000
00000000
,  // measure 35
00100000
00000000
00010000
00000000
01000000
00000000
00001000
00000000
00010000
00000000
00000000
00010000
00000000
00000000
00000000
00000000
,  // measure 36
00010000
00000000
00100000
00000000
00001000
00000000
00010000
00000100
00001000
00000000
00000010
00000000
00000100
00000000
00000010
00001000
,  // measure 37
00000100
00000000
00010000
00000000
00001000
00000000
01000000
00010000
10000000
00000000
00010000
00000000
01000000
00000000
00001000
00010000
,  // measure 38
00001000
00000000
00100000
00010000
00100000
00000000
00100000
01000000
00100000
00000000
01000000
10000000
01000000
00000000
01000000
00100000
,  // measure 39
01000000
00000000
00100000
00010000
00100000
00000000
00100000
00001000
00100000
00000000
00001000
00010000
00001000
00000000
00001000
01000000
,  // measure 40
00001000
00010000
00001000
00010000
00000100
00010000
00000100
00010000
00000010
00001000
00000010
00001000
00000001
00000100
00000001
00000100
,  // measure 41
00000040
00004000
00000000
00000000
00000000
00000000
00000000
00000000
00000000
00000000
00000000
00000000
00000000
00000000
00000000
00000000
,  // measure 42
00003030
00000000
00000000
00000000
00000000
00000000
00000000
00000000
00000000
00000000
00000000
00000000
00000100
00001000
00000100
00001000
,  // measure 43
00000010
00000000
00000000
00000000
,  // measure 44
00001010
00000000
00000000
00001100
00000000
00000000
00010100
00000000
00000000
00010000
00001000
00000000
00101000
00000000
00000000
00000000
,  // measure 45
00001000
00000000
00100000
00000000
01000000
00000000
10000000
00100000
02000000
00000000
00000000
03010000
00000000
00000000
00000000
00000000
,  // measure 46
00100000
00000000
01000000
00000000
10000000
01000000
10000000
00010000
00000000
00010000
01000000
00000000
00010000
00000000
00100000
00000000
,  // measure 47
00001000
00000000
00010000
00000000
00000100
00000000
00001000
00000010
00000200
00000000
00000000
00000301
00000000
00000000
00000000
00000000
,  // measure 48
00000001
00000100
00000010
00002000
00000000
00000000
00003100
00010000
00001000
02000000
00000000
03010000
10000000
01000000
00100000
00010000
,  // measure 49
10000000
00000000
00100000
00000000
10000000
00000000
01000000
00100000
00002000
00000000
00000000
00013000
00000000
00000000
00000000
00000000
,  // measure 50
00010000
00000000
00000100
00000000
00001000
00000010
00001000
00000001
00000000
00000001
00001000
00000000
00000100
00000010
00000100
00000000
,  // measure 51
00001000
00000000
00000010
00000000
00000100
00000000
00000001
00000010
00000200
00000000
00000000
00001300
00000000
00000000
00000100
00010000
,  // measure 52
00001000
00000000
00000000
00110000
00000000
00000000
01100000
00000000
00000000
11000000
00000000
10000000
00100000
00000000
01000000
00000000
,  // measure 53
01010000
00000000
00010000
00100000
00000000
00100000
00001000
00000000
00010000
00000100
00000000
00001000
00000010
00000200
00000000
00000000
,  // measure 54
00000310
00000000
00001000
00000100
00000000
00000100
00000010
00000000
00000001
00000000
00000010
00000100
00000000
00000100
00001000
00000000
,  // measure 55
00000100
00000000
00010000
00000100
00000000
00000100
00001000
00000000
00000100
00000000
00001000
00000010
00000000
00000010
00010000
00000000
,  // measure 56
00001000
00000000
01000000
00001000
00000000
00001000
00010000
00000000
00001000
00000000
00001000
00100000
00000000
00100000
00010000
00000000
,  // measure 57
00100000
00000000
01000000
10000000
00000000
10000000
00100000
00000000
01000000
00000000
01000000
00100000
00000000
00100000
10000000
00000000
,  // measure 58
00010000
00000000
10000000
00000000
00000000
00000000
10000000
00000000
00000000
00000000
10000000
00010000
00000000
00000000
10000000
00000000
,  // measure 59
00000000
00000000
10000000
00000000
00000000
00000000
10000000
00000000
00000000
00000000
10000000
00010000
00000000
10000000
00010000
00000000
,  // measure 60
10010000
10000000
02000000
00000000
13000000
00010000
02000000
00000000
,  // measure 61
03010000
00000000
01010000
00000000
01010000
00000000
00000000
00000000
00000000
00000000
01000000
00001000
00020000
00000000
00000000
00000000
,  // measure 62
00031000
00000000
00000000
00000000
00010000
00000000
00000100
00000000
00010000
00000000
00000100
00000000
00002000
00000000
00000000
00003001
,  // measure 63
00000000
00000000
00000000
00000000
00000100
00000000
00000010
00000000
00000100
00000000
00000010
00000100
00000000
00000100
00000001
00000000
,  // measure 64
00001000
00000000
00001100
00000000
00001100
00000000
00000100
00000000
00010000
00000000
00000100
00000000
00020000
00000000
00000000
00031000
,  // measure 65
00000000
00000000
00000000
00000000
00210000
00000000
00000000
00301000
00000000
00000000
00012000
00000000
00000000
01003000
00000000
00000000
,  // measure 66
00100000
00000000
01000000
00000000
00010000
00000000
10000000
00000000
01000000
00000000
00100000
00000000
00020000
00000000
00000000
01030000
,  // measure 67
00000000
00000000
00000000
00000000
00100000
00000000
10000000
00000000
00010000
00000000
00100000
01000000
00000000
01000000
00100000
00000000
,  // measure 68
00001000
00010000
00000100
00001000
00000020
00000000
00000130
00000010
,  // measure 69
00020000
00000000
00000000
00000000
00031000
00000000
00000000
00110000
00000000
00000000
01100000
00000000
00000000
01000000
10000000
00000000
,  // measure 70
11000000
00000000
10100000
00000000
01010000
00000000
00000000
01001000
00000000
00000000
00011000
00000000
00000000
00010000
00000100
00000000
,  // measure 71
00001100
00000000
00000100
00000000
00000010
00000000
00000000
00000000
00011000
00001000
00010000
00000010
00020000
00000000
00000000
00031000
,  // measure 72
00000000
00000000
00000000
00000000
00010000
00000000
00001000
00000000
01000000
00010000
10000000
01000000
00000000
00100000
00010000
00000000
,  // measure 73
10000000
00010000
10000000
00000000
00010000
00000000
00100000
00000000
01000000
00000000
00100000
00010000
02000000
00000000
00000000
03001000
,  // measure 74
00000000
00000000
00000000
00000000
00010000
00001000
00010000
00000200
00000000
00000000
00010300
00001000
00010000
00000020
00000000
00001030
,  // measure 75
00000001
00000010
00000001
00001000
00000100
00000000
00010000
00000000
00001000
00000000
01000000
00001000
00020000
00000000
00000000
00030100
,  // measure 76
00000000
00000000
00000000
00000000
00010000
00000000
00001000
00000000
01000000
00010000
10000000
01000000
00000000
00100000
01000000
00000000
,  // measure 77
10000000
00000000
00010000
00000000
01000000
00010000
00100000
01000000
10000000
00010000
01000000
00001000
00020000
00000000
00000000
00031000
,  // measure 78
00000000
00000000
00000000
00000000
00011000
00000000
00000000
00010100
00000000
00000000
00001100
00000000
00000000
00000110
00000000
00000010
,  // measure 79
00000001
00000000
00000100
00000000
00000020
00000000
00000000
00000230
00000000
00000000
00002300
00000000
00000000
00023000
00000000
00031000
,  // measure 80
00010000
00001000
00000000
00000000
00000000
00000000
00000000
00000000
00000000
00000000
00000000
00000000
00000000
00000000
00000000
00000000
;

//---------------dance-double - ---------------
#NOTEDATA:;
#CHARTNAME:;
#CHARTSTYLE:;
#CREDIT:Pandemonium X;
#STEPSTYPE:dance-double;
#DESCRIPTION:;
#DIFFICULTY:Challenge;
#METER:16;
#METERF:16;
#RADARVALUES:0,0,0,0,0;
#NOTES:
// measure 0
00000000
00000000
00000000
00000000
,  // measure 1
00000000
00000000
00000000
00000000
,  // measure 2
00000000
00000000
00000000
00000000
,  // measure 3
00000000
00000000
00000000
00000000
,  // measure 4
00000000
00000000
00000000
00000000
,  // measure 5
00100000
00010000
00001000
00000100
00000000
00000000
00000000
00000100
,  // measure 6
00001000
00010000
00000000
00010000
00001000
00010000
00100000
00000000
,  // measure 7
00100000
10000000
01000000
00100000
00000000
00000000
00000000
00000000
,  // measure 8
00011000
00011000
00011000
00001000
00010000
00100000
20000000
00000000
,  // measure 9
31000000
00000000
00100000
00000000
00000000
00010000
00000000
00000000
01000000
00000000
00010000
01000000
00000000
01000000
00001000
00000000
,  // measure 10
00000000
00000000
00010000
00000000
00000000
00001000
00000000
00000000
00100000
00000000
00001000
00010000
00000000
00010000
00000010
00000000
,  // measure 11
00000000
00000000
00000100
00000000
00000000
00000010
00000000
00000000
00001000
00000000
00000001
00000010
00000000
00000010
00000100
00000000
,  // measure 12
00000000
00000000
00000010
00000000
00000000
00000001
00000000
00001000
00000010
00000000
00000001
00000000
00000010
00000000
00001000
00000100
,  // measure 13
00001000
00000000
00000100
00000000
00000000
00010000
00000000
00000000
00001000
00000000
01000000
00001000
00000000
00001000
00010000
00000000
,  // measure 14
00000000
00000000
00001000
00000000
00000000
00100000
00000000
00000000
00010000
00000000
10000000
01000000
00000000
01000000
00100000
00000000
,  // measure 15
01000000
10000000
01000000
00000000
00000000
00110000
00000000
00000000
10000000
01000000
10000000
00000000
00000000
00110000
00000000
00000000
,  // measure 16
11000000
00000000
00000000
10010000
00000000
00000000
01001000
00000000
00000000
00010000
00001000
00000000
00011000
00000000
00010000
00000000
,  // measure 17
00010000
00000100
00010000
00000000
00000100
00001000
00000000
00001000
00000010
00000000
00000010
00000100
00000000
00000100
00000001
00000000
,  // measure 18
00001001
00000000
00000000
00001100
00000000
00000000
00001001
00000000
00000000
00000101
00000000
00000000
00001001
00000000
00001000
00000001
,  // measure 19
00001000
00000010
00010000
00000000
00010000
00001000
00000000
00001000
01000000
00000000
01000000
00100000
00000000
00100000
10000000
00000000
,  // measure 20
00010000
00100000
00001000
00000000
00101000
00000000
00001000
00010000
00000010
00000100
00000001
00000000
00001200
00000000
00000000
00000000
,  // measure 21
00010300
00001000
00010000
00000000
00001000
01000000
00000000
00010000
00100000
00000000
01000000
10000000
00000000
00010000
20000000
00000000
,  // measure 22
31000000
00100000
01000000
00000000
10000000
00100000
00000000
01000000
00010000
00000000
00100000
00001000
00000000
00010000
00000020
00000000
,  // measure 23
00000130
00000001
00000100
00000000
00000000
00001010
00000000
00000000
00000001
00000100
00000001
00000000
00001010
00000000
00000000
00000000
,  // measure 24
00000101
00000000
00000000
00001010
00000000
00000000
00001100
00000000
00000000
00001000
00010000
00000000
00011000
00000000
00001000
00000000
,  // measure 25
01001000
00000000
00000000
01100000
00000000
00000000
10100000
00000000
00000000
10000000
00010000
00000000
10010000
00000000
00010000
00000000
,  // measure 26
00110000
00100000
00010000
01000000
00001000
00010000
00000100
00001000
00000100
00010000
00001000
01000000
00010000
00100000
00010000
00100000
,  // measure 27
00001000
00010000
00000100
00001000
00000010
00001000
00000100
00010000
00001000
00100000
00001000
00010000
,  // measure 28
00002000
00000000
00000000
00010000
00000000
00000000
00100000
00000000
,  // measure 29
00010000
00000000
00000000
00000000
00013000
00000000
00000000
00011000
,  // measure 30
00021000
00000000
00000000
00000100
00000000
00000000
00031000
00000000
,  // measure 31
00010100
00000000
00000000
00000000
00000000
00000000
00000000
00000000
00011000
00000000
00000000
00000000
01001000
00000000
01000000
00010000
,  // measure 32
10000000
00000000
01000000
00000000
00100000
00000000
00010000
00000000
02000000
00000000
00000000
03010000
00000000
00000000
00000000
00000000
,  // measure 33
00100000
00000000
00010000
00000000
01000000
00000000
00001000
00000000
00020000
00000000
00000000
00031000
00000000
00000000
00000000
00000000
,  // measure 34
00010000
00000000
00000100
00000000
00001000
00000000
00000010
00000000
00000200
00000000
00000000
00000301
00000000
00000000
00000000
00000000
,  // measure 35
00000010
00000000
00000001
00000000
00001000
00000000
00000010
00000000
00000200
00000000
00000000
00000301
00000000
00000000
00000000
00000000
,  // measure 36
00001000
00000000
00000001
00000000
00000100
00000000
00000010
00001000
00000100
00000000
00001000
00000000
00000100
00000000
00010000
00001000
,  // measure 37
01000000
00000000
00010000
00000000
00100000
00000000
01000000
10000000
00010000
00000000
01000000
00000000
00010000
00000000
00100000
00001000
,  // measure 38
00010000
00000000
00001000
00010000
00000100
00000000
00000010
00000001
00001000
00000000
00000010
00001000
00000100
00000000
00001000
00000100
,  // measure 39
00010000
00000000
00001000
01000000
00010000
00000000
00100000
01000000
10000000
00000000
01000000
10000000
00010000
00000000
01000000
00010000
,  // measure 40
10000000
00010000
10000000
00010000
01000000
00100000
01000000
00100000
10000000
01000000
10000000
01000000
00100000
00010000
00100000
00010000
,  // measure 41
00100000
00001000
00010000
00000010
00000100
00000001
00000010
00000001
00001000
00000010
00010000
00001000
00010000
00001000
00010000
00001000
,  // measure 42
00020000
00000000
00000000
00000000
00000000
00000000
00000000
00000000
00000000
00000000
00000000
00000000
00031000
00010000
00001000
00010000
,  // measure 43
00001000
00000000
00000000
00000000
,  // measure 44
00011000
00000000
00000000
00110000
00000000
00000000
00011000
00000000
00000000
00001000
00000010
00000000
00000101
00000000
00000000
00000000
,  // measure 45
00000001
00000100
00000010
00001000
00000100
00010000
00000100
00001000
00000020
00000000
00000000
00000130
00000002
00000000
00000000
00000000
,  // measure 46
00001003
00000000
00001000
00000000
00001000
00000000
00001000
00000100
00000000
00000100
00010000
00000000
00001000
00000000
01000000
00000000
,  // measure 47
00010000
00100000
00010000
10000000
00100000
10000000
01000000
00100000
00020000
00000000
00000000
10030000
02000000
00000000
00000000
00000000
,  // measure 48
13000000
00100000
00010000
00200000
00000000
00000000
01300000
00010000
00100000
02000000
00000000
03100000
00010000
00001000
00000100
00000010
,  // measure 49
00000001
00001000
00000010
00001000
00000001
00000010
00000100
00001000
00000200
00000000
00000000
00010300
00002000
00000000
00000000
00000000
,  // measure 50
01003000
00000000
01000000
00000000
01000000
10000000
01000000
00010000
00000000
00100000
10000000
00000000
00100000
00000000
00001000
00000000
,  // measure 51
00010000
00001000
00100000
00010000
01000000
00010000
10000000
01000000
00100000
00000000
00000000
01000000
20000000
00000000
00000000
00000000
,  // measure 52
30010000
00000000
00010000
10000000
00000000
10000000
00010000
00000000
00010000
00100000
00000000
00100000
00001000
00000000
00001000
00010000
,  // measure 53
00000010
00000100
00000001
00000100
00000010
00000100
00000001
00000100
00000010
00000100
00000001
00000100
00000010
00001000
00000200
00000000
,  // measure 54
00010300
00000000
00001000
01000000
00000000
01000000
00100000
10000000
00010000
00000000
00100000
01000000
00000000
01000000
00100000
00001000
,  // measure 55
00010000
00000000
00001000
00010000
00000000
00000100
00001000
00000010
00010000
00000000
00001000
00100000
00000000
00001000
00010000
00000010
,  // measure 56
00000100
00000000
00000010
00001000
00000000
00000001
00000010
00000001
00001000
00000000
00000001
00000010
00000000
00000100
00000010
00000001
,  // measure 57
00001000
00000000
00000100
00000010
00000000
00000100
00001000
00000010
00010000
00000000
00001000
00010000
00000000
00001000
01000000
00010000
,  // measure 58
00100000
00000000
01000000
00000000
00000000
00000000
01000000
00000000
00000000
00000000
01000000
00100000
00000000
00000000
01000000
00000000
,  // measure 59
10010000
00000000
10000000
00000000
00000000
00000000
10000000
00000000
00000000
00000000
10000000
00010000
00000000
00000000
10000000
00000000
,  // measure 60
00010000
00000000
00100000
00000000
00202000
00000000
00003000
00000000
00301000
00000000
00010000
00000000
00020020
00000000
00000000
00000030
,  // measure 61
00031000
00000000
00011000
00000000
00101000
00000000
00100000
00000000
00000000
00000000
00001000
00010000
00022000
00000000
00000000
00000000
,  // measure 62
00033000
00000000
00000000
00000000
00101000
00000000
00100000
00000000
00001000
00000000
00010000
00000000
00000020
00000000
00000000
00000130
,  // measure 63
00000000
00000000
00000000
00000000
00000010
00000000
00000100
00000000
00000001
00000000
00000010
00000001
00000000
00000001
00000100
00000000
,  // measure 64
00000010
00000000
00001010
00000000
00000101
00000000
00000001
00000000
00001000
00000000
00000100
00000000
00020000
00000000
00000000
00031000
,  // measure 65
00000000
00110000
00000000
11000000
,  // measure 66
01010000
00000000
00010000
01000000
10000000
00000000
00100000
00000000
01000000
00000000
00010000
00000000
00200000
00000000
00000000
00301000
,  // measure 67
00000000
00000000
00000000
00000000
00011000
00000000
00010000
00000000
00000100
00000000
00001000
00000100
00000000
00000100
00010000
00000000
,  // measure 68
00001000
01000000
00010000
00100000
00202000
00300000
00013000
00000010
,  // measure 69
00020020
00000000
00000030
00000000
00030010
00000000
00000000
00011000
00000000
00000000
00110000
00000000
00000000
00010000
00001000
00000000
,  // measure 70
00011000
00000000
00011000
00000000
00010010
00000000
00000000
00101000
00000000
00000000
01000100
00000000
00000000
00010000
00001000
00000000
,  // measure 71
00011000
00000000
00000000
00000000
02001000
00000000
00000000
00000000
03100000
10000000
00010000
00100000
02000000
00000000
00000000
13000000
,  // measure 72
00020000
00000000
00000000
00000000
01030000
00000000
00010000
00000000
00100000
00000000
00010000
10000000
00000000
10000000
01000000
00000000
,  // measure 73
00100000
01000000
00100000
00010000
10000000
00000000
00010000
00000000
01000000
00000000
00010000
00100000
00002000
00000000
00000000
00013000
,  // measure 74
00000200
00000000
00000000
00000000
00001300
00000010
00000100
00002000
00000000
00000000
00003100
00000001
00001000
00000200
00000000
00000310
,  // measure 75
00001000
00000010
00000001
00001000
00000100
00010000
00001000
01000000
00010000
00100000
01000000
10000000
00010000
00000000
00000000
10000000
,  // measure 76
00200000
00000000
00000000
00000000
01300000
00010000
10000000
00000000
00010000
10000000
01000000
00100000
00000000
00100000
01000000
00000000
,  // measure 77
10000000
00010000
10000000
00000000
00010000
00000000
00100000
00000000
00001000
00010000
00001000
00010000
00001000
00000000
01000000
00000000
,  // measure 78
00001000
00010000
00001000
00010000
00000100
00000000
00001000
00000010
00000000
00000010
00010000
00000000
00010000
00001000
00000000
00001000
,  // measure 79
00100000
00000000
00100000
00010000
10000000
00100000
01000000
00100000
10000000
00100000
01000000
00100000
10000000
00100000
01000000
00010000
,  // measure 80
10000000
02000000
00000000
00000000
03000000
00000000
00000000
00000000
00000000
00000000
00000000
00000000
00000000
00000000
00000000
00000000
;
