#VERSION:0.83;
#TITLE:Make Me Your Own;
#SUBTITLE:;
#ARTIST:good-cool ft. Raj Ramayya;
#TITLETRANSLIT:;
#SUBTITLETRANSLIT:;
#ARTISTTRANSLIT:;
#GENRE:;
#CREDIT:;
#MUSIC:Make Me Your Own.ogg;
#BANNER:banner.png;
#BACKGROUND:bg.png;
#JACKET:jacket.png;
#DISCIMAGE:;
#CDIMAGE:;
#SELECTABLE:YES;
#LYRICSPATH:;
#CDTITLE:cdtitle.png;
#SAMPLESTART:55.664;
#SAMPLELENGTH:15.260;
#OFFSET:1.451;
#BPMS:0.000000=130.000000;
#STOPS:;
#WARPS:;
#DELAYS:;
#SPEEDS:;
#SCROLLS:;
#TICKCOUNTS:;
#TIMESIGNATURES:;
#LABELS:;
#COMBOS:;
#FAKES:;
#BGCHANGES:;
#FGCHANGES:;
#ATTACKS:;

//---------------dance-single - ---------------
#NOTEDATA:;
#CHARTNAME:;
#CHARTSTYLE:;
#CREDIT:Pandemonium X;
#STEPSTYPE:dance-single;
#DESCRIPTION:;
#DIFFICULTY:Hard;
#METER:13;
#METERF:13;
#RADARVALUES:0,0,0,0,0;
#NOTES:
// measure 0
0000
0000
0000
0000
,  // measure 1
0000
0000
0000
0000
,  // measure 2
0000
0000
0000
0000
,  // measure 3
1000
0100
0010
0001
0000
0000
1010
0000
,  // measure 4
1000
0000
0001
0000
0100
0000
0001
0000
0010
0100
0010
0001
0000
0000
0010
0000
,  // measure 5
0001
0100
0010
1000
0000
0000
0101
0000
,  // measure 6
0100
0001
0100
0000
0001
1000
0001
0000
1000
0100
1000
0100
0010
0001
0010
0001
,  // measure 7
1000
0100
0010
0001
0000
0000
1100
0000
,  // measure 8
0100
1000
0100
0010
0100
0010
0001
1000
0010
0000
0100
0010
0000
0010
1000
0000
,  // measure 9
0100
0010
0001
1000
0000
0000
1001
1001
,  // measure 10
1000
0100
0000
0100
0010
0000
0010
0001
0000
0001
1000
0000
0010
0000
0100
0000
,  // measure 11
0020
0000
0000
2000
0000
0000
3030
0000
,  // measure 12
0020
0000
0000
0200
0000
0000
0330
0000
,  // measure 13
2002
0000
0000
3003
,  // measure 14
0001
0100
0001
0000
1000
0100
1000
0000
0001
0100
0001
0100
0010
1000
0010
1000
,  // measure 15
0001
1000
0100
0010
0100
1000
0001
0100
,  // measure 16
0010
0000
1000
0000
0001
1000
0001
0010
,  // measure 17
0000
0001
1000
0010
0000
1000
0001
0010
,  // measure 18
0000
0001
0000
1000
0000
0100
0010
0011
,  // measure 19
1001
1000
0001
0000
0100
0001
1000
0000
,  // measure 20
0100
1000
0001
1000
0000
0001
1000
0100
,  // measure 21
0000
1000
0001
0100
0000
0001
1000
0100
,  // measure 22
0000
0010
0000
0100
0000
1000
0010
0100
,  // measure 23
0101
0000
0001
1000
0001
0010
0100
0010
,  // measure 24
0001
0000
1000
0000
0001
0100
0010
1000
,  // measure 25
0000
0010
1000
0001
0000
0100
0001
1000
,  // measure 26
0000
0001
0000
0000
0110
0110
0110
0000
,  // measure 27
1001
0000
0001
0100
0010
1000
0100
0010
,  // measure 28
0001
0000
0010
0000
0001
0000
0100
0010
,  // measure 29
1000
0000
0010
0100
0001
0000
1000
0100
,  // measure 30
0010
0100
0010
0000
0100
1000
0000
1000
0010
0000
0010
0000
2000
0000
0000
0000
,  // measure 31
3001
0100
1000
0100
0001
0000
1001
0000
,  // measure 32
1000
0000
0100
0000
1000
0000
0100
0000
0010
0000
0000
0010
0000
0000
0001
0000
,  // measure 33
0000
0001
1000
0100
0010
0001
0000
0011
,  // measure 34
0000
1010
0000
0011
0000
1001
0000
0000
,  // measure 35
1000
0010
0001
0010
1000
0000
1001
0000
,  // measure 36
0001
0000
0010
0000
0001
0000
0010
0000
0100
0010
0000
0010
0000
0000
0100
0000
,  // measure 37
0000
0010
0001
1000
0001
1000
0000
0101
,  // measure 38
0000
1100
0000
0101
0000
1010
1001
0000
,  // measure 39
0001
0100
0010
1000
0100
0001
0100
0000
,  // measure 40
0010
0001
0010
0100
0010
1000
0010
0000
,  // measure 41
0001
0100
1000
0100
0010
1000
0001
1000
,  // measure 42
0001
0010
0000
0100
0010
0000
0001
0000
1000
0010
0000
0010
0100
0000
0001
0000
,  // measure 43
1000
0100
0000
1000
0100
0000
1000
0010
0000
0010
0100
0000
0001
0000
0000
0000
,  // measure 44
0100
0001
0000
0100
0001
0000
0010
0100
0000
0010
0001
0000
1000
0000
0000
0000
,  // measure 45
0101
0100
0010
0000
1010
0010
0100
0000
,  // measure 46
0001
0000
1000
0001
1000
0000
0100
0010
0100
0000
0010
0001
0010
0000
0001
0000
,  // measure 47
1000
0200
0000
0000
0310
0000
0010
0001
1000
0001
2000
0000
0000
0000
0000
0000
,  // measure 48
3000
0001
0100
0001
1000
0001
0200
0000
0000
0000
0000
0000
0310
1000
0001
1000
,  // measure 49
0100
0010
0001
0010
0100
1000
0001
0100
,  // measure 50
0001
0000
0001
0000
0001
0001
0000
0000
0001
0000
0100
0000
0010
0000
1000
0000
,  // measure 51
0001
1000
2100
0000
3001
0100
0001
1000
,  // measure 52
0100
0000
0010
0000
0001
0200
0000
0000
0310
0000
1000
0000
0001
0020
0000
0000
,  // measure 53
0000
0000
0031
0000
0010
0000
0100
0000
0010
0002
0000
0000
0103
0020
0000
0000
,  // measure 54
1030
0001
0000
0001
0100
0000
0100
0010
0000
0010
1000
0000
0100
0000
1000
0000
,  // measure 55
0001
0100
0010
1000
0000
0000
0101
0000
,  // measure 56
0001
0000
1000
0000
0010
0000
1000
0100
0000
0100
1000
0000
0001
0000
0000
0000
,  // measure 57
1000
0010
0100
0001
0000
0000
1010
0000
,  // measure 58
0010
1000
0010
0000
1000
0001
1000
0000
0001
0010
0001
0010
0100
1000
0100
1000
,  // measure 59
0001
0010
0100
1000
0000
0000
0011
0000
,  // measure 60
0020
0000
0000
0130
0010
0100
1000
0001
0100
0010
0100
0001
1000
0000
0001
0000
,  // measure 61
1000
0010
0100
0001
0000
0000
0101
1001
,  // measure 62
0001
0010
0000
0010
0100
0000
0100
0000
1000
0001
0000
0001
0100
0000
0010
0000
,  // measure 63
1000
0001
1000
0010
0000
0000
0000
0000
;

//---------------dance-single - ---------------
#NOTEDATA:;
#CHARTNAME:;
#CHARTSTYLE:;
#CREDIT:Pandemonium X;
#STEPSTYPE:dance-single;
#DESCRIPTION:;
#DIFFICULTY:Medium;
#METER:8;
#METERF:8;
#RADARVALUES:0,0,0,0,0;
#NOTES:
// measure 0
0000
0000
0000
0000
,  // measure 1
0000
0000
0000
0000
,  // measure 2
0000
0000
0000
0000
,  // measure 3
0001
0100
0010
1000
0000
0000
1001
0000
,  // measure 4
0001
1000
0100
1000
,  // measure 5
0001
1000
0100
0010
0000
0000
0011
0000
,  // measure 6
0101
0000
1010
0000
0010
1000
1001
0000
,  // measure 7
0001
0010
0100
1000
0000
0000
1001
0000
,  // measure 8
1000
0001
0100
0001
,  // measure 9
1000
0100
0010
0001
0000
0000
1001
1001
,  // measure 10
0002
1003
0020
0130
,  // measure 11
0002
0000
0000
0003
0000
0000
0000
0000
,  // measure 12
2000
0000
0000
3000
0000
0000
0000
0000
,  // measure 13
0220
0000
0000
0330
,  // measure 14
0002
0000
0000
0003
,  // measure 15
1000
0001
0010
0001
,  // measure 16
1000
0010
1000
0001
,  // measure 17
0100
0001
1000
0100
,  // measure 18
0010
0000
0100
0000
1000
0000
0001
0100
,  // measure 19
0010
0100
0001
1000
,  // measure 20
0100
0010
0100
1000
,  // measure 21
0001
1000
0010
1000
,  // measure 22
0001
0000
0100
0000
0001
0000
0010
0100
,  // measure 23
1000
0000
0100
0000
1000
0100
1000
0000
,  // measure 24
0100
0000
0010
0000
0001
0010
0001
0000
,  // measure 25
0010
0000
0100
0000
1000
0001
0100
0000
,  // measure 26
0001
0000
1000
0000
0010
0100
0110
0000
,  // measure 27
1001
0000
1000
0000
0001
0010
0001
0000
,  // measure 28
0010
0000
0001
0000
0100
0010
0100
0000
,  // measure 29
0020
1030
0020
0130
,  // measure 30
0010
0100
0001
1000
,  // measure 31
0001
0100
0010
1000
0000
0000
0011
0000
,  // measure 32
0010
0000
0001
0001
0001
0000
1000
0000
,  // measure 33
0001
0100
0001
0000
1000
0100
1000
0000
,  // measure 34
0100
1000
0010
0100
,  // measure 35
0010
0100
0001
1000
0000
0000
1001
0000
,  // measure 36
1000
0000
0100
0000
1000
1000
1000
0000
,  // measure 37
0001
1000
0010
1000
,  // measure 38
1001
0011
1001
1010
,  // measure 39
1000
0000
0001
0000
0100
0001
0100
0000
,  // measure 40
0001
0000
1000
0000
0100
0100
0100
0000
,  // measure 41
1000
0000
0001
0000
1000
0010
1000
0000
,  // measure 42
0010
0000
0100
0000
0001
0001
0001
0000
,  // measure 43
1000
0000
0100
0000
0010
0001
0010
0000
,  // measure 44
0001
0000
0100
0000
0010
1000
0010
0000
,  // measure 45
1000
0000
0001
0000
0010
0100
0010
0000
,  // measure 46
0001
0000
0100
0000
0010
1000
0010
0000
,  // measure 47
1000
0000
0001
0000
0010
0100
0000
0000
,  // measure 48
0000
0010
0001
1000
0000
0000
0001
1000
,  // measure 49
0001
0100
0001
1000
,  // measure 50
0001
0000
1000
0000
0001
1000
0000
0000
1000
0000
0100
0000
0010
0000
0001
0000
,  // measure 51
1000
0000
1010
0000
1000
0010
0100
0000
,  // measure 52
0010
0000
0100
0000
0001
0010
0100
0000
,  // measure 53
0010
0000
0001
0000
1000
0001
0100
0000
,  // measure 54
0002
0103
0020
1030
,  // measure 55
0010
0100
0001
1000
0000
0000
1001
0000
,  // measure 56
1000
0000
0100
0000
1000
1000
0001
0000
,  // measure 57
0100
0001
1000
0100
0000
0000
0011
0000
,  // measure 58
0010
0000
0001
0000
0010
0010
0001
0000
,  // measure 59
0010
0100
1000
0001
0000
0000
1001
0000
,  // measure 60
1000
0000
0001
0100
0001
0100
0001
0000
,  // measure 61
0100
0010
1000
0001
0000
0000
1001
1001
,  // measure 62
2000
3001
0200
0310
,  // measure 63
1000
0100
0010
0001
0000
0000
0000
0000
;

//---------------dance-single - ---------------
#NOTEDATA:;
#CHARTNAME:;
#CHARTSTYLE:;
#CREDIT:Pandemonium X;
#STEPSTYPE:dance-single;
#DESCRIPTION:;
#DIFFICULTY:Easy;
#METER:5;
#METERF:5;
#RADARVALUES:0,0,0,0,0;
#NOTES:
// measure 0
0000
0000
0000
0000
,  // measure 1
0000
0000
0000
0000
,  // measure 2
0000
0000
0000
0000
,  // measure 3
0001
1000
0001
0000
,  // measure 4
1000
0000
0001
0000
,  // measure 5
0100
0010
0100
0000
,  // measure 6
0010
0010
0100
0100
,  // measure 7
0001
1000
0001
0000
,  // measure 8
1000
0000
0001
0000
,  // measure 9
0010
0100
0010
0100
,  // measure 10
1000
0100
0010
0001
,  // measure 11
1001
0000
0000
0000
,  // measure 12
0000
0000
0000
0000
,  // measure 13
0110
0000
0000
0000
,  // measure 14
0002
0000
0000
0003
,  // measure 15
1000
0001
0100
0000
,  // measure 16
0001
1000
0010
0000
,  // measure 17
1000
0000
0001
0000
,  // measure 18
1000
0001
0010
0100
,  // measure 19
1001
1000
0001
0000
,  // measure 20
0010
0001
1000
0000
,  // measure 21
0010
0000
1000
0000
,  // measure 22
0100
0010
0100
1000
,  // measure 23
1001
0001
0100
0001
,  // measure 24
2000
0000
3000
0000
,  // measure 25
0001
0000
1000
0000
,  // measure 26
0100
0000
0000
0000
1000
0010
1000
0000
,  // measure 27
0010
0100
0001
0010
,  // measure 28
0200
0000
0300
0000
,  // measure 29
0010
0000
0001
0000
,  // measure 30
2000
0000
0000
3000
,  // measure 31
0001
1000
0010
0110
,  // measure 32
0200
0300
0000
0000
,  // measure 33
0010
0000
1000
0000
,  // measure 34
0001
0001
0001
0000
,  // measure 35
1000
0100
0010
0110
,  // measure 36
0020
0000
0030
0000
,  // measure 37
0001
0000
1000
0000
,  // measure 38
0001
0001
1000
1000
,  // measure 39
0001
0100
0001
0100
,  // measure 40
0010
1000
0010
0010
,  // measure 41
1000
0001
1000
1000
,  // measure 42
0001
0010
0100
1000
,  // measure 43
0100
0100
1000
0001
,  // measure 44
0100
0100
0001
1000
,  // measure 45
0010
1000
0001
0010
,  // measure 46
0001
0100
0010
1000
,  // measure 47
0001
1000
0200
0000
,  // measure 48
0300
0020
0000
0030
,  // measure 49
0001
0000
1000
0000
,  // measure 50
0010
0010
0100
0100
,  // measure 51
0110
1001
0001
1000
,  // measure 52
0100
1000
0001
0100
,  // measure 53
0000
0001
1000
0100
,  // measure 54
0020
0000
0000
0030
,  // measure 55
0100
0100
0100
0000
,  // measure 56
0010
0000
0001
0000
,  // measure 57
0100
0100
0100
0000
,  // measure 58
0010
0000
0100
0000
,  // measure 59
0010
0010
0010
0000
,  // measure 60
0100
0000
0001
0000
,  // measure 61
0010
0010
0010
0000
,  // measure 62
0100
0000
1000
0000
,  // measure 63
0020
0000
0000
0030
0000
0000
0000
0000
;

//---------------dance-single - ---------------
#NOTEDATA:;
#CHARTNAME:;
#CHARTSTYLE:;
#CREDIT:Pandemonium X;
#STEPSTYPE:dance-single;
#DESCRIPTION:;
#DIFFICULTY:Beginner;
#METER:3;
#METERF:3;
#RADARVALUES:0,0,0,0,0;
#NOTES:
// measure 0
0000
0000
0000
0000
,  // measure 1
0000
0000
0000
0000
,  // measure 2
0000
0000
0000
0000
,  // measure 3
0001
0000
0000
0000
,  // measure 4
1000
0000
0000
0000
,  // measure 5
0001
0000
0000
0000
,  // measure 6
1000
0000
0001
0000
,  // measure 7
1000
0000
0000
0000
,  // measure 8
0001
0000
0000
0000
,  // measure 9
1000
0000
0000
0000
,  // measure 10
0010
0000
0100
0000
,  // measure 11
0002
0000
0000
0003
,  // measure 12
2000
0000
0000
3000
,  // measure 13
0110
0000
0000
0000
,  // measure 14
1000
0000
0000
0000
,  // measure 15
0001
0000
0000
0000
,  // measure 16
1000
0000
0000
0000
,  // measure 17
0100
0000
0000
0000
,  // measure 18
0010
0000
0001
0000
,  // measure 19
1000
0000
0000
0000
,  // measure 20
0001
0000
0000
0000
,  // measure 21
0100
0000
0000
0000
,  // measure 22
0010
0000
0100
0000
,  // measure 23
0001
0000
1000
0000
,  // measure 24
0200
0000
0300
0000
,  // measure 25
1000
0000
0001
0000
,  // measure 26
0100
0000
0010
0010
,  // measure 27
1001
0000
0000
0000
,  // measure 28
0001
0000
0000
0000
,  // measure 29
1000
0000
0001
0000
,  // measure 30
0020
0000
0000
0030
,  // measure 31
0100
0100
0100
0000
,  // measure 32
0010
0000
0000
0000
,  // measure 33
0001
0000
1000
0000
,  // measure 34
0100
0100
0100
0000
,  // measure 35
0010
0010
0010
0000
,  // measure 36
0001
0000
0000
0000
,  // measure 37
1000
0000
0001
0000
,  // measure 38
0100
0100
0100
0000
,  // measure 39
0010
0000
0000
0000
,  // measure 40
0100
0000
0000
0000
,  // measure 41
0001
0000
0000
0000
,  // measure 42
1000
0000
0001
0000
,  // measure 43
1000
0000
0000
0000
,  // measure 44
0001
0000
0000
0000
,  // measure 45
0100
0000
0010
0000
,  // measure 46
0100
0100
0100
0000
,  // measure 47
0010
0000
1000
0000
,  // measure 48
0000
0001
0000
1000
,  // measure 49
0001
0000
1000
0000
,  // measure 50
0010
0000
0010
0010
,  // measure 51
0110
0000
0100
0000
,  // measure 52
0010
0000
1000
0000
,  // measure 53
0000
0001
1000
0000
,  // measure 54
0200
0000
0000
0300
,  // measure 55
0010
0010
0010
0000
,  // measure 56
0100
0000
0000
0000
,  // measure 57
1000
1000
1000
0000
,  // measure 58
0001
0000
0000
0000
,  // measure 59
0100
0100
0100
0000
,  // measure 60
0010
0000
0000
0000
,  // measure 61
0100
0100
0100
0000
,  // measure 62
0020
0000
0000
0030
,  // measure 63
1001
0000
0000
0000
;

//---------------dance-double - ---------------
#NOTEDATA:;
#CHARTNAME:;
#CHARTSTYLE:;
#CREDIT:Pandemonium X;
#STEPSTYPE:dance-double;
#DESCRIPTION:;
#DIFFICULTY:Hard;
#METER:13;
#METERF:13;
#RADARVALUES:0,0,0,0,0;
#NOTES:
// measure 0
00000000
00000000
00000000
00000000
,  // measure 1
00000000
00000000
00000000
00000000
,  // measure 2
00000000
00000000
00000000
00000000
,  // measure 3
00100000
00001000
00010000
00000020
00000000
00000000
00000130
00000000
,  // measure 4
00000010
00000000
00000100
00000000
00001000
00000000
00000100
00000000
00000001
00001000
00000100
00000020
00000000
00000000
00000000
00000000
,  // measure 5
00000130
00001000
00000100
00020000
00000000
00000000
00031000
00000000
,  // measure 6
00001000
00000000
01000000
00001000
00010000
00000000
00001000
00000000
01000000
00100000
01000000
00100000
01000000
00000000
00010000
00000000
,  // measure 7
10000000
01000000
10000000
00200000
00000000
00000000
01300000
00000000
,  // measure 8
00100000
00010000
00100000
01000000
00001000
00010000
00000100
00001000
,  // measure 9
00000010
00010000
00001000
00200000
00000000
00000000
00010000
00310000
,  // measure 10
00100000
00001000
00000000
00001000
00010000
00000000
00010000
00000010
00000000
00000010
00000100
00000000
00001000
00000000
00000100
00000000
,  // measure 11
00000002
00000000
00000000
00002000
00000000
00000000
00003003
00000000
,  // measure 12
00002000
00000000
00000000
00000002
00000000
00000000
00003003
00000000
,  // measure 13
00000220
00000000
00000000
00000330
,  // measure 14
00000001
00000100
00000001
00000000
00000100
00000001
00000100
00000000
00000001
00000000
00001000
00000010
00001000
00000010
00001000
00000010
,  // measure 15
00001000
00000010
00010000
00000000
00001000
00100000
00010000
10000000
,  // measure 16
00010000
00000000
00100000
00000000
00100000
00010000
00100000
10000000
,  // measure 17
00000000
10000000
00100000
00010000
00000000
00010000
00100000
10000000
,  // measure 18
00000000
00100000
00000000
00010000
00000000
00100000
00001000
00011000
,  // measure 19
00001100
00001000
00000010
00000100
00001000
00000100
00000001
00001000
,  // measure 20
00000001
00000000
00000010
00000000
00000001
00001000
00000100
00000001
,  // measure 21
00000000
00000001
00000100
00001000
00000000
00001000
00000100
00000001
,  // measure 22
00000000
00000100
00000000
00001000
00000000
00001000
00000100
00000010
,  // measure 23
00001001
00000000
00000001
00000100
00000010
00010000
00001000
00020000
,  // measure 24
00000000
00000000
00030000
00000000
00000000
00001000
01000000
00010000
,  // measure 25
00000000
01000000
00001000
00010000
00000000
00001000
00010000
00000100
,  // measure 26
00000000
00001000
00000000
00000000
00000011
00001100
00000012
00000000
,  // measure 27
00000103
00000000
00000010
00000100
00000001
00001000
00000100
00000020
,  // measure 28
00000000
00000000
00000030
00000000
00000000
00000100
00000010
00000001
,  // measure 29
00000000
00000100
00000010
00001000
00000000
00000010
00010000
00001000
,  // measure 30
01000000
00001000
01000000
00000000
01000000
00100000
00000000
00100000
10000000
00000000
10100000
00000000
01020000
00000000
00000000
00000000
,  // measure 31
10030000
01000000
00100000
00010000
00100000
00000000
00011000
00000000
,  // measure 32
00010000
00000000
00000100
00000000
00001000
00000000
00000010
00000000
00001020
00000000
00000000
00000130
00000000
00000000
00000010
00000000
,  // measure 33
00000000
00000001
00000010
00000100
00000001
00001000
00000000
00001100
,  // measure 34
00000000
00011000
00000000
01001000
00000000
01100000
00000000
00000000
,  // measure 35
00100000
01000000
00010000
10000000
00000000
00000000
00110000
00000000
,  // measure 36
00100000
00000000
00001000
00000000
00010000
00000000
00000010
00000000
00001000
00000001
00000000
00001000
00000000
00000000
00000001
00000000
,  // measure 37
00000000
00000010
00000001
00000100
00000001
00001000
00000000
00001100
,  // measure 38
00000000
00000011
00000000
00001100
00000000
00000110
00001001
00000000
,  // measure 39
00000001
00000100
00000001
00001000
00000100
00010000
00001000
00000000
,  // measure 40
00010000
00000000
00001000
01000000
00010000
00000000
00010000
00000000
10000000
00000000
01000000
00000000
11000000
00000000
00000000
00000000
,  // measure 41
10000000
01000000
10000000
00010000
01000000
00001000
00010000
00000100
,  // measure 42
00001000
00000100
00000000
00001000
00000001
00000000
00000100
00000000
00000001
00000010
00000000
00000010
00000100
00000000
00000000
00000000
,  // measure 43
00000010
00000001
00000000
00000001
00000100
00000000
00000100
00000010
00000000
00000010
00010000
00000000
00011000
00000000
00000000
00000000
,  // measure 44
00001000
01000000
00000000
01000000
00100000
00000000
00100000
10000000
00000000
10000000
00010000
00000000
10010000
00000000
00000000
00000000
,  // measure 45
10000000
01000000
00100000
01000000
10000000
00010000
01000000
00010000
,  // measure 46
10000000
00100000
10000000
00000000
00010000
01000000
00010000
00000000
00100000
00010000
00100000
00010000
00100000
00010000
00100000
00010000
,  // measure 47
00100000
00002000
00000000
00000000
00013000
00000000
00000100
00010000
00001000
00010000
00000200
00000000
00000000
00000000
00000000
00000000
,  // measure 48
00000300
00001000
00000100
00001000
00000001
00001000
00000200
00000000
00000000
00000000
00000000
00000000
00000310
00000000
00000001
00000000
,  // measure 49
00001000
00000010
00001000
00000100
00010000
00001000
01000000
00010000
,  // measure 50
10000000
00000000
10000000
00000000
10000000
10000000
00000000
00000000
10000000
00000000
01000000
00000000
00100000
00000000
00010000
00000000
,  // measure 51
00100000
01000000
10010000
00010000
01000000
00001000
00010000
00000100
,  // measure 52
00001000
00000000
00000010
00000000
00000100
00000002
00000000
00000000
00000013
00000000
00001000
00000000
00000010
00000002
00000000
00000000
,  // measure 53
00000000
00000000
00001003
00000000
00000001
00000000
00000100
00000000
00000010
00002000
00000000
00000000
00003100
00020000
00000000
00000000
,  // measure 54
00031000
00100000
00001000
00000000
00100000
00010000
00100000
00000000
01000000
10000000
01000000
00000000
10000000
00000000
10000000
00000000
,  // measure 55
00010000
01000000
10000000
01000000
00010000
00000000
00110000
00000000
,  // measure 56
00100000
00000000
00001000
00000000
00010000
00000000
00000100
00001000
00000000
00001000
00000010
00000000
00000100
00000000
00000000
00000000
,  // measure 57
00000010
00000001
00000010
00001000
00000100
00000000
00000011
00000000
,  // measure 58
00000001
00001000
00000001
00000000
00001000
00000100
00001000
00000000
00000100
00010000
00000100
00010000
00000100
00000000
00010000
00000000
,  // measure 59
00001000
00100000
10000000
00100000
00010000
00000000
11000000
00000000
,  // measure 60
10020000
00000000
00000000
00130000
00010000
00000000
10000000
00000000
01000000
00000000
00100000
00000000
00010000
00000000
10000000
00000000
,  // measure 61
00100000
00010000
00100000
10000000
00010000
00000000
10010000
10010000
,  // measure 62
00010000
01000000
00000000
01000000
00001000
00000000
00001000
00000000
00010000
00000100
00000000
00000100
00001000
00000000
00001000
00000000
,  // measure 63
00000100
00010000
00001000
01000000
00000000
00000000
00000000
00000000
;

//---------------dance-double - ---------------
#NOTEDATA:;
#CHARTNAME:;
#CHARTSTYLE:;
#CREDIT:Pandemonium X;
#STEPSTYPE:dance-double;
#DESCRIPTION:;
#DIFFICULTY:Medium;
#METER:9;
#METERF:9;
#RADARVALUES:0,0,0,0,0;
#NOTES:
// measure 0
00000000
00000000
00000000
00000000
,  // measure 1
00000000
00000000
00000000
00000000
,  // measure 2
00000000
00000000
00000000
00000000
,  // measure 3
00100000
00010000
00100000
00010000
00000000
00000000
11000000
00000000
,  // measure 4
01000000
10000000
00100000
01000000
,  // measure 5
00010000
01000000
00010000
01000000
00000000
00000000
01010000
00000000
,  // measure 6
00020000
00130000
00200000
00301000
,  // measure 7
00010000
00000100
00010000
00000100
00000000
00000000
00001100
00000000
,  // measure 8
00001000
00000010
00000100
00000001
,  // measure 9
00001000
00000010
00001000
00000010
00000000
00000000
00001010
00001010
,  // measure 10
00000020
00000130
00000002
00001003
,  // measure 11
00000200
00000000
00000000
00020000
00000000
00000000
00030300
00000000
,  // measure 12
00020000
00000000
00000000
00002000
00000000
00000000
00033000
00000000
,  // measure 13
00011000
00000000
00000000
00000000
,  // measure 14
00001000
00001000
01000000
01000000
00100000
00010000
00100000
10000000
,  // measure 15
00010000
10000000
01000000
10000000
,  // measure 16
00010000
01000000
00010000
00100000
,  // measure 17
00001000
00010000
00001000
00010000
,  // measure 18
00000100
00000000
00001000
00000000
00000010
00000000
00000100
00000001
,  // measure 19
00001000
00000001
00000010
00000001
,  // measure 20
00000100
00000010
00001000
00000010
,  // measure 21
00001000
00000100
00010000
00000100
,  // measure 22
00010000
00001000
01000000
00010000
,  // measure 23
10010000
10000000
01000000
00100000
,  // measure 24
00002000
00000000
00003000
00010000
,  // measure 25
00000100
00001000
00000010
00000100
,  // measure 26
00000001
00000000
00001000
00000000
00000001
00001000
00001001
00000000
,  // measure 27
00000101
00000001
00000100
00000010
,  // measure 28
00000100
00000010
00001000
00000100
,  // measure 29
00010000
00001000
01000000
00010000
,  // measure 30
00200000
01300000
02000000
13000000
,  // measure 31
01000000
00100000
00001000
00020000
00000000
00000000
00031000
00000000
,  // measure 32
00010000
00000000
00000000
00000000
00000100
00000000
00000000
00000000
00001000
00000000
00000000
00001000
00000000
00000000
00000000
00000000
,  // measure 33
00000010
00000100
00000001
00001000
,  // measure 34
00001100
00000011
00001001
00000000
,  // measure 35
00000001
00000100
00000010
00020000
00000000
00000000
00031000
00000000
,  // measure 36
00010000
00000000
00000000
00000000
00001000
00000000
00000000
00000000
00100000
00000000
00000000
00100000
00000000
00000000
00000000
00000000
,  // measure 37
00010000
00100000
01000000
10000000
,  // measure 38
10100000
00000000
01010000
00000000
10010000
00010000
01000000
00000000
,  // measure 39
00100000
00000000
10000000
00000000
01000000
00100000
00010000
00000000
,  // measure 40
00100000
00000000
00001000
00000000
00010000
00000010
00000100
00000000
,  // measure 41
00000001
00000000
00000010
00000000
00000001
00001000
00000100
00000000
,  // measure 42
00000010
00000011
00000001
00000101
,  // measure 43
00000100
00000000
00000010
00000000
00001000
00000100
00010000
00000000
,  // measure 44
00001000
00000000
01000000
00000000
00010000
10000000
01000000
00000000
,  // measure 45
00100000
00001000
00010000
00000010
,  // measure 46
00000100
00000001
00001000
00000100
,  // measure 47
00020000
00000000
00032000
00000000
01003000
00020000
00000000
00000000
,  // measure 48
00000000
00130000
10000000
00200000
00000000
00000000
00310000
01000000
,  // measure 49
00100000
10000000
00010000
00100000
,  // measure 50
00001000
00000000
00010000
00000000
00001000
00010000
00000000
00000000
00001000
00000000
00010000
00000000
00001000
00000000
00010000
00000000
,  // measure 51
00000100
00000000
00001100
00000000
00001000
00000010
00000100
00000000
,  // measure 52
00000001
00000000
00001000
00000000
00000001
00000010
00000200
00000000
,  // measure 53
00000000
00001300
00000100
00000010
00000001
00000000
00001000
00000000
,  // measure 54
00000020
00001030
00002000
00003100
,  // measure 55
00001000
00000010
00010000
00002000
00000000
00000000
00013000
00000000
,  // measure 56
00001000
00000000
01000000
00000000
00010000
10000000
01000000
00000000
,  // measure 57
00100000
00001000
00010000
00000020
00000000
00000000
00000130
00000000
,  // measure 58
00000100
00001000
00000100
00000001
00000100
00001000
00000100
00000001
,  // measure 59
00001000
00000100
00000010
00000002
00000000
00000000
00000013
00000000
,  // measure 60
00000001
00000000
00000000
00000001
00000100
00000000
00000010
00000000
00001000
00000000
00000001
00000000
00000010
00000000
00000000
00000000
,  // measure 61
00000100
00000010
00000001
00002000
00000000
00000000
00000100
00003100
,  // measure 62
00001000
00000100
00000000
00001000
00000100
00000000
00010000
00000000
00001000
00010000
00000000
00001000
00010000
00000000
00001000
00000000
,  // measure 63
02000000
00000000
00000000
00000000
00000000
00000000
00000000
03000000
00000000
00000000
00000000
00000000
00000000
00000000
00000000
00000000
;

//---------------dance-double - ---------------
#NOTEDATA:;
#CHARTNAME:;
#CHARTSTYLE:;
#CREDIT:Pandemonium X;
#STEPSTYPE:dance-double;
#DESCRIPTION:;
#DIFFICULTY:Easy;
#METER:6;
#METERF:6;
#RADARVALUES:0,0,0,0,0;
#NOTES:
// measure 0
00000000
00000000
00000000
00000000
,  // measure 1
00000000
00000000
00000000
00000000
,  // measure 2
00000000
00000000
00000000
00000000
,  // measure 3
10000000
00010000
01000000
00000000
,  // measure 4
00010000
00100000
00010000
00010000
,  // measure 5
00100000
00001000
00010000
00000000
,  // measure 6
00000100
00000100
00001000
00001000
,  // measure 7
00000001
00001000
00000001
00000000
,  // measure 8
00000100
00000010
00001000
00000001
,  // measure 9
00001000
00000100
00001000
00000000
,  // measure 10
00000100
00010000
00001000
01000000
,  // measure 11
00020000
00000000
00000000
00030000
,  // measure 12
20000000
00000000
00000000
30000000
,  // measure 13
02200000
00000000
00000000
03300000
,  // measure 14
00010000
10000000
00010000
10000000
,  // measure 15
00010000
00000000
00100000
00000000
,  // measure 16
00001000
00010000
00001000
00000000
,  // measure 17
00010000
00000000
00000100
00000000
,  // measure 18
00001000
00000010
00000100
00000001
,  // measure 19
00000100
00000000
00000001
00000000
,  // measure 20
00001000
00000100
00001000
00000000
,  // measure 21
00000010
00000000
00010000
00000000
,  // measure 22
00001000
00100000
00001000
00010000
,  // measure 23
00000100
00001000
00000010
00010000
,  // measure 24
00002000
00000000
00003000
00000000
,  // measure 25
00010000
00000000
00001000
00000000
,  // measure 26
01000000
00000000
00000000
00000000
00100000
00100000
00100000
00000000
,  // measure 27
01000000
00010000
10000000
01000000
,  // measure 28
00200000
00000000
00300000
00000000
,  // measure 29
01000000
00000000
10000000
00000000
,  // measure 30
00010000
10000000
00100000
01000000
,  // measure 31
00010000
00100000
01000000
11000000
,  // measure 32
20000000
00000000
30000000
00000000
,  // measure 33
01000000
00000000
00100000
00000000
,  // measure 34
00001000
00010000
00000100
00001000
,  // measure 35
00000010
00000100
00000001
00000101
,  // measure 36
00000200
00000000
00000300
00000000
,  // measure 37
00000010
00000000
00000100
00000000
,  // measure 38
00000010
00000100
00000001
00001000
,  // measure 39
00000100
00010000
00001000
00001000
,  // measure 40
00010000
00001000
00100000
00100000
,  // measure 41
00010000
10000000
00100000
10000000
,  // measure 42
00010000
01000000
00001000
00010000
,  // measure 43
00000100
00001000
00000010
00000010
,  // measure 44
00000100
00000001
00001000
00001000
,  // measure 45
00000100
00000010
00000001
00000100
,  // measure 46
00000010
00001000
00000100
00010000
,  // measure 47
00001000
01000000
00020000
00000000
,  // measure 48
00030000
20000000
00000000
30010000
,  // measure 49
10000000
01000000
00100000
00010000
,  // measure 50
00100000
00100000
00001000
00001000
,  // measure 51
00010000
00011000
00001000
00010000
,  // measure 52
00000100
00020000
00031000
02000000
,  // measure 53
00000000
03010000
20000000
00000000
,  // measure 54
30010000
10000000
01000000
00100000
,  // measure 55
00010000
00010000
00010000
11000000
,  // measure 56
10000000
00010000
01000000
00010000
,  // measure 57
00100000
00100000
00100000
00110000
,  // measure 58
00100000
00001000
00010000
00000010
,  // measure 59
00000100
00000100
00000100
00001001
,  // measure 60
00000001
00000100
00000010
00001000
,  // measure 61
00000100
00000100
00000100
00001100
,  // measure 62
00001000
00000100
00000010
00000001
,  // measure 63
00000200
00000000
00000300
00000000
;
