#VERSION:0.83;
#TITLE:MY FUTURE;
#SUBTITLE:;
#ARTIST:PINK PONG;
#TITLETRANSLIT:;
#SUBTITLETRANSLIT:;
#ARTISTTRANSLIT:;
#GENRE:;
#CREDIT:;
#MUSIC:MY FUTURE.ogg;
#BANNER:banner.png;
#BACKGROUND:background.png;
#JACKET:jacket.png;
#DISCIMAGE:;
#CDIMAGE:;
#SELECTABLE:YES;
#LYRICSPATH:;
#CDTITLE:cdtitle.png;
#SAMPLESTART:52.319;
#SAMPLELENGTH:15.579;
#OFFSET:1.195;
#BPMS:0.000000=148.000000,
168.000000=74.000000,
184.000000=148.000000
;
#STOPS:;
#WARPS:;
#DELAYS:;
#SPEEDS:;
#SCROLLS:;
#TICKCOUNTS:;
#TIMESIGNATURES:;
#LABELS:;
#COMBOS:;
#FAKES:;
#BGCHANGES:;
#FGCHANGES:;
#ATTACKS:;

//---------------dance-single - ---------------
#NOTEDATA:;
#CHARTNAME:;
#CHARTSTYLE:;
#CREDIT:Pandemonium X;
#STEPSTYPE:dance-single;
#DESCRIPTION:;
#DIFFICULTY:Beginner;
#METER:4;
#METERF:4;
#RADARVALUES:0,0,0,0,0;
#NOTES:
// measure 0
0000
0000
0000
0000
,  // measure 1
0000
0000
0000
0000
,  // measure 2
0000
0000
0000
0000
,  // measure 3
0000
0000
0000
0000
,  // measure 4
0000
0000
0000
0000
,  // measure 5
0001
0000
1000
0000
,  // measure 6
0001
0000
1000
0000
,  // measure 7
0001
1000
0001
1000
,  // measure 8
0002
0000
0000
0003
,  // measure 9
0100
0000
0000
0010
,  // measure 10
1000
0000
0000
0100
,  // measure 11
0010
0000
0000
0001
,  // measure 12
1000
0000
0000
0010
,  // measure 13
1000
0000
0000
0001
,  // measure 14
0010
0000
0000
0100
,  // measure 15
1000
0000
0000
0100
,  // measure 16
0020
0000
0000
0030
,  // measure 17
0001
0000
0001
0000
,  // measure 18
1000
0000
1000
0000
,  // measure 19
0010
0000
0010
0000
,  // measure 20
0100
0000
0010
0000
,  // measure 21
1000
0000
1000
0000
,  // measure 22
0001
0000
0001
0000
,  // measure 23
0010
0000
0010
0000
,  // measure 24
0100
0010
0001
1000
,  // measure 25
0010
0000
1000
0000
,  // measure 26
0001
0000
0000
0000
,  // measure 27
1000
0000
0001
0000
,  // measure 28
0010
0000
0000
0000
,  // measure 29
0110
0000
0000
0000
,  // measure 30
1001
0000
0000
0000
,  // measure 31
0110
0000
1001
0000
,  // measure 32
0110
0000
0000
0000
,  // measure 33
1000
1000
0000
0000
,  // measure 34
0001
0001
0000
0000
,  // measure 35
0100
0100
0000
0000
,  // measure 36
0010
0010
0000
0000
,  // measure 37
0100
0000
0000
0001
0000
0000
1000
0000
,  // measure 38
0001
0000
0000
1000
0000
0000
0100
0000
,  // measure 39
0010
0000
0010
0000
,  // measure 40
0100
0010
0001
1000
,  // measure 41
0020
0000
0000
0000
,  // measure 42
0130
0000
0000
0001
,  // measure 43
1000
0100
0000
1000
,  // measure 44
0001
0100
0000
0001
,  // measure 45
1000
0000
0010
0000
0200
0000
0000
0300
,  // measure 46
0010
0000
1000
0000
,  // measure 47
0001
0000
0010
0100
,  // measure 48
0010
0000
0100
0000
,  // measure 49
0000
0000
1000
0000
,  // measure 50
0001
0000
0100
0000
,  // measure 51
0000
0000
0001
0000
,  // measure 52
1000
0000
0001
0000
,  // measure 53
1000
1000
0001
0001
,  // measure 54
0100
0000
0100
0000
,  // measure 55
0010
0000
0010
0000
,  // measure 56
1000
0000
1000
0000
,  // measure 57
0001
0000
0001
0000
,  // measure 58
0100
0000
0010
0000
,  // measure 59
2000
0000
0000
0000
,  // measure 60
0000
0000
0000
3000
,  // measure 61
1001
0000
0110
0000
,  // measure 62
0001
0001
0001
0000
,  // measure 63
1000
1000
1000
0000
,  // measure 64
0010
0010
0010
0000
,  // measure 65
0100
0000
0010
0000
,  // measure 66
0100
0100
0100
0000
,  // measure 67
0010
0000
1000
0000
,  // measure 68
0001
0000
1000
0000
,  // measure 69
0001
1000
0001
1000
,  // measure 70
0001
0000
1000
0000
,  // measure 71
0110
0000
0000
0000
;

//---------------dance-single - ---------------
#NOTEDATA:;
#CHARTNAME:;
#CHARTSTYLE:;
#CREDIT:Pandemonium X;
#STEPSTYPE:dance-single;
#DESCRIPTION:;
#DIFFICULTY:Easy;
#METER:6;
#METERF:6;
#RADARVALUES:0,0,0,0,0;
#NOTES:
// measure 0
0000
0000
0000
0000
,  // measure 1
0000
0000
0000
0000
,  // measure 2
0000
0000
0000
0000
,  // measure 3
0000
0000
0000
0000
,  // measure 4
0000
0000
0000
0000
,  // measure 5
2000
3000
0002
0003
,  // measure 6
0200
0300
0020
0030
,  // measure 7
2000
3020
0230
0302
,  // measure 8
0023
0000
0000
0000
,  // measure 9
0130
1000
0010
0100
,  // measure 10
0001
0010
0001
0100
,  // measure 11
0010
1000
0001
0010
,  // measure 12
0001
1000
0100
1000
,  // measure 13
0001
0001
1000
0010
,  // measure 14
1000
1000
0010
0100
,  // measure 15
0010
0010
0100
0100
,  // measure 16
2002
0000
0000
3003
,  // measure 17
1000
0010
0000
0100
,  // measure 18
0000
0001
0000
0010
,  // measure 19
0000
0100
0000
1000
,  // measure 20
0000
0001
0000
1000
,  // measure 21
0000
0010
0000
0100
,  // measure 22
0000
0001
0000
0010
,  // measure 23
0000
0100
0000
1000
,  // measure 24
0000
0100
1000
0010
,  // measure 25
0100
0000
0001
0000
,  // measure 26
0010
0000
0100
1000
,  // measure 27
0100
0000
1000
0000
,  // measure 28
0001
0000
0100
0010
,  // measure 29
1001
0000
0000
0000
,  // measure 30
0110
0000
0000
0000
,  // measure 31
1001
0000
0110
0000
,  // measure 32
1001
0110
1001
0000
,  // measure 33
0001
0100
0000
0010
,  // measure 34
0100
0001
0000
1000
,  // measure 35
0100
0010
0000
0100
,  // measure 36
1000
0001
0000
0000
,  // measure 37
1000
0000
0000
1000
0000
0000
1000
0000
,  // measure 38
0001
0000
0000
0001
0000
0000
0001
0000
,  // measure 39
1000
0010
0100
0001
,  // measure 40
0010
1000
0010
0001
,  // measure 41
2000
3200
0320
0032
,  // measure 42
1003
0000
0000
0001
,  // measure 43
1000
0100
0000
0010
,  // measure 44
0100
0010
0000
0001
,  // measure 45
1000
0000
0001
0100
0020
0000
0000
0000
,  // measure 46
0130
0001
0000
1000
,  // measure 47
0000
0100
0000
0010
,  // measure 48
0100
0010
0000
0001
,  // measure 49
0000
1000
0000
0010
,  // measure 50
0100
0001
0000
1000
,  // measure 51
0000
0100
0000
1000
,  // measure 52
0001
0100
0010
1000
,  // measure 53
1001
0110
1001
0110
,  // measure 54
0001
0010
0001
0010
,  // measure 55
0100
1000
0100
1000
,  // measure 56
0010
1000
0010
1000
,  // measure 57
0001
0100
0001
0100
,  // measure 58
0010
0010
0100
0001
,  // measure 59
1000
1000
0100
0010
,  // measure 60
0001
0001
1000
1000
,  // measure 61
1002
0103
2001
3100
,  // measure 62
1001
1000
0001
0000
,  // measure 63
1000
0100
1000
0000
,  // measure 64
0010
1000
0010
0000
,  // measure 65
0100
0001
0100
0000
,  // measure 66
0001
1000
0010
0000
,  // measure 67
0100
0001
0010
0000
,  // measure 68
0100
0100
0010
0010
,  // measure 69
0001
0010
0100
1000
,  // measure 70
1001
0000
0110
0000
,  // measure 71
1001
0000
0000
0000
;

//---------------dance-single - ---------------
#NOTEDATA:;
#CHARTNAME:;
#CHARTSTYLE:;
#CREDIT:Pandemonium X;
#STEPSTYPE:dance-single;
#DESCRIPTION:;
#DIFFICULTY:Medium;
#METER:9;
#METERF:9;
#RADARVALUES:0,0,0,0,0;
#NOTES:
// measure 0
0000
0000
0000
0000
,  // measure 1
0000
0000
0000
0000
,  // measure 2
0000
0000
0000
0000
,  // measure 3
0000
0000
0000
0000
,  // measure 4
0000
0000
0000
0000
,  // measure 5
1001
0000
0101
0000
,  // measure 6
1001
0000
1100
0000
,  // measure 7
1001
1010
1001
0011
,  // measure 8
2002
0000
0000
3003
,  // measure 9
0001
0000
1000
0000
0010
0000
0100
0001
,  // measure 10
1000
0000
0001
0000
0010
0000
0100
1000
,  // measure 11
0001
0000
1000
0000
0010
0000
0100
0010
,  // measure 12
1000
0000
0001
0000
1000
0000
0100
0010
,  // measure 13
0001
0000
0010
0000
0001
0000
0100
0010
,  // measure 14
1000
0000
0001
0000
1000
0000
0100
0010
,  // measure 15
0001
0000
0010
0000
0100
0000
0010
0001
,  // measure 16
1000
0000
0010
0000
0100
0000
0001
1000
0000
1000
0001
0000
0100
0000
0000
0000
,  // measure 17
0010
1000
0010
1000
,  // measure 18
0001
0100
0001
0100
,  // measure 19
0001
0010
0001
0010
,  // measure 20
0100
0000
1000
0000
0100
0000
1000
0001
,  // measure 21
0100
0010
0100
0010
,  // measure 22
1000
0001
1000
0001
,  // measure 23
0010
0001
0010
0001
,  // measure 24
0010
0100
1000
0100
,  // measure 25
0010
0001
0100
0010
,  // measure 26
1000
0000
0001
0000
0010
0000
0100
1000
,  // measure 27
0001
0100
0010
1000
,  // measure 28
0010
0000
0100
0000
0001
0000
1000
0100
,  // measure 29
0010
0000
0000
0010
0000
0000
0010
0000
0000
0000
0000
0000
0000
0000
0000
0000
,  // measure 30
0100
0000
0000
0100
0000
0000
0100
0000
0000
0000
0000
0000
0000
0000
0000
0000
,  // measure 31
1000
0000
0000
1000
0000
0000
1000
0000
0001
0000
0000
0001
0000
0000
0001
0000
,  // measure 32
0100
0000
0000
0010
0000
0000
1000
0000
0001
0000
0000
0000
0110
0000
0000
0000
,  // measure 33
1000
0000
0100
0010
0000
0000
0100
0000
,  // measure 34
1000
0000
0001
0100
0000
0000
0010
0000
,  // measure 35
0100
0000
0001
1000
0000
0000
0100
0000
,  // measure 36
0010
0000
0100
1000
0000
0000
0100
0000
,  // measure 37
1000
0000
0000
1000
0000
0000
1000
0000
0000
1000
0000
0000
0001
0000
1000
0000
,  // measure 38
0001
0000
0000
0001
0000
0000
0001
0000
0000
0001
0000
0000
1000
0000
0001
0000
,  // measure 39
0100
0010
1000
0100
,  // measure 40
1000
0001
1000
0001
1000
0001
1000
0001
,  // measure 41
4000
0004
0000
0000
0000
0000
0000
0000
,  // measure 42
3003
0000
0000
0001
,  // measure 43
1001
0110
0000
1000
,  // measure 44
0110
0101
0000
1100
,  // measure 45
1001
0000
0000
0000
1001
0000
1000
0001
0200
0000
0000
0000
0000
0000
0000
0000
,  // measure 46
0310
0000
0100
0010
0100
0000
0010
1000
,  // measure 47
0010
0000
0000
0000
1000
0000
0100
0000
1000
0000
0000
0100
0000
0000
1000
0000
,  // measure 48
0001
0000
0100
0010
0100
0000
0010
1000
,  // measure 49
0010
0000
0000
0000
0100
0000
0010
0000
0100
0000
0000
0001
1000
0000
0001
0000
,  // measure 50
1000
0000
0100
0010
0100
0000
0010
0001
,  // measure 51
0010
0000
0001
0100
0001
0000
0100
0010
,  // measure 52
0100
0000
0000
0100
0000
0000
0010
0000
0000
0010
0000
0000
0100
0000
0001
0000
,  // measure 53
2000
3200
0320
0032
,  // measure 54
1003
0000
0001
0000
0100
0000
0010
1000
,  // measure 55
0010
0000
0100
0000
0001
0000
0010
0100
,  // measure 56
0010
0000
0001
0000
1000
0000
0100
1000
,  // measure 57
0100
0000
1000
0000
0001
0000
0100
0001
,  // measure 58
0100
0000
0010
0000
1000
0001
1000
0000
,  // measure 59
0002
0010
0100
1000
,  // measure 60
2003
0100
0010
0001
,  // measure 61
3010
0000
0000
0010
0000
0000
0010
0000
0100
0000
0000
0100
0000
0000
0100
0000
,  // measure 62
0001
0000
1000
0000
0100
0000
1000
0100
,  // measure 63
1000
0000
0001
0000
0100
0000
0001
1000
,  // measure 64
0001
0000
1000
0000
0010
0000
1000
0100
,  // measure 65
1000
0000
0001
0000
0010
0000
0001
1000
,  // measure 66
0001
0000
0100
0000
0010
0000
1000
0001
,  // measure 67
0010
0000
0100
0000
1000
0000
0001
1000
,  // measure 68
0000
0001
0000
1000
0000
0010
0000
0100
,  // measure 69
0001
0100
0010
1000
0001
0100
0010
1000
,  // measure 70
0001
0000
0000
0100
0000
0000
0010
0000
1000
0000
0000
0100
0000
0000
0010
0000
,  // measure 71
1001
0000
0000
0000
;

//---------------dance-single - ---------------
#NOTEDATA:;
#CHARTNAME:;
#CHARTSTYLE:;
#CREDIT:Pandemonium X;
#STEPSTYPE:dance-single;
#DESCRIPTION:;
#DIFFICULTY:Hard;
#METER:12;
#METERF:12;
#RADARVALUES:0,0,0,0,0;
#NOTES:
// measure 0
0000
0000
0000
0000
,  // measure 1
0000
0000
0000
0000
,  // measure 2
0000
0000
0000
0000
,  // measure 3
0000
0000
0000
0000
,  // measure 4
0000
0000
0000
0000
,  // measure 5
0002
0000
0200
0003
,  // measure 6
0020
0300
2000
0030
,  // measure 7
0002
3000
0200
0003
0020
0300
2030
0000
,  // measure 8
3001
1000
0001
1000
,  // measure 9
0001
0100
0000
0010
0000
0000
0100
0001
0000
1000
0000
0001
1000
0000
0100
0000
,  // measure 10
1000
0010
0000
0100
0000
0000
0010
1000
0000
0001
0000
1000
0001
0000
0010
0000
,  // measure 11
0001
0010
0000
0100
0000
0000
0010
0001
0000
1000
0000
0001
0100
0000
0001
0000
,  // measure 12
1000
0100
0000
0010
0000
0000
0100
1000
0000
0001
0000
1000
0010
0000
1000
0000
,  // measure 13
0001
0100
0000
0010
0000
0000
0100
0010
0000
1000
0000
0100
0010
0000
0001
0000
,  // measure 14
1000
0010
0000
0100
0000
0000
0010
0100
0000
0001
0000
0010
0100
0000
1000
0000
,  // measure 15
0001
0100
0000
0010
0000
0000
1000
0010
0000
0100
0000
0010
0100
0000
0001
0000
,  // measure 16
2000
0000
3200
0000
0320
0000
0031
0200
0000
0310
2000
0000
3100
0000
0000
0000
,  // measure 17
1001
0000
0000
0000
0001
0000
0100
0000
0000
0010
0000
0000
1000
0000
0000
0001
,  // measure 18
0000
0000
0000
0000
0001
0000
0100
0000
0000
0010
0000
0000
1000
0000
0000
0001
,  // measure 19
0000
0000
0000
0000
0001
0000
0100
0000
0000
0010
0000
0000
1000
0000
0000
0001
,  // measure 20
0000
0000
0000
0000
0001
0000
0010
0000
0000
0100
0000
0000
1000
0000
0000
0001
,  // measure 21
0000
0000
0000
0000
1000
0000
0100
0000
0000
0010
0000
0000
0001
0000
0000
1000
,  // measure 22
0000
0000
0000
0000
1000
0000
0100
0000
0000
0010
0000
0000
0001
0000
0000
1000
,  // measure 23
0000
0000
0000
0000
1000
0000
0100
0000
0000
0010
0000
0000
0001
0000
0000
1000
,  // measure 24
0000
1000
0100
0100
0010
0010
0001
0001
,  // measure 25
1000
0000
0010
0000
0000
0000
0100
0000
0001
0000
0000
0010
0000
0100
0000
0010
,  // measure 26
0000
0000
0100
0000
1000
0000
1000
0000
0000
0100
0000
0000
1000
0000
0010
0000
,  // measure 27
0100
0000
0000
0100
0000
0000
0100
0000
0000
0100
0000
0100
0010
0000
1000
0000
,  // measure 28
0000
0000
0100
0000
0000
0100
0000
0000
0100
0000
0000
0100
0010
0000
0001
0000
,  // measure 29
1001
0000
0000
1001
0000
0000
1001
0000
0000
0000
0000
0000
0000
0000
0000
0000
,  // measure 30
0110
0000
0000
0110
0000
0000
0110
0000
0000
0000
0000
0000
0000
0000
0000
0000
,  // measure 31
0101
0000
0000
0100
0000
0000
0010
0000
1010
0000
0000
1000
0000
0000
0100
0000
,  // measure 32
0110
0000
0000
0011
0000
0000
0110
0000
1100
0000
0000
0000
1001
0000
0000
0000
,  // measure 33
0001
1000
0100
0100
0000
0010
0001
0100
,  // measure 34
0010
1000
0001
0001
0000
0010
0001
0100
,  // measure 35
0010
1000
0010
0010
0000
0100
0001
0010
,  // measure 36
0100
0000
0010
0000
0001
0000
0001
0000
0000
0000
0010
0000
0000
0000
0001
0100
,  // measure 37
0010
0000
0000
0010
0000
0000
0100
0000
0000
0100
0000
0000
0001
0000
0100
0000
,  // measure 38
0010
0000
0000
0010
0000
0000
1000
0000
0000
1000
0000
0000
0001
0000
0010
0000
,  // measure 39
0100
0100
1000
0010
0100
0100
0010
1000
,  // measure 40
0001
0010
1000
0010
0001
0100
1000
0100
,  // measure 41
0002
2003
3002
2003
3200
0320
0032
2003
,  // measure 42
3001
0000
0000
0000
0000
0000
0000
0000
0000
0000
0000
0000
0000
0000
0000
0000
0000
0000
0000
0000
0000
0000
0000
0000
1000
0000
0000
0010
0000
0000
0100
0000
,  // measure 43
0001
0000
0000
0000
0010
0000
0000
0000
0000
0000
0000
0100
0010
0000
0000
0010
,  // measure 44
0100
0000
0000
0000
1001
0000
0000
0000
0000
0000
0000
0000
1000
0000
0000
0001
,  // measure 45
0100
0000
0000
0000
0110
0000
0100
0001
0020
0000
0000
0000
0000
0000
0000
0000
,  // measure 46
0130
0000
1000
0100
1000
0000
0001
0100
,  // measure 47
0001
0000
0000
0000
0100
0000
0010
0000
0100
0000
0000
0001
0000
0000
0010
0000
,  // measure 48
0110
0000
0001
1000
0001
0000
1000
0010
,  // measure 49
1000
0000
0000
0000
0001
0000
0010
0000
0001
0000
0000
0010
0100
0000
1000
0000
,  // measure 50
0001
0000
1000
0100
1000
0000
0001
0100
,  // measure 51
0001
0000
0000
0000
0100
0000
0010
0000
0100
0000
0000
0001
0000
0000
0010
0000
,  // measure 52
0100
0000
0000
0100
0000
0000
0100
0000
0000
0100
0000
0000
0100
0010
0100
0010
,  // measure 53
0200
0310
0002
1003
,  // measure 54
1001
0000
0000
1000
0000
0000
0010
0000
0000
1000
0000
1000
0000
1000
0100
0000
,  // measure 55
0010
0000
0000
0100
0000
0000
0010
0000
0000
0001
0000
0001
0000
0001
0100
0000
,  // measure 56
0010
0000
0000
0010
0000
0000
0010
0000
0000
0100
0000
0100
0000
0100
0001
0000
,  // measure 57
1000
0000
0000
1000
0000
0000
1000
0000
0000
0001
0000
0001
0000
0001
0010
0000
,  // measure 58
0100
0000
0000
0100
0000
0000
0100
0000
0000
0010
0000
0010
0000
0010
0100
0000
,  // measure 59
1000
0000
0000
1000
0000
0000
1000
0000
0000
0001
0000
0001
0000
0001
1000
0000
,  // measure 60
0100
0000
0000
0100
0000
0000
0100
0000
0010
0000
0000
0001
0000
0000
1000
0000
,  // measure 61
1020
0000
0000
0130
0000
0000
0001
0000
0021
0000
0000
0230
0000
0000
2300
0000
,  // measure 62
3001
0000
1000
0100
0000
1000
0000
0010
0000
0000
0100
0000
1000
0000
0100
0000
,  // measure 63
0001
0000
0010
0001
0000
0100
0000
0001
0000
0000
0010
0000
1000
0000
0010
0000
,  // measure 64
0001
0000
1000
0010
0000
0100
0000
1000
0000
0000
0100
0000
0001
0000
1000
0000
,  // measure 65
0000
0000
0001
0000
0010
0100
0000
0010
0000
0001
0010
0000
1000
0000
0010
0000
,  // measure 66
0001
0000
0001
0010
0000
0010
0000
0100
0000
0000
0010
0000
0100
0000
0010
0000
,  // measure 67
0000
0100
1000
0010
0100
0001
1000
0100
,  // measure 68
0010
0001
0010
0001
1000
0100
1000
0100
,  // measure 69
1000
0010
0100
0001
0010
0100
1000
0001
,  // measure 70
1000
0000
0000
0001
0000
0000
0100
0000
0010
0000
0000
1000
0000
0000
0001
0000
,  // measure 71
1001
0000
0000
0000
;

//---------------dance-single - ---------------
#NOTEDATA:;
#CHARTNAME:;
#CHARTSTYLE:;
#CREDIT:Pandemonium X;
#STEPSTYPE:dance-single;
#DESCRIPTION:;
#DIFFICULTY:Challenge;
#METER:16;
#METERF:16;
#RADARVALUES:0,0,0,0,0;
#NOTES:
// measure 0
0000
0000
0000
0000
,  // measure 1
0000
0000
0000
0000
,  // measure 2
0000
0000
0000
0000
,  // measure 3
0000
0000
0000
0000
,  // measure 4
0000
0000
0000
0000
,  // measure 5
0001
0100
0001
0100
0001
0100
0001
0100
0010
1000
0010
1000
0010
1000
0010
1000
,  // measure 6
0001
0010
0001
0010
0001
0010
0001
0010
0100
1000
0100
1000
0100
1000
0100
1000
,  // measure 7
0001
0100
0001
1000
0010
1000
0100
0010
0100
0010
0001
0100
0010
1000
0001
0100
,  // measure 8
0020
1000
0100
1030
,  // measure 9
0001
1000
0000
0001
0000
1000
0100
1000
0000
0001
0000
0100
0001
0000
1000
0000
,  // measure 10
0100
0010
0000
0100
0000
0010
0001
0010
0000
0001
0000
1000
0010
0000
1010
0000
,  // measure 11
1000
0010
0000
0100
0000
0010
0100
0001
0000
0100
0000
0010
1000
0000
0001
0000
,  // measure 12
1000
0100
0000
0010
0000
0100
1000
0100
0000
0010
0000
0001
1000
0000
1001
0000
,  // measure 13
0001
0100
0000
0001
0000
0010
0100
0010
0000
0100
0000
0010
0001
0000
1000
0000
,  // measure 14
0010
0100
0000
0001
0000
1000
0100
1000
0000
0100
0000
0010
0001
0000
1000
0000
,  // measure 15
0010
0100
0000
0001
0000
0010
0100
0010
0000
0001
0000
0100
0010
0000
1000
0000
,  // measure 16
0002
0003
0200
0300
0020
0030
2000
3200
0300
0020
0032
0000
2000
0000
3003
0000
,  // measure 17
0110
0000
0000
0000
0001
0000
0001
0000
0000
0001
0000
0000
0001
0000
0000
1010
,  // measure 18
0000
0000
0000
0000
1000
0000
1000
0000
0000
1000
0000
0000
1000
0000
0000
0101
,  // measure 19
0000
0000
0000
0000
0001
0000
0001
0000
0000
0001
0000
0000
0001
0000
0000
1010
,  // measure 20
0000
0000
0000
0000
1000
0000
0001
0000
0000
0010
0000
0000
0100
0000
0000
1001
,  // measure 21
0000
0000
0000
0000
1000
0000
1000
0000
0000
1000
0000
0000
1000
0000
0000
0011
,  // measure 22
0000
0000
0000
0000
0001
0000
0001
0000
0000
0001
0000
0000
0001
0000
0000
1010
,  // measure 23
0000
0000
0000
0000
1000
0000
1000
0000
0000
1000
0000
0000
1000
0000
0000
1001
,  // measure 24
0000
1000
0100
0001
0100
0010
0001
0001
,  // measure 25
1000
0000
0001
0000
0000
0000
0001
0000
0100
0001
0100
0001
0000
1000
0000
0001
,  // measure 26
0000
0000
1000
0000
0100
0000
0100
0000
0000
0010
0000
0100
0010
0100
1000
0001
,  // measure 27
1000
0000
0000
1000
0000
0000
0001
0000
0000
0001
0000
0100
0001
0010
0100
0010
,  // measure 28
0000
0000
0100
0000
0000
0100
0000
0000
0100
0010
0000
0100
0010
0100
1000
0001
,  // measure 29
1000
0010
1000
0000
0000
0000
0010
0000
1000
0001
0010
0001
1000
0001
0010
0001
,  // measure 30
0000
0000
1000
0000
0010
0000
0010
0000
0000
0100
0000
0100
0001
0100
0010
1000
,  // measure 31
0001
0000
0000
0010
0000
0000
0100
0000
1000
0000
0000
0001
0000
0000
0100
0000
,  // measure 32
0101
0000
0000
1010
0000
0000
1100
0000
0011
0000
0000
0000
MMMM
0000
0000
0000
,  // measure 33
0001
0000
0100
1000
0100
0000
0001
0000
0000
0000
1000
0100
0010
0100
1000
0001
,  // measure 34
1000
0000
0010
0001
0010
0000
1000
0000
0000
0000
0001
0010
0100
0010
0001
1000
,  // measure 35
0001
0000
0010
1000
0010
0000
0001
0000
0000
0000
0010
0001
0100
0010
1000
0001
,  // measure 36
1000
0000
0100
0001
0100
0000
1000
0000
0000
0000
0001
0000
0000
0010
0001
1000
,  // measure 37
0010
0000
0000
1010
0000
0000
1100
0000
0000
1001
0000
0000
0001
0000
0010
0000
,  // measure 38
0110
0000
0000
0011
0000
0000
0101
0000
0000
1001
0000
0000
0001
1000
0001
1000
,  // measure 39
0001
0100
0010
1000
0001
0010
0100
0010
,  // measure 40
0001
1000
0010
1000
0001
0010
0100
0010
0001
1000
0010
1000
0100
0010
0001
1000
,  // measure 41
0002
2003
3020
2030
3002
0023
0230
0320
0032
0203
0320
2030
3200
0320
0032
2003
,  // measure 42
0002
0000
0000
0000
0000
0000
0000
0000
0000
0000
0000
0000
0000
0000
0000
0000
3003
0000
0000
0000
0000
0000
0000
0000
0001
0000
0000
1000
0000
0000
0100
0000
,  // measure 43
0110
0000
0000
0000
0011
0000
0000
0000
0000
0000
0000
0001
1001
0000
0000
1000
,  // measure 44
1001
0000
0000
0000
0110
0000
0000
0000
0000
0000
0000
0000
1001
0000
0000
1000
,  // measure 45
1010
0000
0000
0000
1100
0000
1000
0100
0020
0000
0100
0000
0001
0000
0100
0000
,  // measure 46
0031
0000
1000
0000
0010
0000
0100
0000
0001
0000
0000
1000
0100
0000
1000
0000
,  // measure 47
0001
0000
1000
0000
0010
0000
1000
0000
0001
0000
0000
0010
0001
0000
1000
0000
,  // measure 48
0010
0000
1000
0000
0001
0000
0010
0000
0100
0000
0000
0010
0001
0000
1000
0000
,  // measure 49
0010
0000
0100
0000
0001
0000
1000
0000
0100
0000
0000
0010
0100
0000
1000
0000
,  // measure 50
1100
0000
1000
0000
0100
0000
0001
0000
0100
0000
0000
1000
0100
0000
0010
0000
,  // measure 51
0001
0000
0010
0000
1000
0000
0010
0000
0100
0000
0000
0010
0100
0000
1000
0000
,  // measure 52
1001
0000
0000
0011
0000
0000
1001
0000
0000
1010
0000
0000
0001
0100
0010
1000
,  // measure 53
0002
0203
0320
2030
,  // measure 54
3100
0000
0000
0100
0000
0000
0100
0010
0000
0001
0000
1000
0000
0001
1000
0000
,  // measure 55
0010
0000
0000
0010
0000
0000
0010
0000
0000
0010
0000
0010
0000
0010
0100
0010
,  // measure 56
1000
0000
0000
1000
0000
0000
1000
0000
0000
1000
0000
1000
0000
0001
0100
0001
,  // measure 57
0100
0000
0000
0001
0000
0000
0001
0000
0000
1000
0000
1000
0000
0001
0010
0000
,  // measure 58
0011
0000
0000
0001
0000
0000
0010
0000
0000
0100
0000
0010
0000
0001
0010
0100
,  // measure 59
0010
0000
0000
0100
0000
0000
1000
0000
0000
0001
0000
0100
0000
0001
1000
0100
,  // measure 60
1000
0000
0000
0100
0000
0000
0010
0000
0001
0010
0000
0100
0000
0010
0001
0000
,  // measure 61
1001
0000
0000
0101
0000
0000
0110
0000
1000
0002
0000
0100
0000
0000
1003
0000
,  // measure 62
1001
0000
0001
1000
0000
0100
0000
0010
0000
0000
0100
0000
0010
0100
1000
0001
,  // measure 63
0100
0000
0010
0100
0000
0010
0000
1000
0000
0000
0001
0000
1000
0100
0010
0001
,  // measure 64
1000
0000
0001
0010
0000
0100
0000
0010
0000
0000
0100
0000
0010
0100
1000
0001
,  // measure 65
0000
0000
0100
0000
0010
1000
0000
0010
0000
1000
0001
1000
0001
0010
0100
1000
,  // measure 66
0001
0000
1000
0010
0000
0100
0000
0001
0000
0000
1000
0000
0100
0010
0100
1000
,  // measure 67
0000
0000
0100
0000
1000
0000
0001
0100
0010
1000
0001
0000
0100
0001
0010
0001
,  // measure 68
1000
1000
1010
0101
0100
1010
1100
0011
,  // measure 69
0010
0001
0010
0001
1000
0010
1000
0010
0100
0001
1000
0001
1000
0010
0100
0001
,  // measure 70
1000
0000
0000
1100
0000
0000
0110
0000
0011
0000
0000
1100
0000
0000
0011
0000
,  // measure 71
0101
0000
0000
0000
;

//---------------dance-double - ---------------
#NOTEDATA:;
#CHARTNAME:;
#CHARTSTYLE:;
#CREDIT:Pandemonium X;
#STEPSTYPE:dance-double;
#DESCRIPTION:;
#DIFFICULTY:Easy;
#METER:5;
#METERF:5;
#RADARVALUES:0,0,0,0,0;
#NOTES:
// measure 0
00000000
00000000
00000000
00000000
,  // measure 1
00000000
00000000
00000000
00000000
,  // measure 2
00000000
00000000
00000000
00000000
,  // measure 3
00000000
00000000
00000000
00000000
,  // measure 4
00000000
00000000
00000000
00000000
,  // measure 5
00001000
00000000
00010000
00000000
,  // measure 6
00001000
00000000
00010000
00000000
,  // measure 7
00001000
00010000
00001000
00010000
,  // measure 8
00022000
00000000
00000000
00033000
,  // measure 9
00010000
00000100
00001000
00000010
,  // measure 10
00000100
00000001
00000010
00000100
,  // measure 11
00001000
00000100
00010000
00000100
,  // measure 12
00010000
00001000
00100000
00010000
,  // measure 13
10000000
01000000
00100000
00010000
,  // measure 14
01000000
00001000
00010000
00001000
,  // measure 15
01000000
00010000
00100000
01000000
,  // measure 16
20000000
32000000
03200000
00310000
,  // measure 17
10000000
00010000
00000000
01000000
,  // measure 18
00000000
00010000
00000000
00100000
,  // measure 19
00000000
00001000
00000000
00010000
,  // measure 20
00000000
00000010
00000000
00000100
,  // measure 21
00000001
00001000
00000000
00000100
,  // measure 22
00000000
00001000
00000000
00000010
,  // measure 23
00000000
00010000
00000000
00001000
,  // measure 24
00000000
01000000
01000000
00100000
,  // measure 25
10000000
00000000
00010000
00000000
,  // measure 26
00100000
00000000
00001000
00010000
,  // measure 27
00001000
00000000
00010000
00000000
,  // measure 28
00000100
00000000
00001000
00000000
,  // measure 29
00000101
00000000
00000000
00000000
,  // measure 30
00000011
00000000
00000000
00000000
,  // measure 31
00001100
00000000
00001010
00000000
,  // measure 32
00002002
00000000
00000000
00003003
,  // measure 33
00000001
00001000
00000000
00000100
,  // measure 34
00001000
00000010
00000000
00000100
,  // measure 35
00000010
00001000
00000000
00000100
,  // measure 36
00010000
00001000
00000000
00010000
,  // measure 37
00001000
00000000
00000000
01000000
00000000
00000000
00100000
00000000
,  // measure 38
10000000
00000000
00000000
01000000
00000000
00000000
00100000
00000000
,  // measure 39
00000000
00001000
00000000
00001000
00000000
00010000
00000000
00010000
,  // measure 40
00001000
01000000
00100000
10000000
,  // measure 41
02000000
00000000
00000000
00000000
,  // measure 42
03100000
00000000
00000000
01000000
,  // measure 43
10000000
00010000
00000000
01000000
,  // measure 44
00010000
00100000
00000000
00001000
,  // measure 45
00010000
00000000
00000010
00000000
00000200
00000000
00000000
00000300
,  // measure 46
00000010
00000000
00000100
00000000
,  // measure 47
00000001
00000000
00001000
00000100
,  // measure 48
00001000
00000000
00000010
00000000
,  // measure 49
00000000
00000000
00001000
00000000
,  // measure 50
00000100
00000000
00010000
00000000
,  // measure 51
00000000
00000000
00001000
00000000
,  // measure 52
01000000
00000000
00010000
00000000
,  // measure 53
10000000
01000000
00100000
00010000
,  // measure 54
10010000
00000000
10000000
00000000
,  // measure 55
00010000
00000000
01000000
00000000
,  // measure 56
00010000
00000000
00100000
00000000
,  // measure 57
00001000
00000000
00010000
00000000
,  // measure 58
00000010
00000000
00000100
00000000
,  // measure 59
00000002
00000000
00001000
00000000
,  // measure 60
00001000
00000000
00001000
00000000
,  // measure 61
00001003
00000000
00000110
00000000
,  // measure 62
00000001
00001000
00000001
00000000
,  // measure 63
00001000
00000100
00001000
00000000
,  // measure 64
00000100
00010000
00000100
00000000
,  // measure 65
00010000
00001000
01000000
00001000
,  // measure 66
00010000
00001000
00010000
00000000
,  // measure 67
00001000
00000000
00100000
00000000
,  // measure 68
01000000
00000000
10000000
00000000
,  // measure 69
00100000
01000000
00010000
10000000
,  // measure 70
00010000
00000000
00100000
00000000
,  // measure 71
00011000
00000000
00000000
00000000
;

//---------------dance-double - ---------------
#NOTEDATA:;
#CHARTNAME:;
#CHARTSTYLE:;
#CREDIT:Pandemonium X;
#STEPSTYPE:dance-double;
#DESCRIPTION:;
#DIFFICULTY:Medium;
#METER:9;
#METERF:9;
#RADARVALUES:0,0,0,0,0;
#NOTES:
// measure 0
00000000
00000000
00000000
00000000
,  // measure 1
00000000
00000000
00000000
00000000
,  // measure 2
00000000
00000000
00000000
00000000
,  // measure 3
00000000
00000000
00000000
00000000
,  // measure 4
00000000
00000000
00000000
00000000
,  // measure 5
00210000
01300000
10200000
01300000
,  // measure 6
01002000
00013000
00021000
00030100
,  // measure 7
00001100
00000011
00000101
00001010
,  // measure 8
00001200
00001000
00010300
00011000
,  // measure 9
00001000
00000000
00000000
00010000
00000000
00000000
00001000
00000000
00000000
00010000
00000000
00000000
00000100
00000000
00001000
00000000
,  // measure 10
00000001
00000000
00000000
00001000
00000000
00000000
00000001
00000000
00000000
00001000
00000000
00000000
00000100
00000000
00010000
00000000
,  // measure 11
00001000
00000000
00000000
00010000
00000000
00000000
00001000
00000000
00000000
00010000
00000000
00000000
00001000
00000000
01000000
00000000
,  // measure 12
00010000
00000000
00000000
10000000
00000000
00000000
00010000
00000000
00000000
10000000
00000000
00000000
00010000
00000000
10000000
00000000
,  // measure 13
01000000
00000000
00000000
01000000
00000000
00000000
00100000
00000000
00000000
00100000
00000000
00000000
01000000
00000000
10000000
00000000
,  // measure 14
00010000
00000000
00000000
00010000
00000000
00000000
01000000
00000000
00000000
01000000
00000000
00000000
00010000
00000000
00100000
00000000
,  // measure 15
00001000
00000000
00000000
00001000
00000000
00000000
00010000
00000000
00000000
00010000
00000000
00000000
00000100
00000000
00001000
00000000
,  // measure 16
00000010
00000100
00000001
00000000
00000010
00000100
00001000
00000000
,  // measure 17
00000100
00001000
00000100
00001000
,  // measure 18
00000100
00010000
00000100
00010000
,  // measure 19
00001000
00010000
00001000
00010000
,  // measure 20
00001000
00000000
01000000
00000000
00001000
00000000
01000000
00010000
,  // measure 21
10000000
01000000
10000000
01000000
,  // measure 22
00100000
00010000
00100000
00010000
,  // measure 23
01000000
00010000
01000000
00010000
,  // measure 24
00100000
00001000
00010000
00000010
,  // measure 25
00000100
00000000
00000001
00000000
,  // measure 26
00000010
00000100
00001000
00000100
,  // measure 27
00010000
00010000
00001000
00001000
,  // measure 28
01000000
00010000
00100000
01000000
,  // measure 29
10000000
00000000
00000000
10000000
00000000
00000000
10000000
00000000
00000000
00000000
00000000
00000000
00000000
00000000
00000000
00000000
,  // measure 30
00010000
00000000
00000000
00010000
00000000
00000000
00010000
00000000
00000000
00000000
00000000
00000000
00000000
00000000
00000000
00000000
,  // measure 31
01000000
00000000
00000000
01000000
00000000
00000000
01000000
00000000
00001000
00000000
00000000
00001000
00000000
00000000
00001000
00000000
,  // measure 32
00010000
00000000
00000000
00000100
00000000
00000000
00001000
00000000
00000010
00000000
00000000
00000000
00001001
00000000
00000000
00000000
,  // measure 33
00000001
00000000
00000100
00000010
00000000
00000100
00000001
00000000
,  // measure 34
00000010
00000000
00000100
00001000
00000000
00000100
00010000
00000000
,  // measure 35
00001000
00000000
00010000
00001000
00000000
00010000
00000100
00000000
,  // measure 36
00010000
00000000
00001000
01000000
00000000
00010000
00000000
00100000
,  // measure 37
01000000
00000000
00000000
01000000
00000000
00000000
10000000
00000000
00000000
10000000
00000000
00000000
00010000
00000000
00000000
00000000
,  // measure 38
10000000
00000000
00000000
10000000
00000000
00000000
00100000
00000000
00000000
00100000
00000000
00000000
01000000
00000000
00000000
00000000
,  // measure 39
00000000
00010000
00000000
00010000
00000000
01000000
00000000
01000000
,  // measure 40
00010000
00100000
00001000
00010000
,  // measure 41
00000020
00000230
00000302
00002003
,  // measure 42
00003100
00000000
00000000
00001000
,  // measure 43
00001010
00000101
00000000
00000001
,  // measure 44
00001001
00001010
00000000
00001000
,  // measure 45
00001100
00000000
00011000
00000000
00002000
00000000
00000000
00003000
,  // measure 46
01000000
00000000
00100000
00000000
,  // measure 47
10000000
00000000
01000000
10000000
,  // measure 48
10010000
00000000
01010000
00000000
,  // measure 49
00000000
00000000
00000000
00010000
00100000
00000000
00000000
00100000
,  // measure 50
01000000
00000000
11000000
00000000
,  // measure 51
00000000
00000000
00000000
00000000
10010000
00000000
00000000
10000000
,  // measure 52
00010000
00000000
00110000
00000000
,  // measure 53
00200000
00302000
00023000
00030020
,  // measure 54
00000130
00000001
00000100
00000001
,  // measure 55
00000100
00000010
00000100
00000010
,  // measure 56
00001000
00000010
00001000
00000010
,  // measure 57
00001000
00000100
00001000
00000100
,  // measure 58
00010000
00001000
00010000
00001000
,  // measure 59
01000000
00001000
01000000
00001000
,  // measure 60
01000000
00100000
10000000
00010000
,  // measure 61
00100000
00000000
00000000
00100000
00000000
00000000
00100000
00000000
01000000
00000000
00000000
01000000
00000000
00000000
01000000
00000000
,  // measure 62
10000000
00000000
00000000
01000000
00000000
10000000
00000000
01000000
00000000
00000000
00000000
00000000
10000000
00000000
00000000
00000000
,  // measure 63
00100000
00000000
00000000
01000000
00000000
00100000
00000000
01000000
00000000
00000000
00000000
00000000
00010000
00000000
00000000
00000000
,  // measure 64
00100000
00000000
00000000
00001000
00000000
00100000
00000000
00001000
00000000
00000000
00000000
00000000
00010000
00000000
00000000
00000000
,  // measure 65
00000000
00000000
00000100
00000000
00001000
00000000
00000000
00000001
00000000
00000000
00001000
00000000
00000001
00000000
00000000
00000000
,  // measure 66
00000010
00000000
00000000
00000100
00000000
00000010
00000000
00000100
00000000
00000000
00001000
00000000
00000100
00000000
00000000
00000000
,  // measure 67
00000000
00001000
00000100
00000000
00011000
00000000
00001000
00010000
,  // measure 68
00011000
00001000
00101000
00001000
,  // measure 69
00100000
00010000
01000000
00100000
,  // measure 70
10000000
00000000
00000000
01000000
00000000
00000000
00100000
00000000
00001000
00000000
00000000
00010000
00000000
00000000
00001000
00000000
,  // measure 71
00011000
00000000
00000000
00000000
;

//---------------dance-double - ---------------
#NOTEDATA:;
#CHARTNAME:;
#CHARTSTYLE:;
#CREDIT:Pandemonium X;
#STEPSTYPE:dance-double;
#DESCRIPTION:;
#DIFFICULTY:Hard;
#METER:11;
#METERF:11;
#RADARVALUES:0,0,0,0,0;
#NOTES:
// measure 0
00000000
00000000
00000000
00000000
,  // measure 1
00000000
00000000
00000000
00000000
,  // measure 2
00000000
00000000
00000000
00000000
,  // measure 3
00000000
00000000
00000000
00000000
,  // measure 4
00000000
00000000
00000000
00000000
,  // measure 5
00020000
00000000
00000000
10000000
00000000
00000000
10030000
00000000
02000000
00000000
00000000
00100000
00000000
00000000
03100000
00000000
,  // measure 6
02000000
00000000
00000000
10000000
00000000
00000000
03100000
00000000
00020000
00000000
00000000
10000000
00000000
00000000
00130000
00000000
,  // measure 7
00001000
00011000
00000110
00001001
,  // measure 8
00000201
00001000
00000010
00000301
,  // measure 9
00001000
00000000
00000000
00000100
00000000
00000000
00010000
00000000
00000000
00001000
00000000
00000000
01000000
00000000
00010000
00000000
,  // measure 10
10000000
00000000
00000000
01000000
00000000
00000000
10000000
00000000
00000000
00010000
00000000
00000000
00100000
00000000
01000000
00000000
,  // measure 11
10000000
00000000
00000000
00010000
00000000
00000000
01000000
00000000
00000000
00010000
00000000
00000000
01000000
00000000
00001000
00000000
,  // measure 12
00010000
00000000
00000000
00000100
00000000
00000000
00001000
00000000
00000000
00000001
00000000
00000000
00000100
00000000
00001000
00000000
,  // measure 13
00000100
00000000
00000000
00000001
00000000
00000000
00001000
00000000
00000000
00000100
00000000
00000000
00000010
00000000
00000100
00000000
,  // measure 14
00001000
00000000
00000000
00000100
00000000
00000000
00010000
00000000
00000000
00001000
00000000
00000000
00100000
00000000
00010000
00000000
,  // measure 15
10000000
00000000
00000000
00100000
00000000
00000000
10000000
00000000
00000000
00010000
00000000
00000000
10000000
00000000
00010000
00000000
,  // measure 16
10000000
01000000
00100000
00010000
00001000
00000010
00000001
00000000
,  // measure 17
00001100
00000000
00000100
00000000
00010000
00000000
00001000
00001000
,  // measure 18
01000000
00000000
00010000
00000000
10000000
00000000
01000000
01000000
,  // measure 19
00100000
00000000
00010000
00000000
01000000
00000000
00001000
00001000
,  // measure 20
00010000
00000000
00000100
00000000
00001000
00000000
00000010
00000100
,  // measure 21
00000001
00000000
00001000
00000000
00000100
00000000
00000010
00001000
,  // measure 22
00000010
00000000
00000001
00000000
00001000
00000000
00000100
00010000
,  // measure 23
00000100
00000000
00000000
00000000
00010000
00000000
00000000
00000000
00001000
00000000
00000000
00000000
01000000
00000000
00000000
00010000
,  // measure 24
00000000
01000000
00001000
01000000
00010000
00100000
00001000
00001000
,  // measure 25
00010000
00000000
00000100
00000000
00000000
00000000
00000100
00000000
00001000
00000000
00000000
00000001
00000000
00000001
00000000
00000001
,  // measure 26
00000000
00000000
00000100
00000000
00000100
00000000
00000100
00000000
00000000
00000010
00000000
00001000
00000100
00000000
00000000
00000100
,  // measure 27
00010000
00000000
00000000
00010000
00000000
00000000
00010000
00000000
00000000
00010000
00000000
00010000
00001000
00000000
01000000
00000000
,  // measure 28
00000000
00000000
00100000
00000000
00000000
00100000
00000000
00000000
00100000
00000000
00000000
00000000
01000000
00000000
00010000
00000000
,  // measure 29
00100000
00000000
00000000
00001000
00000000
00000000
00011000
00000000
00000000
00000000
00000000
00000000
00000000
00000000
00010000
00000000
,  // measure 30
00000100
00000000
00000000
00001000
00000000
00000000
00001001
00000000
00000000
00000000
00000000
00000000
00000000
00000000
00000000
00000000
,  // measure 31
00000001
00000000
00000000
00000100
00000000
00000000
00001000
00000000
00010000
00000000
00000000
00100000
00000000
00000000
10000000
00000000
,  // measure 32
10010000
00000000
00000000
00110000
00000000
00000000
00011000
00000000
00020200
00000000
00000000
00000000
00030300
00000000
00000000
00000000
,  // measure 33
00010000
00001000
01000000
01000000
00000000
01000000
00010000
01000000
,  // measure 34
00001000
00010000
00000100
00000100
00000000
00010000
00001000
00100000
,  // measure 35
00001000
00010000
00000010
00000010
00000000
00000100
00000010
00010000
,  // measure 36
00001000
00100000
01000000
01000000
00000000
00100000
00000000
01000000
,  // measure 37
10000000
00000000
00000000
10000000
00000000
00000000
00010000
00000000
00000000
00010000
00000000
00000000
00100000
00000000
00001000
00000000
,  // measure 38
00010000
00000000
00000000
00010000
00000000
00000000
00000100
00000000
00000000
00000100
00000000
00000000
00001000
00000000
00000100
00000000
,  // measure 39
00000000
00010000
00000000
00000100
00000000
00010000
00000000
00001000
,  // measure 40
01000000
00100000
10000000
00010000
00100000
01000000
00100000
00001000
,  // measure 41
00040000
00004000
00000000
00000000
00000000
00000000
00000000
00000000
00000000
00000000
00000000
00000000
00000000
00000000
00000000
00000000
,  // measure 42
00033000
00000000
00000000
00000000
00000000
00000000
00000000
00000000
00000000
00000000
00000000
00000000
00000000
00000000
00000000
00000000
00000000
00000000
00000000
00000000
00000000
00000000
00000000
00000000
00100000
00000000
00000000
00001000
00000000
00000000
00010000
00000000
,  // measure 43
00010000
00000000
00000000
00000000
00000100
00000000
00000000
00000000
00000000
00000000
00000000
00001000
00000001
00000000
00000000
00000100
,  // measure 44
00000010
00000000
00000000
00000000
00011000
00000000
00000000
00000000
00000000
00000000
00000000
00000000
10010000
00000000
00000000
00010000
,  // measure 45
01000000
00000000
00000000
00000000
10100000
00000000
10000000
00010000
00200000
00000000
00000000
00000000
00000000
00000000
00000000
00000000
,  // measure 46
00301000
00000000
00000000
00010000
00000000
00000000
00000010
00000000
00001000
00000000
00000000
00000001
00000000
00000000
00001000
00000000
,  // measure 47
00000100
00000000
00000000
00001000
00000000
00000000
00000100
00000000
00010100
00000000
00000000
00010000
00000000
00000000
00001000
00000000
,  // measure 48
01001000
00000000
00000000
01000000
00000000
00000000
00010000
00000000
00110000
00000000
00000000
00010000
00000000
00000000
00100000
00000000
,  // measure 49
01000000
00000000
00000000
10000000
00000000
00000000
00010000
00000000
10010000
00000000
00000000
10000000
00100000
00000000
01000000
00000000
,  // measure 50
01010000
00000000
00000000
00000000
00010000
00000000
01000000
00000000
01001000
00000000
00000000
00001000
00000000
00000000
00010000
00000000
,  // measure 51
00000100
00000000
00000000
00001000
00000000
00000000
00000100
00000000
00000110
00000000
00000000
00000000
00000010
00000000
00000001
00000000
,  // measure 52
00000011
00000000
00000000
00000001
00000000
00000000
00000001
00000000
00000000
00000001
00000000
00000000
00000001
00000000
00001000
00000000
,  // measure 53
00000020
00020030
00032000
00203000
,  // measure 54
00310000
00000000
00000000
10000000
00000000
00000000
00100000
00000000
00000000
10000000
00000000
00000000
00010000
00000000
10000000
00000000
,  // measure 55
00010000
00000000
00000000
00100000
00000000
00000000
00001000
00000000
00000000
00010000
00000000
00000000
00000010
00000000
00001000
00000000
,  // measure 56
00000001
00000000
00000000
00000010
00000000
00000000
00000100
00000000
00000000
00001000
00000000
00000000
00000100
00000000
00010000
00000000
,  // measure 57
00001000
00000000
00000000
00010000
00000000
00000000
00001000
00000000
00000000
01000000
00000000
00000000
00010000
00000000
10000000
00000000
,  // measure 58
01000000
00000000
00000000
01000000
00000000
00000000
00100000
00000000
00000000
00100000
00000000
00001000
00000000
00010000
00001000
00000000
,  // measure 59
00010000
00000000
00000000
00000100
00000000
00000000
00001000
00000000
00000001
00000000
00000000
00000100
00000000
00000001
00001000
00000000
,  // measure 60
00000200
00000000
00000000
00001000
00000000
00000000
00010300
00000000
00002000
00000000
00000000
00010000
00000000
00000000
00103000
00000000
,  // measure 61
00020000
00000000
00000000
02030000
00000000
00000000
03002000
00000000
00023000
00000000
00000000
00030200
00000000
00000000
00002300
00000000
,  // measure 62
00003001
00000000
00000000
00000100
00000000
00000001
00000000
00001000
00000000
00000000
00000100
00000000
00001000
00000000
00010000
00000000
,  // measure 63
00100000
00000000
00000000
00010000
00000000
10000000
00000000
01000000
00000000
00000000
00100000
00000000
00010000
00000000
00001000
00000000
,  // measure 64
00000100
00000000
00000000
00001000
00000000
00000010
00000000
00000100
00000000
00000000
00000010
00000000
00000100
00000000
00000010
00000000
,  // measure 65
00000000
00000000
00000100
00000000
00000001
00001000
00000000
00000100
00000000
00001000
00000100
00000000
00010000
00000000
00001000
00000000
,  // measure 66
01000000
00000000
00010000
10000000
00000000
00010000
00000000
01000000
00000000
00000000
00100000
00000000
10000000
00000000
00100000
00000000
,  // measure 67
00000000
10000000
00010000
00100000
01100000
00000000
10000000
00010000
,  // measure 68
01010000
01000000
00001000
00001000
00010000
00000100
00001000
00001000
,  // measure 69
00000010
00000001
00000010
00001000
00010000
00100000
10000000
01000000
,  // measure 70
00200000
00000000
00000000
01300000
00000000
00000000
10000000
00000000
00020000
00000000
00000000
01030000
00000000
00000000
00001000
00000000
,  // measure 71
00011000
00000000
00000000
00000000
;

//---------------dance-double - ---------------
#NOTEDATA:;
#CHARTNAME:;
#CHARTSTYLE:;
#CREDIT:Pandemonium X;
#STEPSTYPE:dance-double;
#DESCRIPTION:;
#DIFFICULTY:Challenge;
#METER:16;
#METERF:16;
#RADARVALUES:0,0,0,0,0;
#NOTES:
// measure 0
00000000
00000000
00000000
00000000
,  // measure 1
00000000
00000000
00000000
00000000
,  // measure 2
00000000
00000000
00000000
00000000
,  // measure 3
00000000
00000000
00000000
00000000
,  // measure 4
00000000
00000000
00000000
00000000
,  // measure 5
00210000
00301000
00001020
00010030
,  // measure 6
00210000
00301000
00001020
00010030
,  // measure 7
00011000
00100010
00010001
01000100
,  // measure 8
10001000
00000000
00000000
00000000
00110000
00000000
00000000
00100000
00010000
00000000
10000000
00000000
10100000
00000000
00000000
00000000
,  // measure 9
10000000
00010000
00000000
00100000
00000000
00010000
00100000
00010000
00000000
00100000
00000000
00001000
00010000
00000000
00001000
00000000
,  // measure 10
00010000
00000100
00000000
00001000
00000000
00000001
00001000
00000001
00000000
00000100
00000000
00000010
00010000
00000000
00000100
00000000
,  // measure 11
00001000
00000100
00000000
00001000
00000000
00000010
00000100
00000001
00000000
00001000
00000000
00000100
00010000
00000000
00001000
00000000
,  // measure 12
01000000
00010000
00000000
00100000
00000000
01000000
00100000
01000000
00000000
10000000
00000000
00100000
01000000
00000000
00001000
00000000
,  // measure 13
00010000
00001000
00000000
00100000
00000000
00010000
01000000
00100000
00000000
01000000
00000000
00010000
00100000
00000000
00001000
00000000
,  // measure 14
00010000
00000100
00000000
00001000
00000000
00000100
00010000
00001000
00000000
00010000
00000000
00000010
00001000
00000000
00000100
00000000
,  // measure 15
00010000
00001000
00000000
01000000
00000000
00100000
10000000
00010000
00000000
00100000
00000000
01000000
10000000
00000000
00010000
00000000
,  // measure 16
20000000
32000000
03200000
00320000
00032000
00003200
00000320
00000030
,  // measure 17
00000011
00000000
00000000
00000000
00000001
00000000
00000100
00000000
00000000
00000010
00000000
00000000
00001020
00000000
00000030
000011M0
,  // measure 18
00000000
00000000
00000000
00000000
00000100
00000000
00010000
00000000
00000000
00001000
00000000
00000000
00021000
00000000
00030000
001M1000
,  // measure 19
00000000
00000000
00000000
00000000
00001000
00000000
01000000
00000000
00000000
00010000
00000000
00000000
00210000
00000000
00300000
11M00000
,  // measure 20
00000000
00000000
00000000
00000000
10000000
00000000
01000000
00000000
00000000
00010000
00000000
00000000
01020000
00000000
00030000
110M0000
,  // measure 21
00000000
00000000
00000000
00000000
10000000
00000000
00100000
00000000
00000000
01000000
00000000
00000000
02010000
00000000
03000000
0M110000
,  // measure 22
00000000
00000000
00000000
00000000
00100000
00000000
00001000
00000000
00000000
00010000
00000000
00000000
00002010
00000000
00003000
0001M010
,  // measure 23
00000000
00000000
00000000
00000000
00000010
00000000
00000100
00000000
00000000
00000001
00000000
00000000
00001100
00000000
00000000
00001M01
,  // measure 24
00000000
000000M1
000M0100
0000100M
000100M0
0M100000
1000M000
1000M000
,  // measure 25
00010000
00000000
10000000
00000000
00000000
00000000
00010000
00000000
00100000
01000000
10000000
01000000
00000000
00100000
00000000
01000000
,  // measure 26
00000000
00000000
00100000
00000000
00010000
00000000
00100000
00000000
00000000
00000010
00000000
00001000
00000010
00000100
00000001
00001000
,  // measure 27
00000100
00000000
00000000
00000100
00000000
00000000
00010000
00000000
00000000
00010000
00000000
00001000
01000000
00010000
01000000
00001000
,  // measure 28
00000000
00000000
00010000
00000000
00000000
00010000
00000000
00000000
00010000
00001000
00000000
00001000
00010000
00000100
00001000
00000010
,  // measure 29
00010000
00000000
00000000
00101000
00000000
00000000
11000000
00000000
00000000
00000000
00000000
00000000
10000000
00000000
00100000
00000000
,  // measure 30
01010000
00000000
00000000
01001000
00000000
00000000
00011000
00000000
00000000
00000000
00000000
00000000
00000000
00000000
00000000
00000000
,  // measure 31
00011000
00000000
00000000
00001100
00000000
00000000
00000110
00000000
00001001
00000000
00000000
00000101
00000000
00000000
00001010
00000000
,  // measure 32
00100010
00000000
00000000
00011000
00000000
00000000
01000100
00000000
00011000
00000000
00000000
00000000
1MM1MMMM
00000000
00000000
00000000
,  // measure 33
11000000
00000000
10000000
01000000
00010000
00000000
01000000
00000000
00000000
00000000
00100000
00010000
01000000
00001000
00010000
00000100
,  // measure 34
00001000
00000000
00000010
00000001
00000010
00000000
00001000
00000000
00000000
00000000
00000010
00000100
00001000
00000100
00000001
00001000
,  // measure 35
00000100
00000000
00000010
00001000
00000010
00000000
00000001
00000000
00000000
00000000
00000100
00000010
00001000
00000100
00010000
00001000
,  // measure 36
01000000
00000000
00100000
00010000
00100000
00000000
10000000
00000000
00000000
00000000
00100000
00000000
00000000
01000000
00010000
10000000
,  // measure 37
12000000
00000000
03000000
0M100000
00000000
00000000
00210000
00000000
00300000
01M00000
00000000
00000000
10000000
00000000
00100000
00000000
,  // measure 38
02010000
00000000
03000000
0M001000
00000000
00000000
00021000
00000000
00030000
000M0100
00000000
00000000
00010000
00001000
00010000
00000100
,  // measure 39
00001000
00000100
01000000
00001000
00010000
00000010
00100000
00001000
,  // measure 40
00010000
00001000
00010000
00000100
00010000
00000010
00001000
00000010
00000100
00000001
00000100
00000001
00001000
00000010
00001000
00000100
,  // measure 41
00020000
00032000
02003000
03200000
20300000
30020000
20030000
30020000
00230000
00302000
00023000
00030020
00000230
00000302
00002003
00003200
,  // measure 42
00010300
00000000
00000000
00000000
00000000
00000000
00000000
00000000
00000000
00000000
00000000
00000000
00000000
00000000
00000000
00000000
00000000
00000000
00000000
00000000
00000000
00000000
00000000
00000000
00001000
00000000
00000000
01000000
00000000
00000000
00010000
00000000
,  // measure 43
01010000
00000000
00000000
00000000
00001100
00000000
00000000
00000000
00000000
00000000
00000000
00000100
00011000
00000000
00000000
00100000
,  // measure 44
00011000
00000000
00000000
00000000
00100010
00000000
00000000
00000000
00000000
00000000
00000000
00000000
00011000
00000000
00000000
00100000
,  // measure 45
00011000
00000000
00000000
00000000
00000000
00000000
00000000
00000000
00001001
00000000
00000000
00000000
00000001
00000000
00000100
00000000
00000040
00004000
00000000
00000000
00000000
00000000
00000000
00000000
00000000
00000000
00000000
00000000
00000000
00003030
00000000
00000000
,  // measure 46
00000101
00000000
00000000
00000001
00001000
00000000
00000100
00000000
00010000
00000000
00000000
00001000
01000000
00000000
00010000
00000000
,  // measure 47
00100000
00000000
00000000
01000000
00100000
00000000
00001000
00000000
00011000
00000000
00000000
00110000
00000000
00000000
10010000
00000000
,  // measure 48
11000000
00000000
00000000
01000000
10000000
00000000
00100000
00000000
10100000
00000000
00000000
00100000
01000000
00000000
00010000
00000000
,  // measure 49
00100000
00000000
00000000
00001000
00010000
00000000
00010100
00000000
00001100
00000000
00000000
00000000
00001000
00000000
00001010
00000000
,  // measure 50
00000101
00000000
00000000
00001000
00000001
00000000
00001000
00000000
00001100
00000000
00000000
00001000
00000010
00000000
00000100
00000000
,  // measure 51
00000001
00000000
00000000
00001000
00000100
00000000
00010000
00000000
00011000
00000000
00000000
00000000
00001000
00000000
01000000
00000000
,  // measure 52
01010000
00000000
00000000
10100000
00000000
00000000
10010000
00000000
00000000
00110000
00000000
00000000
00010000
10000000
00010000
10000000
,  // measure 53
00020000
00030000
00022000
00033000
00002002
00003003
00002020
00000030
,  // measure 54
00003001
00001000
00000000
00000100
00000000
00001000
00000001
00000100
00000000
00000010
00000000
00001000
00000100
00001000
00000001
00000000
,  // measure 55
00001000
00000100
00000000
00010000
00000000
00001000
00010000
00001000
00000000
00010000
00000000
00001000
01000000
00010000
10000000
00010000
,  // measure 56
00100000
01000000
00000000
00100000
00000000
01000000
10000000
00010000
00000000
01000000
00000000
00010000
01000000
00100000
10000000
00010000
,  // measure 57
00100000
00001000
00000000
00010000
00000000
00001000
00010000
00000100
00001000
00000001
00000000
00001000
00000010
00000100
00000001
00001000
,  // measure 58
00000100
00001000
00000000
00000001
00000000
00000100
00000010
00000100
00000010
00010000
00000000
00001000
00010000
00001000
00100000
00010000
,  // measure 59
MM100M0M
00010000
MM000M0M
00100000
MM000M0M
00001000
MM010M0M
00000010
MM000M0M
00001000
MM000M0M
00000010
MM010M0M
00001000
MM100M0M
00001000
,  // measure 60
MM010M0M
00000000
MM000M0M
00011000
MM000M0M
00000000
MM100M1M
00000000
MM100M0M
00001000
MM000M0M
00011000
MM000M0M
00000010
MM010M0M
00000000
,  // measure 61
MM011M0M
00000000
00000000
00100010
00000000
00000000
00011000
00000000
02000200
00000000
03000300
1M001M00
00000000
00000000
10100000
00000000
,  // measure 62
01010000
00000000
00010000
00100000
00000000
10000000
00000000
00100000
00000000
00000000
00010000
00000000
00100000
00001000
00010000
00000010
,  // measure 63
00001000
00000000
00000100
00000001
00000000
00000100
00000000
00001000
00000000
00000000
00000100
00000000
00000010
00000001
00000100
00000010
,  // measure 64
00001000
00000000
00000100
00001000
00000000
00010000
00000000
00100000
00000000
00000000
00100000
00000000
00010000
00100000
10000000
00010000
,  // measure 65
00000000
00000000
10000000
00000000
01000000
10000000
00000000
00100000
00000000
01000000
10000000
01000000
00010000
00100000
00010000
00001000
,  // measure 66
00000100
00000000
00001000
00000010
00000000
00000100
00000000
00000010
00000000
00000000
00000100
00000000
00000010
00000100
00000001
00001000
,  // measure 67
00000000
00000000
00000100
00000000
00000010
00000000
00000100
00001000
00000001
00001000
00000001
00000000
00001000
00000000
00000010
00000000
,  // measure 68
00001000
00001100
00011000
01001000
00001000
00011000
00001010
00011000
,  // measure 69
00001000
01000000
00010000
00100000
01000000
10000000
00100000
01000000
00010000
00100000
00001000
00010000
00000010
00000100
00000001
00001000
,  // measure 70
00000001
00000000
00000000
00001001
00000000
00000000
00011000
00000000
00100010
00000000
00000000
00011000
00000000
00000000
01000100
00000000
,  // measure 71
00011000
00000000
00000000
00000000
;
