#VERSION:0.83;
#TITLE:IGNITE THE IRON HEART;
#SUBTITLE:;
#ARTIST:BEMANI Sound Team "L.E.D.";
#TITLETRANSLIT:;
#SUBTITLETRANSLIT:;
#ARTISTTRANSLIT:;
#GENRE:;
#CREDIT:;
#MUSIC:IGNITE THE IRON HEART.ogg;
#BANNER:banner.png;
#BACKGROUND:bg.png;
#JACKET:jacket.png;
#DISCIMAGE:;
#CDIMAGE:;
#SELECTABLE:YES;
#LYRICSPATH:;
#CDTITLE:cdtitle.png;
#SAMPLESTART:82.861;
#SAMPLELENGTH:12.403;
#OFFSET:-0.022;
#BPMS:0.000000=155.000000,
144.000000=100.000000,
168.000000=50.000000,
168.500000=100.000000,
174.500000=50.000000,
175.000000=100.000000,
183.000000=155.000000
;
#STOPS:;
#WARPS:;
#DELAYS:;
#SPEEDS:;
#SCROLLS:;
#TICKCOUNTS:;
#TIMESIGNATURES:;
#LABELS:;
#COMBOS:;
#FAKES:;
#BGCHANGES:;
#FGCHANGES:;
#ATTACKS:;

//---------------dance-single - ---------------
#NOTEDATA:;
#CHARTNAME:;
#CHARTSTYLE:;
#CREDIT:Pandemonium X;
#STEPSTYPE:dance-single;
#DESCRIPTION:;
#DIFFICULTY:Beginner;
#METER:3;
#METERF:3;
#RADARVALUES:0,0,0,0,0;
#NOTES:
// measure 0
0000
0000
0000
0000
,  // measure 1
0000
0000
0000
0000
,  // measure 2
0001
0000
0000
0000
,  // measure 3
0000
0000
1000
1000
,  // measure 4
0000
0000
0000
0000
,  // measure 5
0000
0000
0001
0001
,  // measure 6
0000
0000
0000
0000
,  // measure 7
0000
0000
0100
0100
,  // measure 8
0000
0000
0000
0000
,  // measure 9
0000
0000
0010
0010
,  // measure 10
1000
0000
0000
0000
,  // measure 11
0001
0000
0000
0000
,  // measure 12
0010
0000
0000
0000
,  // measure 13
0100
0000
0010
0000
,  // measure 14
0001
0000
0000
0000
,  // measure 15
1000
0000
0000
0000
,  // measure 16
0010
0000
0000
0010
0000
0000
0010
0000
,  // measure 17
0000
0000
0000
0000
,  // measure 18
0000
0000
0000
0000
,  // measure 19
0100
0000
0000
0000
,  // measure 20
0010
0000
0000
0000
,  // measure 21
1000
0000
0000
0000
,  // measure 22
0001
0000
1000
0000
,  // measure 23
0100
0000
0000
0000
,  // measure 24
0010
0000
0000
0000
,  // measure 25
0100
0000
0000
0000
,  // measure 26
1000
0000
0001
0000
,  // measure 27
0100
0000
0000
0000
,  // measure 28
0001
0000
0000
0000
,  // measure 29
0010
0000
0000
0000
,  // measure 30
0100
0000
0100
0000
,  // measure 31
1000
0000
0000
0000
,  // measure 32
0001
0000
0000
0000
,  // measure 33
1000
0000
0000
0000
,  // measure 34
0010
0000
0100
0000
,  // measure 35
0001
0000
0000
0000
,  // measure 36
1001
0000
0000
0000
,  // measure 37
0000
0000
0000
0000
,  // measure 38
1000
0000
0000
0000
,  // measure 39
0001
0000
0000
0000
,  // measure 40
0100
0000
0000
0000
,  // measure 41
0010
0000
0000
0000
,  // measure 42
0000
0100
0000
0000
0000
0000
0000
0010
,  // measure 43
0000
0000
0000
1000
,  // measure 44
0000
0001
0000
0100
,  // measure 45
0000
0010
0000
1001
,  // measure 46
0000
0000
0000
0000
,  // measure 47
0000
0000
0000
0001
,  // measure 48
0000
0000
0000
1000
,  // measure 49
0000
0000
0000
0010
,  // measure 50
0000
0010
0000
0000
0000
0000
0010
0000
,  // measure 51
0000
0010
0000
0000
0010
0000
0100
0000
,  // measure 52
0000
0000
0000
0001
,  // measure 53
0000
0000
0000
0100
,  // measure 54
0000
0100
0000
0000
0000
0000
0100
0000
,  // measure 55
0000
0100
0000
0000
0000
0000
0010
0000
,  // measure 56
0000
0010
0000
0000
0010
0000
0000
0000
,  // measure 57
0000
0000
0000
1000
,  // measure 58
0000
0000
0000
0001
,  // measure 59
0000
0000
0000
1000
,  // measure 60
0000
1000
0000
0000
1000
0000
0000
0000
,  // measure 61
0000
0000
0000
0100
,  // measure 62
0000
0000
0000
0010
,  // measure 63
0000
0000
0000
0001
,  // measure 64
0000
0001
0000
0000
0001
0000
0000
0000
,  // measure 65
0000
0000
0000
1000
,  // measure 66
0000
1000
0000
0000
1000
0000
0000
0000
,  // measure 67
0000
0000
0000
0100
,  // measure 68
0000
0100
0000
0000
0100
0000
0000
0000
,  // measure 69
0000
0000
0000
1001
,  // measure 70
0000
0110
0000
0000
1001
0000
0000
0000
,  // measure 71
0000
0000
0000
0020
,  // measure 72
0000
0000
0000
0030
;

//---------------dance-single - ---------------
#NOTEDATA:;
#CHARTNAME:;
#CHARTSTYLE:;
#CREDIT:Pandemonium X;
#STEPSTYPE:dance-single;
#DESCRIPTION:;
#DIFFICULTY:Easy;
#METER:7;
#METERF:7;
#RADARVALUES:0,0,0,0,0;
#NOTES:
// measure 0
0000
0000
0000
0000
,  // measure 1
0000
0000
0000
0000
,  // measure 2
1000
0010
1000
0001
,  // measure 3
0010
0001
2000
3002
,  // measure 4
1003
0100
1000
0001
,  // measure 5
0100
0001
2000
3002
,  // measure 6
0013
0100
1000
0100
,  // measure 7
0010
0100
2000
3002
,  // measure 8
0013
0100
0010
0100
,  // measure 9
0010
0001
2000
3002
,  // measure 10
0103
0001
1000
0001
,  // measure 11
1000
0000
0010
0000
0100
0001
1000
0000
,  // measure 12
0001
1000
0100
1000
,  // measure 13
0001
1000
0002
0003
,  // measure 14
1000
0001
0010
0001
,  // measure 15
1000
0000
0010
0000
1000
0100
0010
0001
,  // measure 16
1001
0000
0000
0110
0000
0000
0002
2000
,  // measure 17
0000
0000
0000
0000
,  // measure 18
0000
0000
0000
3003
,  // measure 19
0001
0010
1000
0010
,  // measure 20
0001
0100
0001
1000
,  // measure 21
0001
0010
1000
0010
,  // measure 22
0011
0010
0110
0100
,  // measure 23
1001
0001
0100
1000
,  // measure 24
0100
0001
1000
0001
,  // measure 25
0010
1000
0010
0100
,  // measure 26
0110
0010
0011
0001
,  // measure 27
1000
0000
0000
0001
0000
0000
0000
0100
,  // measure 28
0000
0010
0000
1000
0000
0001
0000
0000
,  // measure 29
1000
0000
0000
0100
0000
0000
0000
0010
,  // measure 30
0000
0100
0000
1000
0000
0100
0000
0000
,  // measure 31
1000
0000
0000
0001
0000
0000
0000
0100
,  // measure 32
0000
0001
0000
1000
0000
0100
0000
0000
,  // measure 33
0010
0000
0001
0000
1000
0000
0000
0010
,  // measure 34
0000
0100
0000
0001
0000
1000
0000
0020
,  // measure 35
0000
0000
0000
0000
,  // measure 36
0130
0000
0000
0000
,  // measure 37
0000
0000
0000
0000
,  // measure 38
0000
0001
1000
0001
0000
1000
0100
1000
,  // measure 39
0000
0001
0100
0001
0100
0010
1000
0001
,  // measure 40
0000
1000
0100
1000
0000
0001
0010
0001
,  // measure 41
0000
1000
0100
1000
0001
0100
0001
1000
,  // measure 42
0000
0001
1000
0000
0001
0100
0001
0000
,  // measure 43
1000
0010
1000
0010
0100
0000
0000
0001
,  // measure 44
1000
0100
0000
0010
0100
1000
0000
0100
,  // measure 45
0010
0001
0100
0010
1000
0010
1001
0000
,  // measure 46
0000
0000
0000
0002
,  // measure 47
0000
0000
0000
1003
,  // measure 48
0001
0010
0001
1000
,  // measure 49
0100
1000
0001
0200
,  // measure 50
0000
0302
0000
0000
0103
0000
0020
0000
,  // measure 51
0000
2030
0000
0000
3002
0000
0013
0000
,  // measure 52
0100
0010
0001
1000
,  // measure 53
0010
0100
0001
2000
,  // measure 54
0000
3020
0000
0000
0000
0000
0230
0000
,  // measure 55
0000
0302
0000
0000
1003
0000
1100
0000
,  // measure 56
0000
0110
0000
0000
0011
0000
0000
0000
,  // measure 57
0001
1000
0100
1000
,  // measure 58
0100
0010
0001
1000
,  // measure 59
0001
1000
0100
0110
,  // measure 60
0000
0011
0000
0000
1001
0000
0000
0000
,  // measure 61
0000
0001
1000
0000
1000
0000
0001
0000
,  // measure 62
0010
1000
0010
0100
,  // measure 63
0010
0001
1000
0110
,  // measure 64
0000
0101
0000
0000
1001
0000
0000
0000
,  // measure 65
1000
0001
0010
0110
,  // measure 66
0000
1100
0000
0000
1001
0000
0000
0000
,  // measure 67
1000
0001
0100
0110
,  // measure 68
0000
0101
0000
0000
0110
0000
0000
0000
,  // measure 69
0001
0010
0100
0110
,  // measure 70
0000
1001
0000
0000
0220
0000
0000
0000
,  // measure 71
0000
0000
0000
0000
,  // measure 72
0000
0000
0000
0330
;

//---------------dance-single - ---------------
#NOTEDATA:;
#CHARTNAME:;
#CHARTSTYLE:;
#CREDIT:Pandemonium X;
#STEPSTYPE:dance-single;
#DESCRIPTION:;
#DIFFICULTY:Hard;
#METER:13;
#METERF:13;
#RADARVALUES:0,0,0,0,0;
#NOTES:
// measure 0
0000
0000
0000
0000
,  // measure 1
0000
0000
0000
0000
,  // measure 2
0001
0100
0110
0000
0010
1000
1001
0000
,  // measure 3
1000
0100
0110
0000
2000
0000
3002
0000
,  // measure 4
0103
0010
1001
0000
1000
0100
1100
0000
,  // measure 5
0001
1000
1001
0000
2000
0000
3002
0000
,  // measure 6
0103
0001
0000
0001
0000
1000
0000
1000
,  // measure 7
0000
0100
0000
0100
2000
0000
3002
0000
,  // measure 8
0103
0001
0000
0001
0000
1000
0000
1000
,  // measure 9
0000
0000
0010
0100
0000
0010
1000
0000
0001
0010
0000
0100
0010
0000
0001
0000
,  // measure 10
2000
0000
3100
0020
0000
0130
2000
0000
,  // measure 11
3100
0020
0000
0130
1000
0001
0100
0000
,  // measure 12
0002
0000
0103
0020
0000
0130
0002
0000
,  // measure 13
0103
0000
0010
1000
0000
1000
0001
0000
0001
0010
0000
0010
0100
0000
1000
0000
,  // measure 14
0001
0000
0010
0001
0000
0010
0100
0000
,  // measure 15
0010
0001
0000
0010
0100
1000
0100
0010
,  // measure 16
0011
0000
0000
0101
0000
0000
0110
2002
,  // measure 17
0000
0000
0000
3003
,  // measure 18
0001
0000
0001
0100
0001
0000
1000
0000
1000
0100
1000
0000
0001
0000
1000
0000
,  // measure 19
0100
0010
0001
0200
0000
0320
0000
0032
,  // measure 20
0000
0023
0000
0230
0000
0301
2000
0000
,  // measure 21
3001
0010
0100
2000
0000
3200
0000
0320
,  // measure 22
0000
0130
1000
0001
1000
0010
1000
0100
,  // measure 23
0010
1000
0010
0002
0000
0203
0000
0302
,  // measure 24
0000
0023
0000
2030
0000
3010
0200
0000
,  // measure 25
0310
0001
0010
0200
0000
2300
0000
3002
,  // measure 26
0000
0000
1003
0010
0000
0010
0100
0000
0100
0001
0000
0001
0010
0000
0100
0000
,  // measure 27
1000
0100
1000
1010
0000
0010
0100
0101
,  // measure 28
0000
0011
0000
0101
0000
0110
0000
1001
,  // measure 29
0000
0001
1000
1100
0000
1000
0001
0101
,  // measure 30
0000
0000
1010
0000
0000
0000
1001
0000
0000
0000
2100
0000
0000
3010
0000
0000
,  // measure 31
1000
0010
0100
0101
0000
0001
0010
0110
,  // measure 32
0000
1100
0000
0110
0000
1100
0000
0011
,  // measure 33
0000
0001
0010
1000
0010
0001
0100
0110
,  // measure 34
0000
0101
0000
1010
0000
1100
0000
1002
,  // measure 35
0000
0000
0103
0010
0000
0100
0001
0000
0100
0010
0000
0100
0010
0000
1000
0000
,  // measure 36
1001
0000
0000
0000
,  // measure 37
0002
0000
0013
0100
1000
0000
0002
0000
1003
0010
0100
0000
0010
0100
0010
0100
,  // measure 38
0001
1000
0100
0100
1000
0010
0100
0010
,  // measure 39
0100
0001
1000
1000
0001
0010
0100
0100
,  // measure 40
0010
0100
0010
0010
0001
1000
0010
1000
,  // measure 41
0010
0000
0100
0001
0000
0100
0010
0000
0010
1000
0000
0001
0100
0010
1000
0000
,  // measure 42
0200
0310
0001
0000
0010
0001
1000
0000
,  // measure 43
0010
0100
0100
0001
1000
0000
1001
1000
,  // measure 44
0100
0000
1000
0000
1100
0000
0100
0000
0010
0000
0001
0000
0100
0010
0100
0010
,  // measure 45
0100
0001
1000
0001
1000
0001
1000
0100
0010
0001
1000
0001
1001
0000
0000
0000
,  // measure 46
0000
0000
0000
0000
0000
0000
2000
3020
,  // measure 47
0230
0302
2003
3002
0203
0320
1030
0001
,  // measure 48
1000
0010
0100
0001
0010
0010
0001
1000
,  // measure 49
0010
1000
0001
0100
0010
0010
2000
0000
,  // measure 50
0000
0100
0000
3001
1000
0001
0200
0000
,  // measure 51
0000
0010
0000
0000
0301
0000
0011
0010
,  // measure 52
0001
1000
0010
1000
0001
0001
1000
0010
,  // measure 53
0100
0001
1000
0010
1000
1000
0002
0000
,  // measure 54
0000
0000
0010
0000
0000
0000
1003
0000
0001
0000
1000
0000
0010
0100
0010
0000
,  // measure 55
0100
0001
0000
0001
0010
0000
0010
0100
0000
0100
1000
0000
2001
0000
0000
0000
,  // measure 56
3001
0102
0000
1003
1020
0000
0000
0130
,  // measure 57
1000
0100
0001
0100
0010
1000
0001
0010
,  // measure 58
0100
0000
1000
0000
0100
0000
0010
0000
0100
0000
1000
0000
0001
0000
1000
0010
,  // measure 59
0000
1000
0001
0000
1000
0100
0000
1000
0001
0000
1000
0000
1002
0000
0000
0000
,  // measure 60
1003
2010
0000
3001
0201
0000
0000
0000
,  // measure 61
0000
0310
1000
0010
1000
0001
1000
0100
,  // measure 62
0010
0000
0001
0000
0010
0000
0100
0000
0010
0000
0001
0000
1000
0000
0001
0100
,  // measure 63
0000
0001
1000
0000
0001
0100
0000
0001
0010
0000
0001
0000
1000
0000
0100
0000
,  // measure 64
0001
0000
0100
0000
1000
0000
0010
0000
0200
0000
0000
0000
0000
0000
0310
1000
,  // measure 65
0000
0010
0100
0000
0010
0001
0000
0010
0100
0000
0001
0000
0001
0000
0010
0000
,  // measure 66
1000
0000
0010
0000
0001
0000
0100
0000
0020
0000
0000
0000
0000
0000
0130
0001
,  // measure 67
0000
0100
0010
0000
0100
1000
0000
0100
0010
0000
1000
0000
0001
0000
0010
0000
,  // measure 68
1000
0000
0010
0000
0100
0000
0010
0000
0002
0000
0000
0000
0000
0000
0013
0001
,  // measure 69
0000
1000
0100
0000
1000
0010
0000
0100
0010
0000
1000
0000
0210
0000
0000
0000
,  // measure 70
0301
0120
0000
1030
0220
0000
0000
0000
,  // measure 71
0000
0000
0000
0000
0000
0000
0000
0000
0030
0000
0000
0000
0301
0100
0001
0100
,  // measure 72
0001
0000
1000
0010
1000
0010
1000
0000
0001
1000
0001
1000
0000
0000
0000
0000
;

//---------------dance-single - Pandemonium X---------------
#NOTEDATA:;
#CHARTNAME:;
#CHARTSTYLE:;
#CREDIT:Pandemonium X;
#STEPSTYPE:dance-single;
#DESCRIPTION:Pandemonium X;
#DIFFICULTY:Challenge;
#METER:17;
#METERF:17;
#RADARVALUES:0,0,0,0,0;
#NOTES:
// measure 0
0000
0000
0000
0000
,  // measure 1
0000
0000
0000
0000
,  // measure 2
0001
0100
0001
0100
0010
0100
0010
0100
0010
1000
0010
1000
0100
0010
0100
0010
,  // measure 3
0001
0010
0001
0010
0100
0010
0100
1000
0200
0000
0000
0000
0320
0000
0000
0000
,  // measure 4
0031
0100
0001
0100
0010
0100
0010
0100
0010
1000
0010
1000
0001
0100
0001
0100
,  // measure 5
0001
0010
0001
0010
0100
1000
0100
1000
0020
0000
0000
0000
0230
0000
0000
0000
,  // measure 6
0301
1000
0001
1000
0100
0010
0100
0010
0001
0010
0001
0010
0100
0010
0100
0010
,  // measure 7
0100
1000
0100
1000
0001
0100
0010
1000
0002
0000
0000
0000
2003
0000
0000
0000
,  // measure 8
3001
0010
0001
0010
0100
1000
0100
1000
0001
1000
0001
1000
0001
0100
0001
0100
,  // measure 9
0001
0000
1000
0100
0000
0001
0100
0000
1000
0010
0000
0001
0010
0000
0100
0001
,  // measure 10
2000
0000
3100
0010
0001
0000
0200
0000
0310
1000
0001
0000
2000
0000
3100
0010
,  // measure 11
0001
0000
0020
0000
0031
0100
0001
0000
1000
0000
0100
0000
0020
0000
0000
0000
,  // measure 12
0130
0000
0010
0001
0100
0000
0020
0000
0130
0001
1000
0000
0002
0000
1003
0100
,  // measure 13
1000
0000
0001
0100
0000
1000
0100
0000
0001
0010
0000
0010
0001
0000
1000
0001
,  // measure 14
0020
0000
0130
1000
0001
0000
2000
0000
3001
0100
0010
0000
0200
0000
0310
1000
,  // measure 15
0001
0000
0020
0000
0130
1000
0001
0000
0100
0000
0010
0000
1000
0001
1000
0002
,  // measure 16
0200
0000
0000
0000
0303
0000
2002
0000
0000
0000
3003
0000
0022
0033
2200
0000
,  // measure 17
0000
0000
0000
0300
,  // measure 18
3001
0000
0000
0100
0000
0000
0001
0000
0000
0100
0000
0000
0001
0000
0000
0100
0000
0000
0010
0000
0100
0000
0010
0000
0100
0000
0000
0010
0000
0000
1000
0000
0000
0001
0000
0000
1000
0000
0000
0100
0000
0000
1000
0000
0000
0100
0000
0000
,  // measure 19
1000
0000
0001
1000
0001
0000
1000
0010
1000
0000
0010
0100
0010
0000
0100
0000
,  // measure 20
0001
0000
1000
0100
1000
0000
0001
1000
0001
0000
1000
0000
0020
0000
0000
0000
,  // measure 21
0130
0000
0010
1000
0010
0000
0100
0010
0100
0000
0001
0100
0001
0000
1000
0000
,  // measure 22
0001
0020
2030
3020
0230
0302
0203
0320
,  // measure 23
0031
0000
1000
0100
1000
0000
0001
0100
0001
0000
1000
0001
1000
0000
0001
0000
,  // measure 24
1000
0000
0010
0100
0010
0000
1000
0010
1000
0000
0001
0000
2000
0000
0000
0000
,  // measure 25
3010
0000
0100
0001
0100
0000
0010
0100
0010
0000
1000
0001
1000
0000
0001
0000
,  // measure 26
1000
0000
0001
0100
0000
0010
0001
0000
0010
1000
0000
1000
0010
0000
0100
0010
,  // measure 27
1000
0000
1000
0010
0100
0000
0002
0000
0000
0000
0103
0010
1000
0000
0002
0000
,  // measure 28
0000
0000
0013
0100
1000
0000
0001
0000
1000
0000
0001
0100
0000
0001
1000
0000
,  // measure 29
0100
0000
0010
0100
1000
0000
0002
0000
0000
0000
0103
0010
1000
0000
0200
0000
,  // measure 30
0000
0000
1300
0000
0100
0000
1000
0000
0001
0000
1000
0000
0001
2000
0000
0000
,  // measure 31
3001
0000
0100
0001
1000
0000
0200
0000
0000
0000
0310
0001
1000
0000
0002
0000
,  // measure 32
0000
0000
0103
0010
1000
0000
0010
0000
1000
0000
0001
0000
0010
0001
0000
1000
,  // measure 33
0001
0100
0001
1000
0010
1000
0100
0010
0100
0010
0001
0100
0010
1000
0010
0100
,  // measure 34
0001
0000
1000
0001
0100
0000
0001
1000
0100
0000
0010
0001
1000
0000
0001
1000
,  // measure 35
0001
0000
0100
1000
0000
0100
0001
0000
0010
1000
0000
0010
0001
0000
1000
0002
,  // measure 36
2000
0000
0000
0003
,  // measure 37
3001
0100
0001
0100
0001
0100
0001
0000
0100
0000
0000
0000
0010
1000
0010
1000
0010
1000
0010
0000
1000
0000
0000
0000
0100
0000
0100
0000
0010
0000
0010
0000
,  // measure 38
0011
0001
0101
1010
1000
1100
0011
1100
,  // measure 39
0001
0101
1010
1100
0011
0110
1100
1001
,  // measure 40
0001
0101
1010
1100
0100
1100
0110
0011
,  // measure 41
1001
0000
0001
0100
0000
010M
1000
0000
1000
0100
0000
M100
0001
0000
0001
0010
,  // measure 42
0M00
M000
1100
0000
0011
0000
1000
0000
1010
0000
0011
0000
1010
0000
0001
0000
,  // measure 43
0101
0000
0000
0000
1100
0000
0000
0000
0101
0000
0000
0000
1100
0000
0000
0000
1001
0000
0000
0000
M000
0000
000M
0M00
1002
0000
0000
0000
0010
0000
0000
0000
,  // measure 44
0100
0000
0000
0000
1003
0000
0000
0000
2001
0000
0000
0000
0100
0000
0000
0000
0010
0000
0000
0000
3001
0000
0000
0000
1000
0010
0100
0001
1000
0100
0010
0000
,  // measure 45
0001
0000
1000
0000
0010
0100
0001
1000
0100
1000
0001
0000
1000
0000
0010
0000
1000
0000
1000
0000
1000
0000
0001
0000
1000
0000
0000
0000
0000
0000
0000
0000
,  // measure 46
0000
0000
0000
0000
0000
0000
0000
0000
0000
0000
0000
0000
0000
0000
0000
0000
0000
0000
0000
0000
0000
0000
0000
0000
0000
0000
0000
0000
0000
0000
0000
0000
0000
0000
0000
0000
0000
0000
0000
0000
0000
0000
0000
0000
0000
0000
0000
0000
0000
0000
0000
0000
0000
0000
0000
0000
0000
0000
0000
0000
0000
0000
0000
0000
0000
0000
0000
0000
0000
0000
0000
0000
0000
0000
0000
0000
0000
0000
0000
0000
0000
0000
0000
0000
0000
0000
0000
0000
0000
0000
0000
0000
0000
0000
0000
0000
0000
0000
0000
0000
0000
0000
0000
0000
0000
0000
0000
0000
0000
0000
0000
0000
0000
0000
0000
0000
0000
0000
0000
0000
0000
0000
0000
0000
0000
0000
0000
0000
0000
0000
0000
0000
0000
0000
0000
0000
0000
0000
0000
0000
0000
0000
0000
0000
0001
0000
0000
0000
0000
0000
0000
0000
0000
0000
0100
0000
0000
0000
0000
0000
0000
0000
0000
0001
0000
0000
0000
0000
0000
0000
0000
0000
0000
0100
0000
0000
0000
0000
0000
0000
0000
0000
0001
0000
0000
0000
0000
0000
0000
0000
0000
0000
,  // measure 47
1000
0000
0000
0000
0000
0000
0000
0000
0000
0000
0100
0000
0000
0000
0000
0000
0000
0000
0000
1000
0000
0000
0000
0000
0000
0000
0000
0000
0000
0100
0000
0000
0000
0000
0000
0000
0000
0000
0010
0000
0000
0000
0000
0000
0000
0000
0000
0000
0001
0000
0000
0000
0000
0000
0000
0000
0000
0000
1000
0000
0000
0000
0000
0000
0000
0000
0000
0001
0000
0000
0000
0000
0000
0000
0000
0000
0000
0100
0000
0000
0000
0000
0000
0000
0000
0000
0010
0000
0000
0000
0000
0000
0000
0000
0000
0000
0100
0000
0000
0000
0000
0000
0000
0000
0000
0000
0000
0000
0001
0000
0000
0000
0000
0000
0000
0000
0000
0000
0000
0000
1000
0000
0000
0000
0000
0000
0000
0000
0000
0000
0001
0000
0000
0000
0000
0000
0000
0000
0000
0000
0000
0000
0000
0000
0100
0000
0000
0000
0000
0000
0000
0000
0000
0000
0000
0000
0001
0000
0000
0000
0000
0000
0000
0000
0000
0000
0000
0000
0100
0000
0000
0000
0000
0000
0000
0000
0000
0000
0000
0000
0001
0000
0000
0000
0000
0000
0000
0000
0000
0000
0000
0000
,  // measure 48
1000
0010
1000
0010
0100
0010
0100
0010
1000
0001
0100
0010
1000
0001
1000
0001
,  // measure 49
0100
0001
0100
0001
1000
0100
1000
0100
1000
0001
0100
0010
2000
0000
3010
0001
,  // measure 50
0010
0000
0200
0000
1300
0100
0001
0000
1000
0000
0001
1000
0002
0000
0103
1000
,  // measure 51
0100
0000
0020
0000
0031
0010
1000
0000
2002
0000
0003
0000
3100
0010
0100
0010
,  // measure 52
0001
0010
0001
1000
0010
1000
0010
0100
0010
1000
0001
0100
0001
1000
0100
0010
,  // measure 53
0100
0010
0001
0010
0001
1000
0001
1000
0001
0100
0010
1000
0002
0000
0103
1000
,  // measure 54
0100
0000
0020
0000
0031
0010
1000
0000
0001
0000
1000
0001
1000
0010
0100
0000
,  // measure 55
1000
0100
0000
0001
1000
0000
0100
0010
0000
0001
0010
0000
2100
0000
3001
1000
,  // measure 56
0020
0000
1000
0000
0130
0001
1000
0000
2001
0000
0000
0000
0000
0000
3002
0000
,  // measure 57
0023
0000
2030
0000
3020
0000
0032
0000
0203
0000
0320
0000
1030
0001
0100
0001
,  // measure 58
1000
0001
1000
0100
0010
0001
1000
0001
1000
0100
0010
0001
1000
0000
0001
0100
,  // measure 59
0000
1000
0100
0000
0010
1000
0000
0010
0001
0000
0010
0100
0002
0000
1003
0100
,  // measure 60
0020
0000
0001
0000
0130
1000
0001
0000
2001
0000
0000
0000
0000
0000
0000
0000
,  // measure 61
0000
0000
3200
0000
0320
0000
2030
0000
3020
0000
0032
0000
1003
0100
0010
0001
,  // measure 62
1000
0010
1000
0001
0010
0100
0010
0001
1000
0010
1000
0001
0010
0000
0001
0100
,  // measure 63
0000
1000
0100
0000
0010
0001
0000
0010
1000
0000
0010
1000
0002
0000
1003
0100
,  // measure 64
0001
0000
0200
0000
1300
0010
0001
0000
0220
0000
0000
0000
0330
0000
1000
0010
,  // measure 65
0000
0100
0001
0000
1000
0100
0000
0010
0001
0000
1000
0001
2000
0000
3001
0010
,  // measure 66
1000
0000
0020
0000
0031
0100
1000
0000
0220
0000
0000
0000
0330
0000
0001
0100
,  // measure 67
0000
0010
1000
0000
0001
0010
0000
0100
1000
0000
0001
1000
0002
0000
1003
0100
,  // measure 68
0001
0000
0200
0000
1300
0010
0001
0000
0220
0000
0000
0000
0330
0000
0100
0001
,  // measure 69
0000
0010
0100
0000
0010
0001
0000
1000
0100
0000
0010
0100
2200
0000
0000
3300
,  // measure 70
0022
0033
2200
0000
0000
3300
0202
0303
2020
0000
0000
0000
0000
0000
0000
0000
,  // measure 71
0000
0000
0000
0000
0000
0000
0000
0000
0000
0000
0000
0000
0000
0000
0000
3000
0000
0000
1030
0001
0100
0001
1000
0001
,  // measure 72
1000
0000
0000
0000
0000
0000
1000
0000
0100
0000
1000
0000
0001
0000
1000
0000
0001
0000
1000
0000
0000
0000
0000
0000
0010
0000
0000
0100
0000
0000
0010
0000
0000
0100
0000
0000
0000
0000
0000
0000
0000
0000
0000
0000
0000
0000
0000
0000
;

//---------------dance-single - ---------------
#NOTEDATA:;
#CHARTNAME:;
#CHARTSTYLE:;
#CREDIT:Pandemonium X;
#STEPSTYPE:dance-single;
#DESCRIPTION:;
#DIFFICULTY:Medium;
#METER:11;
#METERF:11;
#RADARVALUES:0,0,0,0,0;
#NOTES:
// measure 0
0000
0000
0000
0000
,  // measure 1
0000
0000
0000
0000
,  // measure 2
0201
0310
0102
0013
,  // measure 3
0201
0000
0310
0000
0100
0010
1001
0000
,  // measure 4
1020
0130
2010
3100
,  // measure 5
1020
0000
0130
0000
0010
1000
1001
0000
,  // measure 6
1200
0310
0021
0130
,  // measure 7
1200
0000
0310
0000
0010
0100
1100
0000
,  // measure 8
0021
0130
1200
0310
,  // measure 9
0001
0000
1000
0001
0000
1000
0001
0000
0001
1000
0000
0001
1000
0000
0001
0000
,  // measure 10
0200
0000
0301
0020
0000
0130
2000
0000
,  // measure 11
3001
0200
0000
0310
0001
0010
1000
0000
,  // measure 12
0001
0000
1000
0200
0000
0301
0200
0000
,  // measure 13
0310
0000
0001
0100
0000
0001
0100
0000
0010
1000
0000
0010
1000
0000
0001
0000
,  // measure 14
0020
0000
0130
2000
0000
3001
0200
0000
,  // measure 15
0310
2000
0000
3001
0100
0010
1000
0001
,  // measure 16
0020
0000
0000
0230
0000
0000
1300
2002
,  // measure 17
0000
0000
0000
0000
,  // measure 18
3003
0000
0000
0000
,  // measure 19
0001
1000
0100
0010
,  // measure 20
0100
0000
1000
0000
0001
0000
0100
0001
,  // measure 21
1000
0001
0010
0001
,  // measure 22
0000
0100
0010
0100
0001
1000
0100
0010
,  // measure 23
0001
1000
0100
1000
,  // measure 24
0001
0000
0100
0000
0010
1000
0001
0000
,  // measure 25
0010
0100
0010
0001
,  // measure 26
0000
1000
0001
0100
0001
1000
0100
0010
,  // measure 27
0001
1000
0001
0020
0000
0031
1000
0020
,  // measure 28
0000
0230
0000
0320
0000
0230
0000
0302
,  // measure 29
0000
1003
0100
0020
0000
0130
1000
0002
,  // measure 30
0000
2003
0000
3020
0000
0230
0000
0301
,  // measure 31
1000
0100
0010
0002
0000
0013
0100
2000
,  // measure 32
0000
3002
0000
0023
0000
0032
0000
2003
,  // measure 33
0000
3001
0100
0010
1000
0001
0100
0002
,  // measure 34
0000
2003
0000
3020
0000
0230
0000
0020
,  // measure 35
0000
0000
0000
0000
,  // measure 36
0330
0000
0000
0000
,  // measure 37
0000
0000
0000
0000
,  // measure 38
0000
1000
0001
1000
0000
0100
0010
0001
,  // measure 39
0000
0010
0100
1000
0010
0100
0001
1000
,  // measure 40
0000
0001
0100
0010
0000
0010
1000
0100
,  // measure 41
0000
0100
0010
0001
0010
0100
1000
0001
,  // measure 42
0000
1000
0010
0000
0010
0100
0001
0000
,  // measure 43
0001
1000
0001
0010
0100
0000
0000
0100
,  // measure 44
0010
0001
0000
0001
0010
0100
0000
0100
,  // measure 45
0010
0100
1000
0010
0100
0001
1001
0000
,  // measure 46
0000
0000
0000
0000
,  // measure 47
0000
0000
0000
1001
,  // measure 48
1000
0100
0010
0100
,  // measure 49
1000
0001
0100
0002
,  // measure 50
0000
2003
0000
3100
0010
0001
2000
0000
,  // measure 51
0000
3002
0000
0000
2003
3000
0001
0000
,  // measure 52
1000
0010
0100
0010
,  // measure 53
1000
0001
0010
0002
,  // measure 54
0000
2003
0000
3010
0100
0001
2000
0000
,  // measure 55
0000
3002
0000
0000
0000
2003
3200
0000
,  // measure 56
1300
0002
0000
0103
0002
0000
0000
1003
,  // measure 57
0100
1000
0100
0010
0001
1000
0001
0100
,  // measure 58
0010
1000
0001
0100
0010
1000
0001
1000
,  // measure 59
0001
0200
0000
0301
1000
0001
0020
0000
,  // measure 60
0130
2000
0000
3100
0020
0000
0000
0000
,  // measure 61
0000
0031
1000
0001
1000
0001
0010
0001
,  // measure 62
1000
0100
0010
0001
1000
0010
1000
0100
,  // measure 63
1000
0002
0000
1003
0010
0100
0002
0000
,  // measure 64
1003
0000
0200
0000
0000
0000
0310
0000
0200
0000
0000
0000
0000
0000
1300
0001
,  // measure 65
0000
1000
0001
0000
0001
1000
0000
0001
1000
0000
0001
0000
2000
0000
0000
0000
,  // measure 66
3001
0000
0020
0000
0000
0000
0130
0000
0020
0000
0000
0000
0000
0000
0031
1000
,  // measure 67
0000
0001
1000
0000
1000
0001
0000
1000
0001
0000
1000
0000
0200
0000
0000
0000
,  // measure 68
0310
0000
0002
0000
0000
0000
1003
0000
0002
0000
0000
0000
0000
0000
1003
0010
,  // measure 69
0000
1000
0010
0000
0100
0001
0000
0100
0001
0000
1000
0000
1001
0000
0000
0000
,  // measure 70
0100
0110
0000
0010
2002
0000
0000
0000
,  // measure 71
0000
0000
0000
0000
3003
0000
0001
0001
,  // measure 72
1000
0000
0001
0000
0001
0000
0100
0000
0001
1000
0001
1000
0000
0000
0000
0000
;

//---------------dance-double - ---------------
#NOTEDATA:;
#CHARTNAME:;
#CHARTSTYLE:;
#CREDIT:Pandemonium X;
#STEPSTYPE:dance-double;
#DESCRIPTION:;
#DIFFICULTY:Challenge;
#METER:16;
#METERF:16;
#RADARVALUES:0,0,0,0,0;
#NOTES:
// measure 0
00000000
00000000
00000000
00000000
,  // measure 1
00000000
00000000
00000000
00000000
,  // measure 2
10000000
00000000
00010000
01000000
00010000
00000000
01000000
00100000
01000000
00000000
00100000
10000000
00100000
00000000
01000000
00000000
,  // measure 3
00010000
00000000
00100000
00010000
00100000
00000000
00010000
01000000
00002000
00000000
00000000
00000000
00023000
00000000
00000000
00000000
,  // measure 4
00030100
00000000
00001000
00000010
00001000
00000000
00000010
00000100
00000010
00000000
00000100
00000001
00000100
00000000
00000001
00000000
,  // measure 5
00000010
00000000
00000001
00001000
00000001
00000000
00001000
00000100
00020000
00000000
00000000
00000000
00032000
00000000
00000000
00000000
,  // measure 6
01003000
00000000
00010000
00100000
01000000
00000000
00100000
00010000
10000000
00000000
00010000
01000000
00001000
00000000
00010000
00000000
,  // measure 7
00000100
00000000
00001000
00000010
00000100
00000000
00000001
00001000
00000200
00000000
00000000
00000000
00020300
00000000
00000000
00000000
,  // measure 8
00031000
00000000
00100000
00001000
00010000
00000000
00001000
01000000
00010000
00000000
01000000
00010000
10000000
00000000
01000000
00000000
,  // measure 9
00100000
00000000
00010000
00100000
00000000
00100000
00001000
00000000
00001000
00010000
00000000
00010000
00000100
00000000
00000100
00000010
,  // measure 10
00000001
00000000
00000100
00000010
00000100
00000000
00000010
00000000
00001000
00000100
00001000
00000000
00000100
00000000
00010000
00001000
,  // measure 11
00010000
00000000
00001000
00000000
01000000
00001000
01000000
00000000
00100000
00000000
00010000
00000000
00100000
00000000
10000000
00000000
,  // measure 12
01000000
00000000
00100000
00010000
01000000
00000000
00100000
00000000
01000000
00010000
10000000
00000000
00010000
00000000
00100000
00010000
,  // measure 13
01000000
00000000
00010000
00100000
00000000
00100000
00001000
00000000
00001000
00010000
00000000
00010000
00000010
00000000
00000100
00000001
,  // measure 14
00001000
00000000
00000100
00000010
00000100
00000000
00000010
00000000
00000001
00000100
00000001
00000000
00000100
00000000
00000010
00001000
,  // measure 15
00000010
00000000
00000100
00000000
00000010
00000100
00000010
00000000
00001000
00000000
00001000
00000000
00000100
00000000
00000100
00000000
,  // measure 16
00001100
00000000
00000000
01010000
00000000
00000000
00110000
00022000
,  // measure 17
00000000
00000000
00000000
00033000
,  // measure 18
00001000
00000000
00010000
00000000
00001000
00000000
00010000
00000000
00001000
00000000
00010000
00000000
00001000
00000000
00000000
00010000
00000000
00000000
00001000
00000000
00010000
00000000
00001000
00000000
00010000
00000000
00000000
00001000
00000000
00000000
00010000
00000000
00000000
00001000
00000000
00000000
00010000
00000000
00000000
00001000
00000000
00000000
00010000
00000000
00000000
00001000
00000000
00000000
,  // measure 19
00010000
00000100
00001000
00000010
00000100
00000001
00000010
00000100
,  // measure 20
00000010
00000000
00000001
00000000
00000100
00000000
00000010
00000000
00001000
00000000
00000100
00010000
00001000
00000000
00000000
00000000
,  // measure 21
00010000
00001000
00100000
00010000
10000000
00010000
01000000
00001000
,  // measure 22
00010000
00002000
00203000
02300000
23000000
32000000
03020000
00032000
,  // measure 23
00013000
00000100
00001000
00000010
00000100
00000001
00001000
00000100
,  // measure 24
00000010
00000000
00000100
00000000
00001000
00000000
00000010
00000000
00000100
00000000
00000001
00001000
00000100
00000000
00000000
00000000
,  // measure 25
00001000
00000100
00010000
00001000
01000000
00001000
00010000
00100000
,  // measure 26
01000000
00000000
01000000
00100000
00000000
00100000
01000000
00000000
01000000
10000000
00000000
10000000
00010000
00000000
00010000
01000000
,  // measure 27
00100000
00000000
01000000
00010000
00100000
00000000
00002000
00000000
00000000
00000000
00013000
00000100
00001000
00000000
00000020
00000000
,  // measure 28
00000000
00000230
00000000
00000302
00000000
00002003
00000000
00003200
,  // measure 29
00000310
00000000
00000100
00001000
00000001
00000000
00002000
00000000
00000000
00000000
00003100
00010000
00001000
00000000
00020000
00000000
,  // measure 30
00000000
00032000
00000000
02003000
00000000
03200000
00000000
20300000
,  // measure 31
31000000
00000000
00100000
00010000
01000000
00000000
00020000
00000000
00000000
00000000
00130000
00001000
00010000
00000000
00002000
00000000
,  // measure 32
00000000
00023000
00000000
00030200
00000000
00002300
00000000
00003010
,  // measure 33
00000002
00000023
00002030
00023000
00230000
20300000
32000000
03200000
,  // measure 34
00000000
00320000
00000000
00032000
00000000
00003020
00000000
00000032
,  // measure 35
00000000
00000000
00001003
00000010
00000000
00000010
00000100
00000000
00000100
00000001
00000000
00000001
00000100
00000010
00001000
00000100
,  // measure 36
00020000
00000000
00000000
00000000
,  // measure 37
00031000
00010000
00001000
00010000
00001000
00000000
00010000
00000000
00001000
00000000
00000000
00000000
00010000
00001000
00010000
00001000
00010000
00000000
00001000
00000000
00010000
00000000
00000000
00000000
00001000
00000000
00010000
00000000
00001000
00000000
00010000
00000000
,  // measure 38
00001000
00000000
01010000
00011000
00000000
00011000
00001100
00011000
,  // measure 39
00000000
00001100
00011000
01001000
00011000
00010100
00011000
00010100
,  // measure 40
00000000
00000000
00011000
01001000
00000000
01001000
00011000
00010100
,  // measure 41
00000000
00011000
00001100
00011000
01001000
00011000
00010100
00011000
,  // measure 42
MMMMMMMM
00101000
00011000
00000000
00010010
00011000
00010010
00000000
,  // measure 43
00010010
00011000
00101000
00011000
00101000
MMMMMMMM
00011000
00101000
,  // measure 44
00001010
00011000
00100010
00011000
00110000
00001010
00100010
00011000
,  // measure 45
00101000
10010000
10100000
01001000
00010100
00100010
00022000
00000000
,  // measure 46
00000000
00000000
00000000
00000000
00000000
00000000
00033000
00000000
00000000
00000000
00000000
00000000
00000000
00000000
00000000
00000000
00000000
00000000
00010000
00001000
00010000
00001000
00010000
00001000
,  // measure 47
00010000
00000000
00000000
00001000
00000000
00000000
00010000
00000000
00000000
00001000
00000000
00000000
00010000
00000000
00001000
00000000
00010000
00000000
00001000
00000000
00010000
00000000
00001000
00000000
00010000
00000000
00000000
00001000
00000000
00000000
00010000
00000000
00000000
00001000
00000000
00000000
00010000
00000000
00000000
00000100
00000000
00000000
00010000
00000000
00000000
00000000
00000000
00000000
,  // measure 48
00000100
00001000
00000100
00000000
00001000
00000010
00001000
00000010
00000100
00000010
00000100
00000010
00001000
00000001
00001000
00000000
,  // measure 49
00000001
00000010
00000001
00000000
00000010
00000100
00000010
00000100
00001000
00000100
00001000
00000100
00020000
00000000
00000000
00000000
,  // measure 50
00000000
00030000
000M2000
00000000
00000000
00000000
00013000
00000000
00001000
00000000
01000000
00000000
00200000
00000000
00000000
00000000
,  // measure 51
00000000
00300000
02M00000
00000000
00000000
00000000
00000000
03000000
0M200000
00000000
00000000
00000000
10300000
01M00000
10000000
00000000
,  // measure 52
00010000
01000000
00010000
00000000
00100000
00010000
00100000
00010000
10000000
00010000
10000000
00010000
01000000
00010000
01000000
00000000
,  // measure 53
00010000
00100000
00010000
00000000
00100000
00001000
00100000
00001000
00010000
00001000
00010000
00001000
00020000
00000000
00000000
00000000
,  // measure 54
00000000
00030000
000M0200
00000000
00000000
00000000
00001300
00000000
00000M10
00000000
00001000
00000000
00000001
00000100
00000001
00000000
,  // measure 55
00000001
00001000
00000000
00001000
00000100
00000000
00000100
00000010
00000000
00000010
00000100
00000000
00001200
00000000
00000000
00000000
,  // measure 56
00010300
00012M00
00000000
00103000
0022M000
00000000
00330000
00100000
,  // measure 57
01000000
00000000
10000000
00000000
01000000
00000000
00010000
00000000
01000000
00000000
10000000
00000000
00010000
01000000
00010000
01000000
,  // measure 58
00100000
10000000
00100000
10000000
00010000
10000000
00010000
10000000
00010000
00100000
00010000
00100000
00001000
00000000
00010000
00001000
,  // measure 59
00000000
00001000
00100000
00000000
00100000
00001000
00000000
00010000
00000010
00000000
00000010
00000100
00000002
00000000
00000000
00000000
,  // measure 60
00001003
0000120M
00000000
00010300
00022M00
00000000
00000000
00000000
,  // measure 61
00033000
00000000
00010000
00000000
00000100
00000000
00001000
00000000
00000100
00000000
00001000
00000000
00000100
00000010
00000100
00000010
,  // measure 62
00000001
00000010
00000001
00000010
00000001
00000100
00000001
00000100
00000010
00001000
00000010
00000100
00000001
00000000
00000001
00000100
,  // measure 63
00000000
00000100
00000010
00000000
00000010
00001000
00000000
00001000
00000100
00000000
00001000
00000100
00020000
00000000
00000000
00000000
,  // measure 64
00031000
00000000
0102M000
00000000
00000000
00000000
01030000
00000000
1M020000
00000000
00000000
00000000
00000000
00000000
10030000
01000000
,  // measure 65
00000000
01000000
00100000
00000000
00100000
00001000
00000000
00001000
00010000
00000000
00010000
00000100
00002000
00000000
00000000
00000000
,  // measure 66
00003001
00000000
0000M120
00000000
00000000
00000000
00001030
00000000
0000M102
00000000
00000000
00000000
00000000
00000000
00000103
00000010
,  // measure 67
00000000
00000010
00001000
00000000
00001000
00000100
00000000
00000100
00001000
00000000
00000100
00010000
00002000
00000000
00000000
00000000
,  // measure 68
00013000
00000000
0021M000
00000000
00000000
00000000
01300000
00000000
2M010000
00000000
00000000
00000000
00000000
00000000
31000000
00100000
,  // measure 69
00000000
00100000
01000000
00000000
01000000
10000000
00000000
10000000
00010000
00000000
10000000
00000000
20020000
00000000
00000000
00000000
,  // measure 70
3003MMMM
00000000
00000000
00000000
00000000
00000000
00022000
00000000
00000000
00000000
00000000
00000000
00000000
00000000
00000000
00033000
00000000
00000000
00000000
00000000
MMMM0000
00000000
00000000
00000000
00002002
00000000
00000000
00000000
00000000
00000000
00000000
00000000
00000000
00000000
00000000
00000000
00000000
00000000
00000000
00000000
00000000
00000000
00000000
00000000
00000000
00000000
00000000
00000000
,  // measure 71
00000000
00000000
00000000
00000000
00000000
00000000
00000000
00000000
00000000
00000000
00000000
00000000
00000000
00000000
00000000
00000000
00000000
00000000
00000000
00000000
00000000
00000000
00000000
00000000
00000000
00000000
00000000
00000003
00000000
00000000
00000000
00000000
00000000
00000000
00000000
00000000
00003001
00000000
00001000
00000000
00000001
00000000
00001000
00000000
00000001
00000000
00001000
00000000
,  // measure 72
00000001
00000000
00000000
00000000
00000000
00000000
00001000
00000000
00000001
00000000
00001000
00000000
00000001
00000000
00000000
00001000
00000000
00000000
00000001
00000000
00000000
00000000
00000000
00000000
00001000
00000000
00000000
00000001
00000000
00000000
00001000
00000000
00000000
00000001
00000000
00000000
00000000
00000000
00000000
00000000
00000000
00000000
00000000
00000000
00000000
00000000
00000000
00000000
;

//---------------dance-double - ---------------
#NOTEDATA:;
#CHARTNAME:;
#CHARTSTYLE:;
#CREDIT:Pandemonium X;
#STEPSTYPE:dance-double;
#DESCRIPTION:;
#DIFFICULTY:Hard;
#METER:12;
#METERF:12;
#RADARVALUES:0,0,0,0,0;
#NOTES:
// measure 0
00000000
00000000
00000000
00000000
,  // measure 1
00000000
00000000
00000000
00000000
,  // measure 2
00001000
00100000
00010000
10000000
,  // measure 3
00100000
01000000
10010000
01010000
,  // measure 4
00010000
00100000
00001000
00010000
,  // measure 5
00000010
00000100
00000101
00001010
,  // measure 6
00001000
00000001
00000010
00000100
,  // measure 7
00001000
00000100
00001100
00011000
,  // measure 8
00001000
01000000
00010000
00100000
,  // measure 9
01000000
00100000
00110000
00011000
,  // measure 10
00000100
00000000
00001000
00000010
00000000
00000100
00000001
00000000
,  // measure 11
00000010
00000100
00000000
00000010
00000001
00000100
00001000
00000100
,  // measure 12
00000001
00000000
00001000
00000100
00000000
00010000
00001000
00000000
,  // measure 13
00100000
00001000
00000000
01000000
01010000
00000000
00000000
00000000
,  // measure 14
10010000
00000000
00010000
10000000
00000000
01000000
00100000
00000000
,  // measure 15
01000000
10000000
00000000
00100000
01000000
00010000
00100000
00001000
,  // measure 16
00101000
00000000
00000000
00010100
00000000
00000000
00001010
00002002
,  // measure 17
00000000
00000000
00000000
00000000
00000000
00000000
00000000
00003003
,  // measure 18
00000001
00001000
00000001
00000000
00001000
00000000
00000010
00000100
00000010
00000000
00001000
00000000
00000001
00001000
00000001
00001000
,  // measure 19
00000001
00000010
00000001
00000100
00000000
00001000
00000000
00010000
,  // measure 20
00000000
00100000
00000000
10000000
00000000
00010000
10000000
00000000
,  // measure 21
10000000
01000000
00100000
01000000
00000000
00100000
00000000
00010000
,  // measure 22
00000000
00100000
00010000
00100000
00001000
00010000
00001000
01000000
,  // measure 23
00010000
00100000
01000000
00100000
00000000
00001000
00000000
00010000
,  // measure 24
00000000
00000100
00000000
00001000
00000000
00000001
00001000
00000000
,  // measure 25
00000001
00000100
00000010
00001000
00000000
00000100
00000000
00000010
,  // measure 26
00000000
00000001
00000100
00001000
00010000
00001000
01000000
00001000
,  // measure 27
00010000
00000100
00001000
00000020
00000000
00000130
00001000
00020000
,  // measure 28
00000000
00032000
00000000
02003000
00000000
03020000
00000000
00230000
,  // measure 29
00000000
10300000
00100000
00020000
00000000
00130000
01000000
20000000
,  // measure 30
00000000
30020000
00000000
02030000
00000000
03002000
00000000
00013000
,  // measure 31
00001000
00010000
00000010
00000200
00000000
00000310
00001000
00000002
,  // measure 32
00000000
00000023
00000000
00002030
00000000
00003020
00000000
00000130
,  // measure 33
00000010
00000001
00000100
00001000
00010000
00100000
10000000
00020000
,  // measure 34
00000000
20030000
00000000
32000000
00000000
03200000
00000000
00302000
,  // measure 35
00000000
00000000
00013000
00000100
00000000
00010000
00000100
00000000
00010000
00001000
00000000
00010000
00001000
00000000
01000000
00000000
,  // measure 36
01001000
00000000
00000000
00000000
,  // measure 37
00001000
00000000
00010000
00001000
00010000
00000000
00001000
00000000
00010000
00001000
00010000
00000000
00001000
00010000
00001000
00010000
,  // measure 38
00001000
00000000
00010000
00000100
00000000
00001000
00000010
00000100
,  // measure 39
00000000
00000001
00000100
00001000
00010000
00100000
10000000
00010000
,  // measure 40
00000000
00100000
01000000
00100000
00000000
01000000
10000000
01000000
,  // measure 41
00000000
10000000
01000000
00100000
00010000
00001000
00000100
00000010
,  // measure 42
00000000
00001100
00000100
00000000
00001000
00000010
00000100
00000000
,  // measure 43
00000100
00001000
00010000
00100000
01000000
00000000
00010000
10000000
,  // measure 44
01000000
00100000
00000000
01000000
10000000
00010000
00000000
00100000
,  // measure 45
00010000
00001000
00000100
00000010
00000001
00001000
00002010
00000000
,  // measure 46
00000000
00000000
00000000
00003000
,  // measure 47
00000000
00000000
00000000
00000000
00000000
00000000
00000010
00000100
,  // measure 48
00000001
00001000
00000100
00000010
00000100
00001000
00000100
00010000
,  // measure 49
00001000
01000000
00001000
00010000
00001000
00100000
00020000
00000000
,  // measure 50
00130000
02000000
00000000
03010000
01000000
10000000
00200000
00000000
,  // measure 51
00310000
00200000
00000000
02300000
03020000
00000000
10030000
01000000
,  // measure 52
00100000
00010000
00100000
10000000
00100000
00010000
01000000
00001000
,  // measure 53
00010000
00000100
00001000
00000010
00000001
00000010
00000200
00000000
,  // measure 54
00000301
00000000
00002000
00000000
00000000
00000000
00003100
00000000
00001000
00000000
00000001
00000000
00001000
00000100
00001000
00000000
,  // measure 55
00000100
00010000
00000000
00010000
00001000
00000000
00001000
01000000
00000000
01000000
00100000
00000000
10100000
00000000
00000000
00000000
,  // measure 56
10000000
11000000
00000000
00010000
00210000
00000000
00000000
01300000
,  // measure 57
00010000
00000000
01000000
00000000
10000000
00000000
00010000
00000000
01000000
00000000
00001000
00000000
00010000
00001000
00010000
00000000
,  // measure 58
00000100
00001000
00000100
00000000
00001000
00000001
00001000
00000000
00000001
00000100
00000001
00000000
00001000
00000000
00000100
00000000
,  // measure 59
00000010
00000200
00000000
00000310
00000001
00001000
00001001
00000000
,  // measure 60
00000001
00001001
00000000
00001000
00001200
00000000
00000000
00000000
,  // measure 61
00000000
00010300
00001000
01000000
00001000
01000000
00010000
00100000
,  // measure 62
10000000
00000000
00100000
00000000
00010000
00000000
01000000
00000000
00100000
00000000
00010000
00000000
00100000
00000000
01000000
00010000
,  // measure 63
00000000
00010000
00100000
00000000
00100000
01000000
00000000
01000000
10000000
00000000
00010000
10000000
00010000
00000000
00000000
00000000
,  // measure 64
10000000
00000000
00200000
00000000
00000000
00000000
01300000
00000000
00020000
00000000
00000000
00000000
00000000
00000000
00130000
01000000
,  // measure 65
00000000
01000000
10000000
00000000
10000000
00010000
00000000
00010000
01000000
00000000
00010000
00000000
00200000
00000000
00000000
00000000
,  // measure 66
00001000
00000000
00320000
00000000
00000000
00000000
00030010
00000000
00000200
00000000
00000000
00000000
00000000
00000000
00000310
00001000
,  // measure 67
00000000
00001000
00000001
00000000
00000001
00001000
00000000
00001000
00000100
00000000
00000010
00000000
00000200
00000000
00000000
00000000
,  // measure 68
00001300
00000000
00000020
00000000
00000000
00000000
00010030
00000000
00002000
00000000
00000000
00000000
00000000
00000000
00013000
00000100
,  // measure 69
00000000
00000100
00010000
00000000
00010000
00001000
00000000
00001000
01000000
00000000
00100000
00000000
10100000
00000000
00000000
00000000
,  // measure 70
00000000
01010000
00000000
00000000
00202000
00000000
00000000
00000000
,  // measure 71
00000000
00000000
00000000
00000000
00000000
00000000
00000000
00000000
00303000
00000000
00000000
00000000
00100000
00000000
00001000
00010000
,  // measure 72
00001000
00000000
00010000
00000000
00000010
00010000
00000010
00000000
00010000
00001000
00010000
00001000
00000000
00000000
00000000
00000000
;

//---------------dance-double - ---------------
#NOTEDATA:;
#CHARTNAME:;
#CHARTSTYLE:;
#CREDIT:Pandemonium X;
#STEPSTYPE:dance-double;
#DESCRIPTION:;
#DIFFICULTY:Medium;
#METER:10;
#METERF:10;
#RADARVALUES:0,0,0,0,0;
#NOTES:
// measure 0
00000000
00000000
00000000
00000000
,  // measure 1
00000000
00000000
00000000
00000000
,  // measure 2
00010000
00001000
00010000
00001000
,  // measure 3
00010000
00001000
00011000
00011000
,  // measure 4
00001000
00010000
00001000
00010000
,  // measure 5
00001000
00010000
00011000
00011000
,  // measure 6
00010000
00000100
00010000
00000100
,  // measure 7
00010000
00000100
00010100
00011000
,  // measure 8
00001000
01000000
00001000
01000000
,  // measure 9
00001000
01000000
01001000
00011000
,  // measure 10
00010000
00000000
00000000
00000100
00000000
00000000
00001000
00000000
,  // measure 11
00000000
00000010
00000000
00000000
00000100
00000001
00001000
00000000
,  // measure 12
00000100
00000000
00000000
00000010
00000000
00000000
00000100
00000000
,  // measure 13
00000000
00010000
00000000
00000000
00011000
00000000
00000000
00000000
,  // measure 14
00001000
00000000
00000000
01000000
00000000
00000000
00010000
00000000
,  // measure 15
00000000
00100000
00000000
00000000
01000000
00100000
00010000
10000000
,  // measure 16
10100000
00000000
00000000
01010000
00000000
00000000
10010000
20020000
,  // measure 17
00000000
00000000
00000000
00000000
,  // measure 18
30030000
00000000
00000000
00000000
,  // measure 19
10000000
00010000
00100000
00001000
,  // measure 20
00010000
00000000
00000010
00000000
00000100
00000000
00000001
00000010
,  // measure 21
00000100
00000010
00000001
00000100
,  // measure 22
00000001
00000100
00000010
00001000
00000010
00010000
00001000
00010000
,  // measure 23
00001000
01000000
00010000
10000000
,  // measure 24
01000000
00000000
10000000
00000000
00010000
01000000
00010000
00000000
,  // measure 25
00100000
01000000
10000000
00010000
,  // measure 26
00000000
10000000
00010000
00100000
00001000
00100000
00001000
00010000
,  // measure 27
00000100
00001000
00000001
00000100
00000000
00000100
00000010
00001000
,  // measure 28
00000000
00000001
00000000
00000010
00000000
00000001
00000000
00001000
,  // measure 29
00000000
00000010
00001000
00000010
00000000
00001000
00000100
00010000
,  // measure 30
00000000
00001000
00000000
01000000
00000000
00010000
00000000
10000000
,  // measure 31
01000000
00100000
00010000
10000000
00000000
00100000
10000000
00010000
,  // measure 32
00000000
00100000
00000000
01000000
00000000
00100000
00000000
00001000
,  // measure 33
00010000
00000100
00001000
00000010
00000100
00000001
00000010
00000100
,  // measure 34
00000000
00000010
00000000
00000001
00000000
00001000
00000000
00000020
,  // measure 35
00000000
00000000
00000000
00000000
,  // measure 36
00010030
00000000
00000000
00000000
,  // measure 37
00000000
00000000
00000000
00000000
,  // measure 38
00000000
00000000
00001000
00010000
00000000
00001000
01000000
00001000
,  // measure 39
00000000
01000000
00100000
01000000
00010000
01000000
00100000
01000000
,  // measure 40
00000000
00100000
10000000
00100000
00000000
10000000
00010000
10000000
,  // measure 41
00000000
00010000
00100000
00010000
10000000
01000000
00100000
00001000
,  // measure 42
00000000
00010000
00001000
00000000
00010000
00000100
00010000
00000000
,  // measure 43
00000100
00001000
00000100
00000010
00000100
00000000
00000000
00001000
,  // measure 44
00000100
00001000
00000000
00000001
00000100
00000001
00000000
00000100
,  // measure 45
00000010
00001000
00000100
00010000
00001000
01000000
01001000
00000000
,  // measure 46
00000000
00000000
00000000
00000000
,  // measure 47
00000000
00000000
00000000
01000000
,  // measure 48
00010000
00100000
01000000
10000000
,  // measure 49
00010000
01000000
00001000
00020000
,  // measure 50
00000000
00030200
00000000
00001300
00000010
00000100
00000002
00000000
,  // measure 51
00000000
00002003
00000000
00000000
00003200
00000000
00000310
00000000
,  // measure 52
00000100
00001000
00000001
00000100
,  // measure 53
00000010
00001000
00000100
00020000
,  // measure 54
00000000
00031000
00000000
00010000
00001000
01000000
00020000
00000000
,  // measure 55
00000000
00230000
00000000
00000000
00000000
01300000
11000000
00000000
,  // measure 56
00000000
00110000
00000000
00000000
01010000
00000000
00000000
00000000
,  // measure 57
00010000
01000000
01000000
00010000
,  // measure 58
00100000
00001000
00010000
00000010
,  // measure 59
00000100
00001000
00000001
00000101
,  // measure 60
00000000
00000011
00000000
00000000
00001001
00000000
00000000
00000000
,  // measure 61
00000000
00000001
00000001
00000100
,  // measure 62
00000010
00001000
00000100
00010000
,  // measure 63
00001000
01000000
00010000
00110000
,  // measure 64
00000000
11000000
00000000
00000000
10010000
00000000
00000000
00000000
,  // measure 65
00010000
01000000
00001000
00011000
,  // measure 66
00000000
00110000
00000000
00000000
00101000
00000000
00000000
00000000
,  // measure 67
00001000
00010000
00000100
00001100
,  // measure 68
00000000
00000011
00000000
00000000
00001001
00000000
00000000
00000000
,  // measure 69
00000001
00000100
00000010
00001010
,  // measure 70
00000000
00011000
00000000
00000000
00110000
00000000
00000000
00000000
,  // measure 71
00000000
00000000
00000000
02000000
,  // measure 72
00000000
00000000
00000000
03000000
;

//---------------dance-double - ---------------
#NOTEDATA:;
#CHARTNAME:;
#CHARTSTYLE:;
#CREDIT:Pandemonium X;
#STEPSTYPE:dance-double;
#DESCRIPTION:;
#DIFFICULTY:Easy;
#METER:6;
#METERF:6;
#RADARVALUES:0,0,0,0,0;
#NOTES:
// measure 0
00000000
00000000
00000000
00000000
,  // measure 1
00000000
00000000
00000000
00000000
,  // measure 2
00001000
00000000
00010000
00000000
,  // measure 3
00001000
00000000
00100000
00001000
,  // measure 4
00010000
00000000
00001000
00000000
,  // measure 5
00010000
00000000
00000100
00010000
,  // measure 6
00001000
00000000
01000000
00000000
,  // measure 7
00010000
00000000
00100000
01000000
,  // measure 8
00100000
00000000
01000000
00000000
,  // measure 9
10000000
00000000
00010000
10000000
,  // measure 10
00100000
00000000
01000000
00000000
,  // measure 11
00010000
00000000
00100000
01000000
,  // measure 12
00100000
00000000
00001000
00000000
,  // measure 13
00010000
00000100
00001000
00000000
,  // measure 14
00000001
00000000
00001000
00000000
,  // measure 15
00000010
00000000
00000100
00000001
,  // measure 16
00001000
00000000
00000000
00000100
00000000
00000000
00010000
00002000
,  // measure 17
00000000
00000000
00000000
00000000
,  // measure 18
00003000
00000000
00000000
00000000
,  // measure 19
00010000
00001000
01000000
00010000
,  // measure 20
00100000
01000000
10000000
00010000
,  // measure 21
10000000
00100000
01000000
00010000
,  // measure 22
00100000
00100000
00001000
00001000
,  // measure 23
00010000
00000100
00001000
00000010
,  // measure 24
00000100
00000001
00000010
00000001
,  // measure 25
00001000
00000100
00001000
00000010
,  // measure 26
00001000
00001000
00000100
00000100
,  // measure 27
00010000
00000000
00000000
00001000
00000000
00000000
00000000
01000000
,  // measure 28
00000000
00010000
00000000
10000000
00000000
01000000
00000000
00100000
,  // measure 29
00000000
00000000
00000000
01000000
00000000
00000000
00000000
10000000
,  // measure 30
00000000
01000000
00000000
10000000
00000000
00010000
00000000
00000000
,  // measure 31
01000000
00000000
00000000
00010000
00000000
00000000
00000000
00100000
,  // measure 32
00000000
00001000
00000000
00100000
00000000
00001000
00000000
00010000
,  // measure 33
00000100
00000000
00001000
00000000
00000010
00000000
00000000
00000100
,  // measure 34
00000000
00000001
00000000
00001000
00000000
00000200
00000000
00020000
,  // measure 35
00000000
00000000
00000000
00000000
,  // measure 36
00030300
00000000
00000000
00000000
,  // measure 37
00000000
00000000
00000000
00000000
,  // measure 38
00010000
00000000
00001000
00000000
,  // measure 39
01000000
00000000
00100000
01000000
,  // measure 40
00010000
00000000
10000000
00000000
,  // measure 41
01000000
10000000
00010000
01000000
,  // measure 42
00000000
00010000
00000000
00000000
00000000
00100000
00000000
00000000
,  // measure 43
00000000
00010000
00000000
00100000
00000000
00000000
00001000
00000000
,  // measure 44
00000000
00010000
00000000
00000100
,  // measure 45
00001000
00000010
00000100
00001001
,  // measure 46
00000000
00000000
00000000
00000000
,  // measure 47
00000000
00000000
00000000
00000001
,  // measure 48
00000100
00000001
00000100
00000010
,  // measure 49
00001000
00000010
00001000
00000100
,  // measure 50
00000000
00000100
00000000
00000000
00010000
00000000
00001000
00000000
,  // measure 51
00000000
00001000
00000000
00000000
00010000
00000000
00001000
00000000
,  // measure 52
01000000
00001000
01000000
00010000
,  // measure 53
01000000
00010000
01000000
00010000
,  // measure 54
00000000
10000000
00000000
00000000
00010000
00000000
00100000
00000000
,  // measure 55
00000000
01000000
00000000
00000000
00000000
00000000
10000000
00000000
,  // measure 56
00000000
00010000
00000000
00000000
02000000
00000000
00000000
00000000
,  // measure 57
03010000
01000000
01000000
00010000
,  // measure 58
00100000
00001000
00010000
00000100
,  // measure 59
00001000
00000010
00000100
00000001
,  // measure 60
00000000
00000001
00000000
00000000
00002000
00000000
00000000
00000000
,  // measure 61
00000000
00003100
00000100
00000010
,  // measure 62
00000100
00001000
00000001
00000100
,  // measure 63
00000010
00001000
00000100
00010000
,  // measure 64
00000000
00010000
00000000
00000000
00002000
00000000
00000000
00000000
,  // measure 65
01003000
00010000
00100000
00010000
,  // measure 66
00000000
00010000
00000000
00000000
20000000
00000000
00000000
00000000
,  // measure 67
31000000
00100000
00001000
00010000
,  // measure 68
00000000
00010000
00000000
00000000
00002000
00000000
00000000
00000000
,  // measure 69
00013000
00000100
00001000
00001001
,  // measure 70
00000000
00000110
00000000
00000000
00002002
00000000
00000000
00000000
,  // measure 71
00000000
00000000
00000000
00003000
,  // measure 72
00000000
00000000
00000000
00000003
;
