#VERSION:0.83;
#TITLE:Genesis At Oasis;
#SUBTITLE:;
#ARTIST:白龍;
#TITLETRANSLIT:;
#SUBTITLETRANSLIT:;
#ARTISTTRANSLIT:;
#GENRE:;
#CREDIT:;
#MUSIC:Genesis At Oasis.ogg;
#BANNER:banner.png;
#BACKGROUND:background.png;
#JACKET:jacket.png;
#DISCIMAGE:;
#CDIMAGE:;
#SELECTABLE:YES;
#LYRICSPATH:;
#CDTITLE:cdtitle.png;
#SAMPLESTART:86.42;
#SAMPLELENGTH:15.908;
#OFFSET:-0.382;
#BPMS:0.000000=212.000000,
240.000000=106.000000,
256.000000=212.000000
;
#STOPS:;
#WARPS:;
#DELAYS:;
#SPEEDS:;
#SCROLLS:;
#TICKCOUNTS:;
#TIMESIGNATURES:;
#LABELS:;
#COMBOS:;
#FAKES:;
#BGCHANGES:;
#FGCHANGES:;
#ATTACKS:;

//---------------dance-single - ---------------
#NOTEDATA:;
#CHARTNAME:;
#CHARTSTYLE:;
#CREDIT:Pandemonium X;
#STEPSTYPE:dance-single;
#DESCRIPTION:;
#DIFFICULTY:Easy;
#METER:9;
#METERF:9;
#RADARVALUES:0,0,0,0,0;
#NOTES:
// measure 0
0000
0000
0000
0000
,  // measure 1
0000
0000
0000
0000
,  // measure 2
0000
0000
0000
0000
,  // measure 3
0000
0000
0000
0000
,  // measure 4
0002
0000
0000
0000
,  // measure 5
1000
0000
0000
0000
,  // measure 6
1000
0000
0000
0000
,  // measure 7
1000
0000
0000
0003
,  // measure 8
2000
0000
0000
0000
,  // measure 9
0001
0000
0000
0000
,  // measure 10
0001
0000
0000
0000
,  // measure 11
0001
0000
0000
0000
,  // measure 12
3001
0000
0100
0000
,  // measure 13
0010
0000
1000
0000
,  // measure 14
0100
0000
0010
0000
,  // measure 15
0001
0000
0010
0000
,  // measure 16
0100
0000
0010
0000
,  // measure 17
0001
0000
1000
0000
,  // measure 18
1001
0000
0001
0000
,  // measure 19
0010
0000
0001
0001
,  // measure 20
1000
0000
0000
0001
0000
0000
0010
0000
,  // measure 21
0010
0200
1300
0020
,  // measure 22
0130
0000
0000
0010
0000
0000
1000
0000
,  // measure 23
1000
0200
0310
0002
,  // measure 24
1003
0000
0000
0001
0000
0000
0100
0000
,  // measure 25
0100
0020
1030
0002
,  // measure 26
1003
0000
0000
0100
0000
0000
0010
0000
,  // measure 27
0100
2000
3001
0200
,  // measure 28
0310
1000
0010
0100
,  // measure 29
0001
0020
0130
2000
,  // measure 30
3100
0010
0001
0100
,  // measure 31
0010
2000
3001
0020
,  // measure 32
0130
1000
0001
0100
,  // measure 33
0001
0020
0130
2000
,  // measure 34
3001
0100
0010
1000
,  // measure 35
0001
0020
0031
0200
,  // measure 36
0310
0000
0100
0000
,  // measure 37
0001
0000
1000
0000
,  // measure 38
0100
0000
0010
0000
,  // measure 39
0001
0000
1000
0000
,  // measure 40
0010
0000
0100
0000
,  // measure 41
0001
0000
1000
0000
,  // measure 42
1001
0000
0001
0000
,  // measure 43
1000
0000
0010
0010
,  // measure 44
1000
0000
0000
0001
0000
1000
0001
0000
,  // measure 45
1001
2000
3010
0200
,  // measure 46
0301
0000
0000
0100
0000
0001
0100
0000
,  // measure 47
0101
0002
0013
0200
,  // measure 48
1300
0000
0000
0010
0000
1000
0010
0000
,  // measure 49
1010
0020
0130
0002
,  // measure 50
1003
0000
0000
0100
0000
1000
0100
0000
,  // measure 51
1100
0200
0300
0020
,  // measure 52
0031
0000
0000
1000
0000
0010
0100
0000
,  // measure 53
0101
0200
0310
2000
,  // measure 54
3001
0000
0000
0010
0000
0100
0010
0000
,  // measure 55
0011
0020
0130
2000
,  // measure 56
3001
0100
0010
1000
,  // measure 57
1100
0200
0310
0002
,  // measure 58
1003
0001
0100
0010
,  // measure 59
1010
0020
0130
0002
,  // measure 60
2003
0000
0000
3000
0000
0000
0000
0000
,  // measure 61
0000
0000
0000
0000
0000
0000
0000
0001
0000
0000
0000
1000
0000
0000
0000
0000
,  // measure 62
0020
0000
0000
0000
0000
0030
0000
0000
0000
0000
0000
0000
0000
0000
0000
0000
,  // measure 63
0000
0000
0000
0000
0000
0000
0000
0100
0000
0000
0000
0010
0000
0000
0000
0000
,  // measure 64
1000
0001
0000
1000
,  // measure 65
0000
0100
0000
0010
,  // measure 66
0000
0001
0000
0100
,  // measure 67
0000
0010
0000
1000
,  // measure 68
0000
0001
0000
1000
,  // measure 69
0000
0100
0000
0010
,  // measure 70
0000
0001
0000
0010
,  // measure 71
0000
0100
0000
1000
,  // measure 72
0001
1000
0001
1000
,  // measure 73
0001
0010
0001
0010
,  // measure 74
0100
1000
0100
1000
,  // measure 75
0010
1000
0010
1000
,  // measure 76
0001
0100
0001
0100
,  // measure 77
0010
0100
0010
0100
,  // measure 78
0010
1000
0010
1000
,  // measure 79
0001
1000
0001
1001
,  // measure 80
0001
0001
0010
0010
,  // measure 81
0100
0100
1000
1000
,  // measure 82
0100
0100
0010
0010
,  // measure 83
0001
0001
0100
0100
,  // measure 84
0010
0010
0100
0100
,  // measure 85
0001
0001
1000
1000
,  // measure 86
0001
0100
0010
1000
,  // measure 87
0001
0000
0010
0000
0100
1000
0001
0000
;

//---------------dance-single - ---------------
#NOTEDATA:;
#CHARTNAME:;
#CHARTSTYLE:;
#CREDIT:Pandemonium X;
#STEPSTYPE:dance-single;
#DESCRIPTION:;
#DIFFICULTY:Medium;
#METER:13;
#METERF:13;
#RADARVALUES:0,0,0,0,0;
#NOTES:
// measure 0
0000
0000
0000
0000
,  // measure 1
0000
0000
0000
0000
,  // measure 2
0000
0000
0000
0000
,  // measure 3
0000
0000
0000
0000
,  // measure 4
0001
0000
0001
0000
,  // measure 5
1000
0000
1000
0000
,  // measure 6
0100
0000
0100
0000
,  // measure 7
0010
0000
0010
0000
,  // measure 8
0100
0000
0100
0000
,  // measure 9
1000
0000
1000
0000
,  // measure 10
0001
0000
0001
0000
,  // measure 11
0100
0000
0100
0000
,  // measure 12
0010
1000
0010
1000
,  // measure 13
0001
0100
0001
0100
,  // measure 14
0001
0010
0001
0010
,  // measure 15
0100
1000
0100
1000
,  // measure 16
0001
1000
0001
1000
,  // measure 17
0010
0100
0010
0100
,  // measure 18
0001
0100
0010
1000
,  // measure 19
0100
0000
0010
0000
0001
1000
0001
0000
,  // measure 20
1000
0000
0000
0010
0000
1000
0100
0000
,  // measure 21
0010
0000
0100
1000
1010
0010
2000
3200
,  // measure 22
0310
0000
0100
0010
0000
0100
1000
0000
,  // measure 23
0001
0000
1000
0010
0110
0100
0020
0230
,  // measure 24
0301
0000
1000
0010
0000
1000
0001
0000
,  // measure 25
0010
0000
0100
0010
0011
0001
2000
3002
,  // measure 26
0103
0000
0001
0010
0000
0100
0010
0000
,  // measure 27
0001
0000
1000
0001
0101
0100
0020
2030
,  // measure 28
3001
0010
0001
0000
1000
0000
0010
0000
,  // measure 29
0100
0001
0100
0010
1010
1000
0002
2003
,  // measure 30
3100
0010
0001
0000
0010
0000
0100
0000
,  // measure 31
1000
0001
0100
0001
0011
0010
0200
0320
,  // measure 32
0031
1000
0001
0000
0100
0000
0010
0000
,  // measure 33
1000
0010
0100
0001
1001
1000
0200
0320
,  // measure 34
0031
1000
0001
0000
1000
0000
0010
0000
,  // measure 35
0100
0010
0100
0001
0101
0001
2000
3200
,  // measure 36
0310
0010
0100
0100
,  // measure 37
1000
1000
0001
1000
,  // measure 38
0001
0001
1000
1000
,  // measure 39
0010
0010
0100
0010
,  // measure 40
0100
0100
0001
0001
,  // measure 41
1000
1000
0100
1000
,  // measure 42
0100
0100
0010
0010
,  // measure 43
0001
0000
0001
0000
1000
0001
1000
0001
,  // measure 44
0200
0000
0301
2000
0000
3100
0020
0000
,  // measure 45
0031
0000
0010
0100
0001
0100
1000
0001
,  // measure 46
0200
0000
0310
2000
0000
3001
0020
0000
,  // measure 47
0130
0000
0010
0001
0100
1000
0100
0001
,  // measure 48
2000
0000
3100
0020
0000
0130
2000
0000
,  // measure 49
3001
0000
0100
0001
0010
1000
0010
0001
,  // measure 50
2000
0000
3010
0200
0000
1300
0200
0000
,  // measure 51
0301
0201
0310
1020
,  // measure 52
0130
0001
0010
0001
1000
0010
1000
0000
,  // measure 53
1100
0000
0100
0010
0002
0010
2003
3002
,  // measure 54
0103
0001
1000
0001
0010
0100
0010
0000
,  // measure 55
0011
0000
0010
0100
2000
0100
3002
0203
,  // measure 56
0310
1000
0010
1000
0010
0000
1000
0000
,  // measure 57
0001
0100
0001
0010
0100
1000
0001
1000
,  // measure 58
0100
0010
0100
0010
0100
0000
1000
0000
,  // measure 59
0001
0100
0001
0100
0010
1000
0100
0010
,  // measure 60
0001
0000
0000
0100
0000
0010
0000
0000
0000
0000
0000
0000
0000
0000
0000
0000
,  // measure 61
0000
0000
0000
0000
0000
0000
0000
0010
0000
0000
0000
0100
0000
0001
0000
1000
,  // measure 62
0100
0010
0001
1000
0000
0001
0000
0000
0000
0000
0000
0000
0000
0000
0000
0000
,  // measure 63
0000
0000
0000
0000
0000
0000
0000
0100
0000
0100
0000
0010
0000
1000
0000
0000
,  // measure 64
0001
1000
0100
1000
,  // measure 65
0001
0100
0001
1000
,  // measure 66
0100
1000
0001
0100
,  // measure 67
0001
1000
0001
1000
,  // measure 68
0001
1000
0010
1000
,  // measure 69
0001
0010
0001
1000
,  // measure 70
1010
1000
0001
0010
,  // measure 71
0001
1000
0010
1000
,  // measure 72
0001
0100
0001
0100
0010
1000
0010
1000
,  // measure 73
0100
1000
0100
1000
0001
0010
0001
0010
,  // measure 74
0001
1000
0001
1000
0010
1000
0010
1000
,  // measure 75
0001
0100
0001
0100
0001
0010
0100
1000
,  // measure 76
0001
0010
0001
0010
0100
0010
0100
0010
,  // measure 77
0100
1000
0100
1000
0010
1000
0010
1000
,  // measure 78
0001
0100
0001
0100
0010
0100
0010
0100
,  // measure 79
0010
1000
0010
1000
0001
1000
0001
1000
,  // measure 80
0100
1000
0001
1000
0010
0100
0001
0100
,  // measure 81
0010
1000
0100
1000
0001
0010
0100
0010
,  // measure 82
0001
1000
0010
1000
0001
0010
0100
0010
,  // measure 83
0001
1000
0100
1000
0010
0100
0001
0100
,  // measure 84
0001
1000
0100
1000
0010
0100
0001
0100
,  // measure 85
0010
1000
0100
1000
0001
0010
0100
0010
,  // measure 86
0100
1000
0100
1000
0100
0010
0100
0010
,  // measure 87
0001
0010
0100
1000
0001
1000
1100
0000
;

//---------------dance-single - ---------------
#NOTEDATA:;
#CHARTNAME:;
#CHARTSTYLE:;
#CREDIT:Pandemonium X;
#STEPSTYPE:dance-single;
#DESCRIPTION:;
#DIFFICULTY:Hard;
#METER:16;
#METERF:16;
#RADARVALUES:0,0,0,0,0;
#NOTES:
// measure 0
0000
0000
0000
0000
,  // measure 1
0000
0000
0000
0000
,  // measure 2
0000
0000
0000
0000
,  // measure 3
0000
0000
0000
0000
,  // measure 4
0001
0001
1000
1000
,  // measure 5
0010
0010
0100
0010
,  // measure 6
0100
0100
0010
0010
,  // measure 7
1000
1000
0001
1000
,  // measure 8
0001
0001
0010
0010
,  // measure 9
0100
0100
0010
0100
,  // measure 10
1000
1000
0100
0100
,  // measure 11
0010
0010
0100
0010
,  // measure 12
0001
0000
1000
0000
0010
0100
0010
0000
,  // measure 13
0100
0000
0001
0000
0100
0010
0100
0000
,  // measure 14
0010
0000
1000
0000
0010
0100
0010
0000
,  // measure 15
0100
0000
0001
0000
1000
0100
1000
0000
,  // measure 16
0100
0000
0010
0000
0001
1000
0001
0000
,  // measure 17
0010
0000
0100
0000
1000
0001
1000
0000
,  // measure 18
0100
0000
0010
0000
0001
1000
0001
0000
,  // measure 19
0010
0000
0100
0000
1000
0001
1000
0000
,  // measure 20
0002
0000
0000
0100
0000
1000
1003
0000
,  // measure 21
1100
0000
0000
0000
1000
0100
1000
0100
1000
0000
0100
0000
1000
0100
0010
0001
,  // measure 22
2000
0000
0000
0010
0000
0001
3001
0000
,  // measure 23
0011
0000
0000
0000
0001
0010
0001
0010
0001
0000
0010
0000
0001
0100
0001
1000
,  // measure 24
0200
0000
0000
0010
0000
1000
1300
0000
,  // measure 25
1001
0000
0000
0000
1000
0010
1000
0010
1000
0000
0001
0000
1000
0100
0010
0001
,  // measure 26
0020
0000
0000
0100
0000
0001
0031
0000
,  // measure 27
1001
0000
0000
0000
0001
0100
0001
0100
0001
0000
1000
0000
0001
0100
0010
1000
,  // measure 28
0100
0010
0100
0010
0001
1000
0010
1000
,  // measure 29
0100
0010
0100
0010
0100
1000
0001
1000
,  // measure 30
0010
0100
0010
0100
0001
1000
0001
1000
,  // measure 31
0010
0100
0010
0100
0001
1000
0100
0010
,  // measure 32
0001
0100
0001
0100
1000
0100
1000
0100
,  // measure 33
0001
0100
0001
0100
1000
0100
0001
1000
,  // measure 34
0001
0010
0001
0010
1000
0010
1000
0010
,  // measure 35
0001
0000
0010
0000
0001
0000
0010
0000
1000
0000
0010
0000
0001
0100
0010
1000
,  // measure 36
0001
1000
0001
1000
0001
0100
0010
1000
,  // measure 37
0001
1000
0001
1000
0001
1000
0100
0010
,  // measure 38
0001
1000
0001
1000
0001
0100
0010
1000
,  // measure 39
0001
1000
0001
1000
0001
1000
0100
0010
,  // measure 40
0001
0100
0001
0100
0001
0100
0010
1000
,  // measure 41
0001
0100
0001
0100
0010
0100
0001
1000
,  // measure 42
0010
1000
0010
1000
0001
0100
0010
1000
,  // measure 43
0001
1000
0001
0100
0001
1000
0100
0010
,  // measure 44
0002
0000
1003
0200
0000
0301
0100
0000
,  // measure 45
1100
0000
0000
0000
0100
1000
0100
1000
0100
0000
1000
0000
0001
0100
0010
1000
,  // measure 46
0002
0000
0103
2000
0000
3100
0001
0000
,  // measure 47
0101
0000
0000
0000
0100
0001
0100
0001
0100
0000
0001
0000
1000
0100
0010
0001
,  // measure 48
2000
0000
3100
0020
0000
1030
0010
0000
,  // measure 49
0011
0000
0000
0000
0010
0100
0010
0100
1000
0000
0001
0000
1000
0100
0010
0001
,  // measure 50
2000
0000
3010
0002
0000
0013
1000
0000
,  // measure 51
0101
0000
0000
0000
1000
0001
1000
0001
1000
0000
0001
0000
1000
0010
0100
0001
,  // measure 52
2000
3100
0010
0002
0103
0020
2000
3030
,  // measure 53
0101
0000
0000
0000
0001
1000
0001
1000
0001
0000
1000
0000
0001
0100
0010
1000
,  // measure 54
0002
0013
0100
2000
3010
0200
0002
0303
,  // measure 55
1010
0000
0000
0000
1000
0001
1000
0001
1000
0000
0001
0000
1000
0010
0100
0001
,  // measure 56
1000
0100
1000
0100
0010
0001
0010
0001
,  // measure 57
0100
0000
0001
0000
0100
0010
0100
0010
0100
0000
0001
0000
1000
0100
0010
0001
,  // measure 58
1000
0100
1000
0100
0010
0001
0010
0001
,  // measure 59
0100
0000
0001
0000
0100
0010
0100
0010
0100
0000
0001
0000
1000
0100
0010
0001
,  // measure 60
2000
3000
0000
0001
0000
0000
1000
0000
0000
0010
0000
0000
0000
0000
0000
1000
0000
0000
0000
0000
0000
0000
0000
0000
0000
0000
0000
0000
0000
0000
0000
0000
0000
0000
0000
0000
0000
0000
0000
0000
0000
0000
0000
0000
0000
0000
0000
0000
,  // measure 61
0000
0000
0000
0000
0000
0000
0000
0100
0000
0000
0000
0010
0000
0100
0000
0010
,  // measure 62
0001
1000
0001
1000
0000
0100
0000
0000
0000
0000
0000
0000
0000
0000
0000
0000
,  // measure 63
0000
0000
0000
0000
0000
0000
0000
0010
0000
0010
0000
0001
0000
1000
0000
0000
,  // measure 64
0001
0000
1000
0000
0100
0010
0001
0000
,  // measure 65
0010
0000
0100
0000
1000
0100
0010
0000
,  // measure 66
0001
0000
0010
0000
0100
1000
0001
0000
,  // measure 67
0100
0000
0010
0000
0100
0001
1000
0000
,  // measure 68
0001
0000
0100
0000
0010
1000
0001
0000
,  // measure 69
0010
0000
0100
0000
0010
0001
1000
0000
,  // measure 70
0010
0000
1000
0000
0001
0010
0100
0000
,  // measure 71
0010
0000
0001
0000
1000
0001
1000
0000
,  // measure 72
0001
0000
0100
0000
0001
0000
0100
0000
0010
1000
0010
1000
0010
0000
1000
0000
,  // measure 73
0001
0100
0010
1000
0001
0000
1000
0000
0100
0000
1000
0000
0001
0100
0001
0100
,  // measure 74
0001
0000
1000
0000
0010
0000
1000
0000
0010
0100
0010
0100
0010
0000
1000
0000
,  // measure 75
0001
0000
1000
0000
0100
0010
0100
0010
0100
0000
0010
0000
0001
1000
0010
1000
,  // measure 76
0001
0000
0010
0000
0001
0000
0010
0000
0100
1000
0100
1000
0100
0000
1000
0000
,  // measure 77
0001
0000
0010
0000
0001
0000
1000
0000
0010
0000
1000
0000
0001
0010
0001
0010
,  // measure 78
0001
1000
0100
1000
0100
0010
0100
1000
,  // measure 79
0001
1000
0010
0100
0010
1000
0100
0000
,  // measure 80
0010
0000
0001
0000
0010
0000
0001
0000
1000
0100
1000
0100
1000
0000
0001
0000
,  // measure 81
1000
0100
0010
0001
1000
0000
0010
0000
0100
0000
0001
0000
0100
0010
0100
0010
,  // measure 82
0100
0000
0001
0000
1000
0000
0001
0000
0010
0100
0010
0100
0010
0000
0001
0000
,  // measure 83
1000
0000
0100
0000
1000
0001
1000
0001
1000
0000
0001
0000
0100
0010
1000
0001
,  // measure 84
0100
0000
0001
0000
0100
0000
0001
0000
1000
0010
1000
0010
1000
0000
0001
0000
,  // measure 85
1000
0000
0100
0000
1000
0000
0100
0000
0010
0000
0001
0000
0010
0100
0010
0100
,  // measure 86
1000
0001
0100
0001
1000
0100
1000
0001
,  // measure 87
0100
0010
0100
0010
0100
0010
0100
0010
0100
0000
0001
0000
0010
0000
0000
0000
;

//---------------dance-single - ---------------
#NOTEDATA:;
#CHARTNAME:;
#CHARTSTYLE:;
#CREDIT:Pandemonium X;
#STEPSTYPE:dance-single;
#DESCRIPTION:;
#DIFFICULTY:Beginner;
#METER:5;
#METERF:5;
#RADARVALUES:0,0,0,0,0;
#NOTES:
// measure 0
0000
0000
0000
0000
,  // measure 1
0000
0000
0000
0000
,  // measure 2
0000
0000
0000
0000
,  // measure 3
0000
0000
0000
0000
,  // measure 4
0001
0000
0000
0000
,  // measure 5
0000
0000
0000
0000
,  // measure 6
0000
0000
0000
0000
,  // measure 7
0000
0000
0000
0000
,  // measure 8
1000
0000
0000
0000
,  // measure 9
0000
0000
0000
0000
,  // measure 10
0000
0000
0000
0000
,  // measure 11
0000
0000
0000
0000
,  // measure 12
0001
0000
0000
0000
,  // measure 13
1000
0000
0000
0000
,  // measure 14
0001
0000
0000
0000
,  // measure 15
1000
0000
0000
0000
,  // measure 16
0100
0000
0000
0000
,  // measure 17
0010
0000
0000
0000
,  // measure 18
0100
0000
0000
0000
,  // measure 19
0010
0000
0000
0000
,  // measure 20
0001
0000
0000
0000
,  // measure 21
0000
1000
1000
0000
,  // measure 22
0001
0000
0000
0000
,  // measure 23
0000
0100
0100
0000
,  // measure 24
0010
0000
0000
0000
,  // measure 25
0000
0100
0100
0000
,  // measure 26
0001
0000
0000
0000
,  // measure 27
0000
0010
0010
0000
,  // measure 28
0100
0000
1000
0000
,  // measure 29
0001
0000
1000
0001
,  // measure 30
1000
0000
0001
0000
,  // measure 31
0100
0000
0010
1000
,  // measure 32
0010
0000
1000
0000
,  // measure 33
0001
0000
0010
0100
,  // measure 34
0010
0000
0001
0000
,  // measure 35
1000
0000
0100
0010
,  // measure 36
0100
0000
0000
0000
,  // measure 37
1000
0000
0000
0000
,  // measure 38
0010
0000
0000
0000
,  // measure 39
0100
0000
0000
0000
,  // measure 40
0001
0000
0000
0000
,  // measure 41
1000
0000
0000
0000
,  // measure 42
0001
0000
0000
0000
,  // measure 43
0010
0000
0000
0000
,  // measure 44
0100
0000
0100
0000
,  // measure 45
0100
0000
0000
0000
,  // measure 46
1000
0000
1000
0000
,  // measure 47
1000
0000
0000
0000
,  // measure 48
0001
0000
0001
0000
,  // measure 49
0001
0000
0000
0000
,  // measure 50
0100
0000
0100
0000
,  // measure 51
0110
0000
0000
0000
,  // measure 52
0010
0000
1000
0000
,  // measure 53
0010
0000
0000
0000
,  // measure 54
0100
0000
0001
0000
,  // measure 55
1000
0000
0000
0000
,  // measure 56
0100
0000
0010
0000
,  // measure 57
0001
0000
0000
0000
,  // measure 58
1000
0000
0001
0000
,  // measure 59
0100
0000
0000
0000
,  // measure 60
0010
0000
0000
0000
,  // measure 61
0000
0000
0000
0000
,  // measure 62
0100
0000
0000
0000
,  // measure 63
0000
0000
0000
0000
,  // measure 64
0001
0000
0000
0000
,  // measure 65
0000
0000
0000
0000
,  // measure 66
0000
0000
0000
0000
,  // measure 67
1000
0000
0000
0000
,  // measure 68
0100
0000
0000
0000
,  // measure 69
0000
0000
0000
0000
,  // measure 70
0010
0000
0000
0000
,  // measure 71
0001
0000
0000
0000
,  // measure 72
1000
0000
1000
0000
,  // measure 73
1000
0000
1000
0000
,  // measure 74
0001
0000
0001
0000
,  // measure 75
0001
0000
0001
0000
,  // measure 76
0100
0000
0100
0000
,  // measure 77
0100
0000
0100
0000
,  // measure 78
0010
0000
0010
0000
,  // measure 79
0010
0000
0010
0000
,  // measure 80
1000
0000
0001
0000
,  // measure 81
1000
0000
0001
0000
,  // measure 82
0100
0000
0010
0000
,  // measure 83
0100
0000
0010
0000
,  // measure 84
1000
0000
0010
0000
,  // measure 85
1000
0000
0010
0000
,  // measure 86
0100
0000
0001
0000
,  // measure 87
0100
0000
0001
0001
;

//---------------dance-double - ---------------
#NOTEDATA:;
#CHARTNAME:;
#CHARTSTYLE:;
#CREDIT:Pandemonium X;
#STEPSTYPE:dance-double;
#DESCRIPTION:;
#DIFFICULTY:Medium;
#METER:13;
#METERF:13;
#RADARVALUES:0,0,0,0,0;
#NOTES:
// measure 0
00000000
00000000
00000000
00000000
,  // measure 1
00000000
00000000
00000000
00000000
,  // measure 2
00000000
00000000
00000000
00000000
,  // measure 3
00000000
00000000
00000000
00000000
,  // measure 4
00010000
00000000
00010000
00000000
,  // measure 5
10000000
00000000
10000000
00000000
,  // measure 6
00100000
00000000
00100000
00000000
,  // measure 7
01000000
00000000
01000000
00000000
,  // measure 8
00010000
00000000
00010000
00000000
,  // measure 9
00100000
00000000
00100000
00000000
,  // measure 10
00001000
00000000
00001000
00000000
,  // measure 11
00010000
00000000
00010000
00000000
,  // measure 12
00000100
00001000
00000100
00001000
,  // measure 13
00000010
00001000
00000010
00001000
,  // measure 14
00000001
00000100
00000010
00001000
,  // measure 15
00000100
00001000
00000010
00010000
,  // measure 16
00001000
00010000
00001000
00010000
,  // measure 17
00001000
01000000
00001000
01000000
,  // measure 18
00100000
01000000
00100000
01000000
,  // measure 19
00010000
10000000
00010000
10000000
,  // measure 20
00010000
00000000
00000000
00100000
00000000
00001000
00010000
00000000
,  // measure 21
00000010
00000000
00000100
00001000
00000100
00000001
00000010
00000100
,  // measure 22
00001000
00000000
00000000
00000100
00000000
00010000
00001000
00000000
,  // measure 23
01000000
00000000
00100000
00010000
00100000
10000000
01000000
00100000
,  // measure 24
00010000
00000000
00000000
00100000
00000000
01000000
10000000
00000000
,  // measure 25
00010000
00000000
01000000
10000000
01000000
00010000
00100000
00001000
,  // measure 26
00010000
00000000
00000000
00000100
00000000
00001000
00000010
00000000
,  // measure 27
00000100
00000000
00001000
00000100
00000001
00001000
00000100
00000010
,  // measure 28
00000001
00000010
00000100
00001000
00000010
00000000
00000110
00000000
,  // measure 29
00000010
00001000
00000100
00010000
00001000
00000000
00101000
00000000
,  // measure 30
00100000
00010000
01000000
00100000
10000000
00000000
11000000
00000000
,  // measure 31
01000000
00100000
00010000
00001000
00000100
00000010
00000001
00001000
,  // measure 32
00000010
00000100
00000001
00000010
00000100
00000000
00001100
00000000
,  // measure 33
00000100
00010000
00001000
01000000
00010000
00100000
01000000
10000000
,  // measure 34
00100000
01000000
00010000
10000000
01000000
00000000
00110000
00000000
,  // measure 35
00100000
10000000
00100000
00010000
01000000
10000000
01000000
00001000
,  // measure 36
00010000
00000100
00001000
00000010
,  // measure 37
00000100
00000001
00000010
00000100
,  // measure 38
00000010
00000001
00000100
00000010
,  // measure 39
00001000
00000100
00010000
00001000
,  // measure 40
01000000
00010000
00100000
00010000
,  // measure 41
01000000
00100000
10000000
00100000
,  // measure 42
01000000
00010000
00100000
01000000
,  // measure 43
10000000
01000000
00100000
00010000
,  // measure 44
00102000
00000000
00000000
00010000
00000000
00100000
00103000
00000000
,  // measure 45
00101000
00000000
00100000
00001000
00020000
00000000
00030100
00000000
,  // measure 46
00002100
00000000
00000000
00000001
00000000
00000100
00003100
00000000
,  // measure 47
00001100
00000000
00000100
00001000
00000020
00000000
00000130
00000000
,  // measure 48
00000201
00000000
00000000
00000010
00000000
00000001
00000301
00000000
,  // measure 49
00001001
00000000
00001000
00000100
00020000
00000000
00031000
00000000
,  // measure 50
00020000
00000000
00000000
00000010
00000000
00001000
00031000
00000000
,  // measure 51
00011000
00000000
00001000
00100000
00020000
00000000
01030000
00001000
,  // measure 52
00010000
00001000
00100000
01000000
10000000
00100000
01000000
00000000
,  // measure 53
10010000
20000000
30010000
00020000
,  // measure 54
10030000
00100000
01000000
00010000
00100000
00001000
00010000
00000000
,  // measure 55
00001100
00000200
00001300
00002000
,  // measure 56
00003001
00000100
00000010
00001000
00000100
00010000
00001000
00000000
,  // measure 57
00101000
00200000
00301000
00020000
,  // measure 58
00030010
00000100
00001000
00000100
00000001
00001000
00000100
00000000
,  // measure 59
00001100
00000000
00000100
00010000
00002000
00000000
00013000
00001000
,  // measure 60
01000000
00000000
00000000
00010000
00000000
00100000
00000000
00000000
00000000
00000000
00000000
00000000
00000000
00000000
00000000
00000000
,  // measure 61
00000000
00000000
00000000
00000000
00000000
00000000
00000000
00100000
00000000
00000000
00000000
00010000
00000000
10000000
00000000
00000000
,  // measure 62
00010000
00000000
00000000
01000000
00000000
00010000
00000000
00000000
00000000
00000000
00000000
00000000
00000000
00000000
00000000
00000000
,  // measure 63
00000000
00000000
00000000
00000000
00000000
00000000
00000000
00010000
00000000
00000000
00000000
00100000
00000000
00001000
00000000
00000000
,  // measure 64
00010000
00000100
00010000
00001000
,  // measure 65
00010000
00000010
00010000
00001000
,  // measure 66
00010000
00000100
00001000
00000010
,  // measure 67
00000100
00000001
00000010
00000100
,  // measure 68
00001000
00000100
00010000
00001000
,  // measure 69
01000000
00010000
00100000
01000000
,  // measure 70
10000000
01000000
10000000
00100000
,  // measure 71
01000000
00010000
00100000
00000000
,  // measure 72
00001000
00010000
00001000
00010000
00000100
00010000
00000100
00010000
,  // measure 73
00000100
00001000
00000100
00001000
00000010
00001000
00000010
00001000
,  // measure 74
00000001
00000100
00000001
00000100
00000010
00000100
00000010
00000100
,  // measure 75
00000010
00001000
00000010
00001000
00000100
00001000
00000100
00001000
,  // measure 76
00000100
00010000
00000100
00010000
00001000
00010000
00001000
00010000
,  // measure 77
00001000
01000000
00001000
01000000
00100000
01000000
00100000
01000000
,  // measure 78
00010000
01000000
00010000
01000000
00100000
01000000
00100000
01000000
,  // measure 79
00100000
10000000
00100000
10000000
01000000
10000000
01000000
10000000
,  // measure 80
01000000
10000000
00100000
01000000
00010000
00100000
00001000
00010000
,  // measure 81
00000010
00000100
00000001
00000010
00000100
00001000
00000100
00000001
,  // measure 82
00000100
00001000
00000010
00000100
00000001
00001000
00000100
00010000
,  // measure 83
00001000
01000000
00010000
10000000
01000000
00010000
01000000
10000000
,  // measure 84
00010000
01000000
00010000
01000000
00100000
10000000
00100000
10000000
,  // measure 85
01000000
00010000
01000000
10000000
01000000
00010000
01000000
10000000
,  // measure 86
00010000
01000000
00001000
00010000
00000100
00001000
00000010
00000100
,  // measure 87
00000001
00000010
00001000
00000010
00000100
00001000
00000010
00000000
;

//---------------dance-double - ---------------
#NOTEDATA:;
#CHARTNAME:;
#CHARTSTYLE:;
#CREDIT:Pandemonium X;
#STEPSTYPE:dance-double;
#DESCRIPTION:;
#DIFFICULTY:Hard;
#METER:17;
#METERF:17;
#RADARVALUES:0,0,0,0,0;
#NOTES:
// measure 0
00000000
00000000
00000000
00000000
,  // measure 1
00000000
00000000
00000000
00000000
,  // measure 2
00000000
00000000
00000000
00000000
,  // measure 3
00000000
00000000
00000000
00000000
,  // measure 4
00001000
00010000
00001000
00010000
00001000
01000000
00001000
01000000
,  // measure 5
00100000
01000000
00100000
01000000
00100000
10000000
00100000
10000000
,  // measure 6
01000000
10000000
01000000
10000000
01000000
00100000
01000000
00100000
,  // measure 7
00010000
00100000
00010000
00100000
00010000
01000000
00100000
10000000
,  // measure 8
00010000
00100000
00010000
00100000
00001000
00100000
00001000
00100000
,  // measure 9
00001000
00010000
00001000
00010000
00000100
00010000
00000100
00010000
,  // measure 10
00000100
00001000
00000100
00001000
00000010
00001000
00000010
00001000
,  // measure 11
00000010
00000100
00000010
00000100
00000001
00001000
00000001
00000100
,  // measure 12
00000001
00000010
00000001
00000100
00000010
00001000
00000100
00000010
,  // measure 13
00000100
00001000
00000010
00010000
00001000
00100000
00001000
00010000
,  // measure 14
00001000
01000000
00010000
00100000
00001000
00010000
00000010
00000100
,  // measure 15
00000010
00010000
00001000
01000000
00010000
01000000
00100000
10000000
,  // measure 16
00010000
00100000
00001000
00010000
00000010
00000100
00001000
00000100
,  // measure 17
00000001
00001000
00000100
00010000
00001000
01000000
00100000
10000000
,  // measure 18
00010000
10000000
01000000
00100000
01000000
10000000
00010000
01000000
,  // measure 19
00100000
01000000
00010000
00100000
00001000
00010000
00001000
00000000
,  // measure 20
00201000
00000000
00310000
00210000
00000000
01300000
21000000
00000000
,  // measure 21
30010000
00000000
00000000
00000000
10000000
00100000
10000000
00100000
10000000
00000000
00100000
00000000
01000000
00010000
00100000
00001000
,  // measure 22
00020000
00000000
00030100
00002100
00000000
00003010
00000210
00000000
,  // measure 23
00000301
00000000
00000000
00000000
00000001
00001000
00000001
00001000
00000001
00000000
00000001
00000000
00001000
00000100
00010000
00001000
,  // measure 24
00020000
00000000
00031000
02001000
00000000
03100000
01200000
00000000
,  // measure 25
10300000
00000000
00000000
00000000
01000000
00100000
01000000
00100000
01000000
00000000
10000000
00000000
00010000
10000000
00010000
00100000
,  // measure 26
00002000
00000000
00013000
00010200
00000000
00001300
00002100
00000000
,  // measure 27
00003010
00000000
00000000
00000000
00000100
00000010
00000100
00000010
00000100
00000000
00000001
00000000
00001000
00000100
00000010
00000001
,  // measure 28
00001000
00000010
00000100
00000001
00001000
00000100
00010000
00001000
,  // measure 29
01000000
00000000
00100000
00000000
10000000
00010000
10000000
00010000
10000000
00000000
01000000
00000000
00100000
00010000
00100000
00001000
,  // measure 30
00010000
00001000
00010000
00000100
00001000
00000010
00000100
00000001
,  // measure 31
00000010
00000000
00000100
00000000
00001000
00000100
00001000
00000100
00001000
00000000
00000100
00000000
00000010
00000001
00001000
00000010
,  // measure 32
00010000
00001000
01000000
00001000
00010000
00001000
00100000
00010000
,  // measure 33
10000000
00000000
01000000
00000000
00100000
01000000
00100000
01000000
00100000
00000000
00010000
00000000
00100000
00010000
00100000
00001000
,  // measure 34
00010000
00000100
00001000
00000010
00000100
00000001
00000100
00000010
,  // measure 35
00001000
00000000
00000001
00000000
00000010
00000100
00000010
00000100
00000010
00000000
00000100
00000000
00000010
00000100
00001000
00000001
,  // measure 36
00000100
00000010
00000100
00000010
00001000
00000000
00000100
00000000
,  // measure 37
00010000
00000100
00010000
00000100
00010000
00001000
01000000
00100000
,  // measure 38
10000000
01000000
10000000
01000000
10000000
00000000
00010000
00000000
,  // measure 39
10000000
00100000
10000000
00100000
01000000
00010000
00100000
00001000
,  // measure 40
00010000
00000100
00010000
00000100
00010000
00000000
00001000
00000000
,  // measure 41
00010000
00000100
00010000
00000100
00001000
00000010
00001000
00000001
,  // measure 42
00000010
00000100
00000010
00000100
00001000
00000000
00000100
00000000
,  // measure 43
00001000
00000100
00000010
00000001
00000100
00001000
00010000
00001000
,  // measure 44
00021000
00000000
00000000
00000100
00000000
00001000
00031000
00000000
,  // measure 45
00001100
00000000
00000000
00000000
00001000
00000010
00001000
00000010
00000100
00000000
00000001
00000000
00000100
00000010
00001000
00000100
,  // measure 46
00020000
00000000
00000100
00000100
00000000
00001000
00031000
00000000
,  // measure 47
00011000
00000000
00000000
00000000
00001000
00100000
00001000
00100000
00001000
00000000
00100000
00000000
00010000
01000000
00100000
10000000
,  // measure 48
02000000
00000000
00100000
00100000
00000000
10000000
13000000
00000000
,  // measure 49
10010000
00000000
00000000
00000000
10000000
00100000
10000000
00100000
10000000
00000000
00100000
00000000
01000000
00010000
10000000
00010000
,  // measure 50
02000000
00000000
00001000
00001000
00000000
00100000
03100000
00000000
,  // measure 51
10010000
00000000
00000000
00000000
10000000
00010000
10000000
00010000
02000000
00000000
00000000
00000000
03010000
10000000
00010000
10000000
,  // measure 52
00100000
10000000
01000000
00100000
00010000
00001000
00000100
00000000
,  // measure 53
00000011
00000000
00000000
00000000
00000001
00001000
00000001
00001000
00000001
00000000
00000100
00000000
00000010
00001000
00000001
00000100
,  // measure 54
00000010
00000100
00001000
00010000
00100000
01000000
10000000
00000000
,  // measure 55
10010000
00000000
00000000
00000000
00010000
00100000
00010000
00100000
00010000
00000000
00100000
00000000
01000000
00100000
00010000
01000000
,  // measure 56
00001000
00010000
00000100
00001000
00000010
00000100
00000001
00001000
,  // measure 57
00000100
00000000
00001000
00000000
00000100
00000010
00000100
00000010
00000100
00000000
00001000
00000000
00000010
00001000
00000010
00010000
,  // measure 58
00000100
00010000
00001000
01000000
00010000
00100000
01000000
10000000
,  // measure 59
00010000
00000000
00000000
00000000
10000000
01000000
10000000
01000000
10000000
00000000
01000000
00000000
00100000
00001000
00010000
00001000
,  // measure 60
01000000
00010000
00000000
10000000
00000000
01000000
00000000
00000000
00000000
00000000
00000000
00000000
00000000
00000000
00000000
00000000
,  // measure 61
00000000
00000000
00000000
00000000
00000000
00000000
00000000
10000000
00000000
00010000
00000000
01000000
00000000
00010000
00000000
10000000
,  // measure 62
01000000
00100000
00001000
00010000
00000000
00001000
00000000
00000000
00000000
00000000
00000000
00000000
00000000
00000000
00000000
00000000
,  // measure 63
00000000
00000000
00000000
00000000
00000000
00000000
00000000
00010000
00000000
00000100
00000000
00000100
00000000
00010000
00000000
00000000
,  // measure 64
00001000
01000000
00010000
00100000
00000000
11000000
00000000
00000000
,  // measure 65
00000000
10000000
00000000
00100000
,  // measure 66
00000000
00000000
10000000
00000000
00000000
00000000
00010000
10000000
,  // measure 67
00000000
01000000
00000000
00100000
00000000
01000000
00000000
10000000
,  // measure 68
01000000
00100000
01000000
10000000
00000000
00010000
01000000
00000000
,  // measure 69
00000000
00100000
00000000
01000000
,  // measure 70
01001000
00000000
00001000
00000000
00010000
00000000
00001000
00010000
,  // measure 71
00001000
00010000
00000100
00001001
,  // measure 72
00000001
00000000
00000010
00000000
00000001
00000000
00001000
00000000
00000100
00001000
00000100
00001000
00000100
00000000
00001000
00000000
,  // measure 73
00000010
00000100
00000001
00001000
00000100
00000000
00000010
00000000
00000100
00000000
00001000
00000000
00000100
00010000
00000100
00010000
,  // measure 74
00000100
00000000
00010000
00000000
00001000
00000000
01000000
00000000
00100000
01000000
00100000
01000000
00100000
00000000
01000000
00000000
,  // measure 75
00010000
00000000
10000000
00000000
01000000
00100000
01000000
00100000
01000000
00000000
00100000
00000000
00010000
10000000
00010000
00100000
,  // measure 76
01000000
00000000
00100000
00000000
00010000
00000000
10000000
00000000
00010000
00100000
00010000
00100000
00010000
00000000
01000000
00000000
,  // measure 77
00010000
00000000
10000000
00000000
00010000
00000000
00100000
00000000
00001000
00000000
00010000
00000000
00000100
00001000
00000100
00001000
,  // measure 78
00000100
00000010
00000001
00001000
00000010
00000100
00000010
00001000
,  // measure 79
00000001
00000010
00000100
00001000
00000100
00010000
00011000
00000000
,  // measure 80
00001000
00000000
01000000
00000000
00010000
00000000
10000000
00000000
01000000
00100000
01000000
00100000
01000000
00000000
00100000
00000000
,  // measure 81
00010000
00100000
00001000
00010000
00001000
00000000
00010000
00000000
00000100
00000000
00001000
00000000
00000010
00000100
00000010
00000100
,  // measure 82
00000010
00000000
00001000
00000000
00000100
00000000
00000010
00000000
00000001
00000010
00000001
00000010
00000001
00000000
00001000
00000000
,  // measure 83
00000010
00000000
00000100
00000000
00000001
00001000
00000001
00001000
00000001
00000000
00001000
00000000
00000100
00010000
00001000
01000000
,  // measure 84
00010000
00000000
10000000
00000000
00010000
00000000
01000000
00000000
00100000
10000000
00100000
10000000
00100000
00000000
10000000
00000000
,  // measure 85
01000000
00100000
00010000
10000000
00100000
10000000
00010000
00100000
,  // measure 86
00001000
00001000
00010000
00010000
00001000
00001000
00010000
00010000
,  // measure 87
00001000
00010000
00001000
00010000
00001000
00010000
00001000
00010000
00001000
00010000
00001000
00010000
00001000
00010000
00000000
00000000
;

//---------------dance-double - ---------------
#NOTEDATA:;
#CHARTNAME:;
#CHARTSTYLE:;
#CREDIT:Pandemonium X;
#STEPSTYPE:dance-double;
#DESCRIPTION:;
#DIFFICULTY:Easy;
#METER:7;
#METERF:7;
#RADARVALUES:0,0,0,0,0;
#NOTES:
// measure 0
00000000
00000000
00000000
00000000
,  // measure 1
00000000
00000000
00000000
00000000
,  // measure 2
00000000
00000000
00000000
00000000
,  // measure 3
00000000
00000000
00000000
00000000
,  // measure 4
00001000
00000000
00010000
00000000
,  // measure 5
00001000
00000000
00010000
00000000
,  // measure 6
00000100
00000000
00010000
00000000
,  // measure 7
00001000
00000000
01000000
00000000
,  // measure 8
00100000
00000000
10000000
00000000
,  // measure 9
00100000
00000000
10000000
00000000
,  // measure 10
00010000
00000000
10000000
00000000
,  // measure 11
00010000
00000000
00100000
00000000
,  // measure 12
00001000
00000000
00010000
00000000
,  // measure 13
00000100
00000000
00001000
00000000
,  // measure 14
00000001
00000000
00000100
00000000
,  // measure 15
00000001
00000000
00001000
00000000
,  // measure 16
00000100
00000000
00010000
00000000
,  // measure 17
00001000
00000000
01000000
00000000
,  // measure 18
00010000
00000000
10000000
00000000
,  // measure 19
01000000
00000000
10000000
00000000
,  // measure 20
00010000
00000000
00000000
01000000
00000000
00000000
00100000
00000000
,  // measure 21
10000000
00000000
00000000
00000000
,  // measure 22
01000000
00000000
00000000
00100000
00000000
00000000
00001000
00000000
,  // measure 23
00010000
00000000
00000000
00000000
,  // measure 24
00010000
00000000
00000000
00000100
00000000
00000000
00001000
00000000
,  // measure 25
00000001
00000000
00000000
00000000
,  // measure 26
00000100
00000000
00000000
00000010
00000000
00000000
00001000
00000000
,  // measure 27
00000001
00000000
00000000
00000000
,  // measure 28
00001000
00000000
00000000
00000100
00000000
00000000
00010000
00000000
,  // measure 29
00001000
00200000
00310000
20000000
,  // measure 30
31000000
00000000
00000000
10000000
00000000
00000000
00100000
00000000
,  // measure 31
01000000
00002000
00013000
00000200
,  // measure 32
00001300
00000000
00000000
00000100
00000000
00000000
00000010
00000000
,  // measure 33
00000001
00000200
00000301
00002000
,  // measure 34
00003100
00000000
00000000
00000010
00000000
00000000
00000100
00000000
,  // measure 35
00001000
00000200
00010300
00002000
,  // measure 36
01003000
00000000
00100000
00000000
,  // measure 37
10000000
00000000
00010000
00000000
,  // measure 38
00100000
00000000
01000000
00000000
,  // measure 39
10000000
00000000
01000000
00000000
,  // measure 40
00100000
00000000
00010000
00000000
,  // measure 41
01000000
00000000
00010000
00000000
,  // measure 42
00011000
00000000
00001000
00000000
,  // measure 43
00010000
00000000
00000100
00000000
,  // measure 44
00001000
00000000
00000000
00000010
00000000
00000000
00000100
00000000
,  // measure 45
00000101
00000002
00001003
00000200
,  // measure 46
00000310
00000000
00000000
00000001
00000000
00000000
00001000
00000000
,  // measure 47
00001100
00000200
00010300
00002000
,  // measure 48
01003000
00000000
00000000
00010000
00000000
00000000
00100000
00000000
,  // measure 49
01100000
02000000
13000000
20000000
,  // measure 50
30100000
00000000
00000000
01000000
00000000
00000000
00010000
00000000
,  // measure 51
10010000
00000000
00000000
00000000
,  // measure 52
00210000
00000000
00000000
00010000
00000000
00000000
00010000
00000000
,  // measure 53
00310000
00200000
01300000
20000000
,  // measure 54
30200000
00000000
00000000
01000000
00000000
00000000
01000000
00000000
,  // measure 55
01300000
00020000
00130000
00200000
,  // measure 56
00302000
00000000
00000000
00010000
00000000
00000000
00010000
00000000
,  // measure 57
00013000
00002000
00013000
00000200
,  // measure 58
00002300
00000000
00000000
00000010
00000000
00000000
00000010
00000000
,  // measure 59
00003010
00000200
00000310
00002000
,  // measure 60
00003001
00000000
00000000
00000000
,  // measure 61
00000000
00000000
00000000
00000000
00000000
00000000
00000000
00001000
00000000
00000000
00000000
00000100
00000000
00000000
00000000
00000000
,  // measure 62
00001000
00000000
00000000
00000000
,  // measure 63
00000000
00000000
00000000
00000000
00000000
00000000
00000000
00000100
00000000
00000000
00000000
00010000
00000000
00000000
00000000
00000000
,  // measure 64
00001000
00000000
00000000
01000000
00000000
00010000
00000000
00000000
,  // measure 65
00000000
00000000
00000000
00000000
,  // measure 66
00000000
00000000
00000000
00000000
00000000
00000000
00000000
10000000
,  // measure 67
00000000
00000000
00000000
01000000
00000000
00000000
00000000
00000000
,  // measure 68
00100000
00000000
00000000
01000000
00000000
10000000
00000000
00000000
,  // measure 69
00000000
00000000
00000000
00000000
,  // measure 70
10010000
00000000
00000000
00000000
00000000
00000000
00000000
00010000
,  // measure 71
00000000
00000000
00000000
00000000
,  // measure 72
10000000
00000000
00100000
00000000
,  // measure 73
01000000
00010000
00100000
00001000
,  // measure 74
00010000
00000000
00000100
00000000
,  // measure 75
00001000
00000010
00000100
00000001
,  // measure 76
00000010
00000000
00000100
00000000
,  // measure 77
00000010
00000001
00001000
00000100
,  // measure 78
00000010
00000000
00000100
00000000
,  // measure 79
00001000
00000010
00000100
00000001
,  // measure 80
00001000
00000001
00001000
00000001
,  // measure 81
00001000
00000010
00001000
00000010
,  // measure 82
00001000
00000100
00001000
00000100
,  // measure 83
00010000
00000100
00010000
00000100
,  // measure 84
00010000
00001000
00010000
00001000
,  // measure 85
01000000
00001000
01000000
00001000
,  // measure 86
01000000
01000000
00100000
00100000
,  // measure 87
10000000
10000000
00010000
10010000
;
