#TITLE:Frozen Fire;
#SUBTITLE:;
#ARTIST:Kbit;
#TITLETRANSLIT:;
#SUBTITLETRANSLIT:;
#ARTISTTRANSLIT:;
#GENRE:;
#CREDIT:;
#MUSIC:Frozen Fire.ogg;
#BANNER:banner.png;
#BACKGROUND:background.png;
#CDTITLE:cdtitle.png;
#SAMPLESTART:12.000;
#SAMPLELENGTH:11.840;
#SELECTABLE:YES;
#OFFSET:-0.003;
#BPMS:0.000=160.000000
,127.500=150.000000
,128.000=130.000000
,128.500=98.000000
,129.000=88.000000
,129.250=65.000000
,129.500=53.704000
,131.000=62.520000
,147.000=31.210000
,148.000=160.000000
;
#STOPS:94.000=0.375;
#BGCHANGES:99999.000=-nosongbg-=1.000=0=0=0=StretchNoLoop====;
#FGCHANGES:;

//--------------- dance-single - Pandemonium X ----------------
#NOTES:
     dance-single:
     Pandemonium X:
     Beginner:
     3:
     0,0,0,0,0:
0000
0000
0000
0000
,
0000
0000
0000
0000
,
0000
0000
0000
0000
,
0000
0000
0000
0000
,
0001
0000
0000
0000
,
1000
0000
0000
0000
,
0010
0000
0000
0000
,
0200
0000
0000
0300
,
0010
0000
0000
0000
,
0100
0000
0000
0000
,
0001
0000
0000
0000
,
0000
0000
1000
1000
,
0001
0000
0000
0000
,
1000
0000
0000
0000
,
0010
0000
0000
0000
,
0200
0000
0000
0300
,
0010
0000
0000
0000
,
1000
0000
0000
0000
,
0001
0000
0000
0000
,
0010
0000
0001
0000
,
1000
0000
0000
0000
,
0001
0000
0000
0000
,
0100
0000
0010
0000
,
1000
0000
0000
1001
,
0000
0000
0000
0001
,
0000
0000
0000
1000
,
0000
0000
0000
0010
,
0000
0100
0000
0010
,
0000
0000
0000
0100
,
0000
0000
0000
0001
,
0000
1000
0000
0001
,
1000
0010
0100
1001
,
0000
0000
0000
0001
,
0000
1000
0000
0010
,
0000
0100
0010
1000
,
0000
0001
0000
0010
,
0000
0100
1000
0001
,
1000
0000
0000
0000
,
0001
0000
0000
0000
,
0100
0000
0000
0000
,
0010
0000
0100
0100
,
0010
0000
0000
0000
,
0100
0000
0000
0000
,
0001
0000
0000
0000
,
0000
0000
1000
0001
,
1000
0000
0000
0000
,
0010
0000
0000
0000
,
0100
0000
0000
0000
,
0002
0000
0000
0003
,
1000
0000
1000
0000
,
0001
0000
0001
0000
,
0100
0000
0100
0000
,
0000
0000
0010
0010
,
0100
0000
0010
0000
,
0100
0000
0001
0000
,
1000
0000
0001
0000
,
2000
0000
0000
3000
,
0001
0000
0000
0000
,
1000
0000
0000
0000
,
0100
0000
0000
0000
,
0010
0000
0100
0000
,
1001
0000
0000
0000
;

//--------------- dance-single - Pandemonium X ----------------
#NOTES:
     dance-single:
     Pandemonium X:
     Easy:
     6:
     0,0,0,0,0:
0000
0000
0000
0000
,
0000
0000
0000
0000
,
0000
0000
0000
0000
,
0000
0000
0000
0000
,
0001
1000
0000
0001
,
1000
0001
0000
1000
,
0001
0100
0010
1000
,
2002
0000
0000
3003
,
0001
1000
0100
0000
,
1000
0001
0100
0001
,
1000
0001
0010
0001
,
0000
0000
0000
1000
0100
0000
1100
0000
,
1000
0010
1000
0000
,
0001
0100
0001
1000
,
0001
0010
0001
1000
,
0000
0000
0001
1000
,
0010
0100
0001
0000
,
0100
0010
1000
0000
,
0001
1000
0100
0000
,
0010
0000
0100
0000
,
1000
0001
0010
0000
,
0001
1000
0010
0000
,
0100
0001
1000
0100
,
0010
0001
0000
1001
,
0001
0100
0000
0001
,
1000
0100
0000
1000
,
0001
0010
0000
0001
,
1000
0001
0100
0001
,
1000
0010
0000
1000
,
0001
0010
0000
1001
,
0000
1001
0000
1001
,
0110
0000
0001
0100
0010
1000
0001
0000
,
0000
0000
0000
2000
,
3100
0000
2000
0000
3010
0100
0002
0000
,
0103
0000
0002
0000
1003
0001
0010
0001
,
0010
0000
0100
1000
0100
0000
1000
0010
,
1000
0000
0001
0100
0001
0000
2000
3000
,
0002
0000
0000
0000
0000
0003
0000
0000
,
2000
0000
0000
0000
0000
3000
0000
0000
,
0010
0100
0001
1000
,
0001
1000
0110
0110
,
1000
0001
0010
0000
,
0001
1000
0010
1000
,
0001
1000
0001
0100
,
0000
0000
0000
0001
0100
0000
0101
0000
,
0001
0010
0001
0000
,
1000
0010
1000
0001
,
0100
0001
1000
0100
,
0020
0000
0130
1000
,
0001
1000
0010
0000
,
1000
0001
0010
0001
,
1000
0100
1000
0001
,
0000
0000
0000
1000
0001
0000
1001
0000
,
1000
0001
0010
0000
,
0001
1000
0010
1000
,
0100
1000
0001
0100
,
0020
0000
0130
0001
,
1000
0000
0001
0000
,
0010
0000
0100
0000
,
1000
0000
0100
0000
,
1000
0000
0000
0000
0001
0100
0010
1000
,
0001
0000
0000
0000
;

//--------------- dance-single - Pandemonium X ----------------
#NOTES:
     dance-single:
     Pandemonium X:
     Medium:
     11:
     0,0,0,0,0:
0000
0000
0000
0000
,
0000
0000
0000
0000
,
0000
0000
0000
0000
,
0000
0000
0000
0000
,
0001
0000
0201
0000
0000
0310
1010
0000
,
1000
0000
1200
0000
0000
0310
0011
0000
,
0001
0100
0001
0000
1000
0010
1000
0000
,
0004
4000
0000
0000
0000
0000
0000
0000
0000
0000
0000
0000
3003
0000
0000
0000
,
0001
0000
0000
0000
1000
0000
0000
0100
0000
0000
1000
0000
0000
0000
0000
0000
,
0010
0000
0000
0000
0100
0000
0000
0001
0000
0000
0100
0000
0001
0000
0001
0000
,
1000
0000
0000
0000
0001
0000
0000
0010
0000
0000
0001
0000
1000
0000
1000
0000
,
0000
0000
0000
0001
0100
1000
0100
0001
,
1000
0000
0000
0000
0100
0000
0000
1000
0000
0000
0001
0000
0000
0000
0000
0000
,
0100
0000
0000
0000
0001
0000
0000
0100
0000
0000
0010
0000
1000
0000
1000
0000
,
0100
0000
0000
0000
0010
0000
0000
0001
0000
0000
1000
0000
0001
0000
0001
0000
,
0000
0000
0000
0000
0000
0000
0001
0000
0010
0000
1000
0000
0010
0001
1000
0000
,
0010
0000
0000
0100
0000
0000
0001
0000
1000
0000
0000
0000
1100
0000
0000
0000
,
1000
0000
0000
0010
0000
0000
0100
0000
0001
0000
0000
0000
0011
0000
0000
0000
,
0010
0000
0000
0001
0000
0000
1000
0000
0100
0000
0000
0000
0110
0000
0000
0000
,
0100
0000
1100
0000
0100
0001
0100
1000
,
0001
0000
0000
1000
0000
0000
0001
0000
0100
0000
0000
0000
0101
0000
0000
0000
,
0001
0000
0000
0100
0000
0000
0001
0000
1000
0000
0000
0000
1100
0000
0000
0000
,
0100
0000
0000
0010
0000
0000
0100
0000
0000
0000
1000
0000
0100
0000
0000
0000
,
1000
0000
0000
0000
0001
0000
0200
0000
0010
0000
0000
0000
0301
0000
0000
1000
,
0000
0000
0100
1000
0100
0000
1000
0000
0001
0000
0000
0000
0100
0000
0000
0001
,
0000
0000
0010
0001
0010
0000
0001
0000
0000
0000
0000
0000
1000
0000
0000
0001
,
0000
0000
0100
0010
0100
0000
0010
0000
1000
0000
0000
0000
0001
0000
1000
0000
,
0100
1000
0100
0000
1000
0000
0001
0100
0001
0000
1000
0000
0001
0000
0000
1000
,
0000
0000
0010
0100
0010
0100
0000
0000
0000
0000
0000
0000
0001
0000
0000
1000
,
0000
0000
0100
0010
0100
0010
0000
0000
0000
0000
0000
0000
0011
0000
0000
0000
,
0000
1100
0000
0011
,
1100
0000
0011
1100
0011
1100
2002
0000
,
0000
0000
0000
0000
0000
0000
3003
0000
0000
0000
0000
0000
0001
0100
0000
0100
,
0001
0000
1000
0000
0100
0010
0000
0010
0100
0000
1000
0000
0100
0010
0000
0010
,
0001
0000
1000
0000
0001
0100
0000
0100
0010
0000
0100
0000
0001
1000
0000
1000
,
0100
0000
0010
0000
0001
0010
0000
0010
0001
0000
1000
0000
0010
1000
0000
1000
,
0001
0000
1000
0000
0001
0100
0010
1000
0001
0000
1000
0000
0220
0000
0330
0000
,
0001
0000
1000
0000
0100
1000
0100
0000
,
1000
0000
0010
0000
0100
0001
0100
0000
,
0001
0100
0010
0000
0100
0010
1000
0000
,
4000
0004
0000
0000
0000
0000
0000
0000
0000
0000
0000
0000
3003
0000
0000
0000
,
0001
0000
0000
0000
1000
0000
0000
0001
0000
0000
0100
0000
0000
0000
0000
0000
,
0001
0000
0000
0000
1000
0000
0000
0001
0000
0000
0010
0000
0001
0000
0001
0000
,
0010
0000
0000
0000
0001
0000
0000
1000
0000
0000
0010
0000
1000
0000
0001
0000
,
0000
0000
0000
0001
0100
1000
0100
0001
,
1000
0000
0000
0000
0100
0000
0000
0010
0000
0000
0100
0000
0000
0000
0000
0000
,
0010
0000
0000
0000
0001
0000
0000
0100
0000
0000
0001
0000
1000
0000
0010
0000
,
1000
0000
0000
0000
0001
0000
0000
1000
0000
0000
0100
0000
0010
0000
0100
0000
,
0000
0000
0000
0000
0000
0000
0010
0000
1000
0000
0010
0000
0001
1000
0001
0000
,
2000
0000
0000
0000
0100
0000
0000
0010
0000
0000
3001
0000
0000
0000
0000
0000
,
0002
0000
0000
0100
0000
0000
2000
0003
0000
0100
0000
0000
3001
0000
1000
0000
,
0020
0000
0000
1000
0000
0000
0230
0000
0000
0001
0000
0000
0310
0000
0100
0000
,
0000
0000
0000
0100
1000
0100
0001
1000
,
0002
0000
0000
0000
0010
0000
0000
0100
0000
0000
1003
0000
0000
0000
0000
0000
,
2000
0000
0000
0010
0000
0000
0002
3000
0000
0010
0000
0000
1003
0000
0001
0000
,
0200
0000
0000
0001
0000
0000
0320
0000
0000
1000
0000
0000
0130
0000
0100
0000
,
0000
0000
0000
0000
0000
0000
0010
0000
0001
0000
0010
0000
1000
0001
0010
0000
,
0100
0010
0001
0000
0010
0100
1000
0000
,
0100
1000
0010
0000
0100
0001
0010
0000
,
0001
0100
0010
0000
0100
0010
1000
0000
,
1001
0000
0000
0000
0000
0000
0001
0000
0100
0000
0001
0000
1000
0100
0010
0000
,
0011
0000
0000
0000
;

//--------------- dance-single - Pandemonium X ----------------
#NOTES:
     dance-single:
     Pandemonium X:
     Hard:
     15:
     0,0,0,0,0:
0000
0000
0000
0000
,
0000
0000
0000
0000
,
0000
0000
0000
0000
,
0000
0000
0000
0000
,
2100
0000
0000
0000
3002
0000
0000
0000
0000
0000
0103
0010
010M
0000
0000
0000
,
0012
0000
0000
0000
2003
0000
0000
0000
0000
0000
3010
0100
M010
0000
0000
0000
,
1000
0010
0100
0001
0010
0001
1000
0100
,
0010
0001
0010
0001
1000
0010
1000
0010
4000
0004
0000
0000
0000
0000
3003
0000
,
0100
0010
0000
0010
0100
0000
0100
0001
0000
0001
1000
0000
0000
0000
0000
0000
,
1000
0001
0000
0001
0010
0000
0010
0100
0000
0100
0010
0000
0001
0000
0010
0000
,
0100
0010
0000
0010
0001
0000
0001
1000
0000
1000
0010
0000
1000
0000
0001
0000
,
0000
0000
0000
1000
0100
M100
0001
1000
,
0001
0100
0000
0100
0010
0000
0010
0100
0000
0100
0001
0000
0000
0000
0000
0000
,
0001
1000
0000
1000
0100
0000
0100
0010
0000
0010
0100
0000
0100
0010
0001
0000
,
0010
0100
0000
0100
1000
0000
1000
0001
0000
0001
0100
0000
0010
0000
1000
0000
,
0002
0003
0200
0300
2000
3000
0200
0300
0020
0030
2000
3000
0001
0010
0100
0000
,
1100
0000
0100
0020
0000
0030
0100
0010
0001
0000
1000
0000
0010
0000
0000
0000
,
0100
0000
0002
1000
0000
0000
0103
0010
0100
0010
0100
0000
0001
0000
1000
0000
,
0200
0301
0100
2000
0010
3010
0210
0000
,
0310
0000
0000
0000
0000
0000
0010
0100
0010
0000
0100
0000
1001
0000
0000
0000
,
0001
1000
0001
0010
0000
0100
0010
0001
1000
0001
0000
0000
0000
0000
0000
0000
,
1000
0010
1000
0001
0000
0010
0100
0010
0001
0100
0001
0000
0000
0000
0000
0000
,
0100
0010
1000
0000
0001
0000
1000
0100
0010
0000
0100
0000
2100
0000
0000
0000
,
3001
0000
0000
0000
0100
0000
0010
0000
4000
3000
0000
0000
0001
0000
0010
0100
,
0000
0010
0200
2300
3002
0203
0310
0000
1000
0000
0001
0000
0100
0010
0100
0000
,
0001
0000
0200
0320
2030
3002
0023
0030
0100
0000
0010
0000
0002
0000
0100
0000
,
0000
0000
2003
3200
2300
3002
0203
0300
0010
0000
1000
0000
0001
0000
0000
0000
,
2000
3200
0320
0030
0110
0000
0020
0032
0203
0300
0020
2030
3002
0013
0100
0010
,
0001
0000
0020
0230
2300
3002
0203
0300
0000
0000
0000
0000
0010
1000
0001
0010
,
0100
0000
0020
0032
2003
3002
0023
0030
0000
0000
0000
0000
M1M1
0000
0000
0002
,
0203
0000
0310
0000
1M1M
0000
0000
2000
3020
0000
1030
0000
M1M1
0000
0000
0000
,
1MM1
0000
11MM
MM11
11MM
1M1M
2MM2
0000
,
0000
0000
0000
0000
0000
0000
0000
0000
3000
0000
0003
0000
1000
0100
0000
0100
,
1000
0000
0001
0000
0100
0001
0000
0001
0100
0000
0010
0000
1000
0001
0000
0001
,
0010
0000
0100
0000
0010
1000
0000
0010
0001
0000
1000
0000
0001
0100
0010
1000
,
0100
0000
1100
0000
1000
0100
0010
0001
1000
0000
0011
0000
0001
0100
1000
0000
,
0100
0000
0000
0001
0000
0000
1000
0000
0000
0000
0000
0000
0001
0000
0000
0010
0000
0000
1000
0000
0000
0010
0000
0000
0100
0000
0000
0010
0000
0000
0001
0000
0000
0000
0000
0000
2002
0000
0000
0000
0000
0000
3000
0000
0000
0000
0000
0003
,
020M
0000
0000
0000
0320
0000
0130
0001
1000
0000
1001
0000
0000
0000
0000
0000
,
2000
0000
0000
3200
0000
0000
0320
0000
0000
0000
0031
0000
0000
0000
0000
0000
,
1000
0100
1000
0000
0001
0100
0001
0000
0010
0001
0010
0000
0001
0000
0000
0000
,
1000
0001
1000
0001
0100
0001
0100
0001
0040
0400
0000
0330
4000
0004
0000
3003
,
0100
0001
0000
0010
0100
0000
0010
0001
0000
1000
0001
0000
0000
0000
0000
0000
,
1000
0100
0000
1000
0010
0000
0100
0001
0000
0010
0100
0000
0010
0000
0001
0000
,
1000
0100
0000
0010
0001
0000
0010
0100
0000
0010
0001
0000
0100
0000
0001
0000
,
0000
0000
0000
0001
0100
010M
1000
0001
,
1000
0010
0000
0100
0001
0000
0010
0100
0000
0010
0001
0000
0000
0000
0000
0000
,
0010
0001
0000
1000
0010
0000
0100
0001
0000
0010
0001
0000
1000
0100
1000
0000
,
1000
0010
0000
0100
0010
0000
1000
0010
0000
0100
0001
0000
0010
0000
0100
0000
,
0020
0030
0002
0003
0200
0300
0020
0030
2000
3000
0002
0003
1000
0100
0010
0000
,
0001
0100
0000
010M
1000
0000
1000
0100
0000
M100
0001
0000
0000
0000
0000
0000
,
1000
0010
0000
M010
0001
0000
0001
0100
0000
010M
1000
0000
0001
0000
1000
0000
,
0001
0010
0000
001M
1000
0000
1000
0100
0000
M100
0001
0000
1000
0000
0001
0000
,
0000
0000
0000
1000
0100
M100
0001
1000
,
0001
0100
0000
010M
1000
0000
1000
0100
0000
M100
0001
0000
0000
0000
0000
0000
,
1000
0010
0000
M010
0001
0000
0001
0100
0000
010M
1000
0000
0001
1000
0001
0000
,
0001
0010
0000
001M
1000
0000
1000
0100
0000
M100
0001
0000
1000
0000
0001
0000
,
2000
3000
0020
0030
0200
0300
0002
0003
2000
3000
0200
0300
0010
0001
1000
0000
,
1001
0000
1000
0100
0000
0000
0010
0100
0010
0001
1000
0000
0000
0000
0000
0000
,
0010
0000
0200
0000
0301
0000
1000
0001
0010
0001
1000
0000
0000
0000
0001
0000
,
0201
0000
0310
2000
0000
0001
3002
0000
,
1003
0010
0100
0001
0010
0100
1000
0001
0100
0000
1000
0000
0100
0001
0010
0000
,
1100
0000
0000
0000
;
