#VERSION:0.83;
#TITLE:Countdown to Heaven or Hell;
#SUBTITLE:;
#ARTIST:dj TAKA;
#TITLETRANSLIT:;
#SUBTITLETRANSLIT:;
#ARTISTTRANSLIT:;
#GENRE:;
#CREDIT:;
#MUSIC:Countdown to Heaven or Hell.ogg;
#BANNER:;
#BACKGROUND:;
#JACKET:;
#DISCIMAGE:;
#CDIMAGE:;
#SELECTABLE:YES;
#LYRICSPATH:;
#CDTITLE:;
#SAMPLESTART:66.629;
#SAMPLELENGTH:12.629;
#OFFSET:-0.048;
#BPMS:0.000000=155.000000,
101.000000=310.000000,
111.000000=155.000000
;
#STOPS:111.000000=0.387000,
291.000000=0.387000
;
#WARPS:;
#DELAYS:;
#SPEEDS:0.000000=1.000000=0.000000=0;
#SCROLLS:0.000000=1.000000;
#TICKCOUNTS:0.000000=4;
#TIMESIGNATURES:0.000000=4=4;
#LABELS:0.000000=Song Start;
#COMBOS:0.000000=1;
#FAKES:;
#BGCHANGES:0=Countdown to Heaven or Hell.mp4=1.000000=0=0=1=====,
99999=-nosongbg-=1.000000=0=0=0=StretchNoLoop====
;
#FGCHANGES:;
#ATTACKS:;
#TAGS:;
#PREVIEWVID:;

//---------------dance-single - ---------------
#NOTEDATA:;
#CHARTNAME:;
#CHARTSTYLE:;
#CREDIT:Pandemonium X;
#STEPSTYPE:dance-single;
#DESCRIPTION:;
#DIFFICULTY:Hard;
#METER:16;
#METERF:16;
#RADARVALUES:0.741792,1.051426,0.043056,0.129168,1.01612,603,598,5,15,54,0,0,0,0,0.741792,1.051426,0.043056,0.129168,1.01612,603,598,5,15,54,0,0,0,0;
#CHARTHASH:2147483647;
#BANNER:;
#LASTSECONDHINT:112.891167;
#NOTES:
// measure 0
0000
0000
0000
0000
,  // measure 1
1000
1000
1000
1000
,  // measure 2
1000
1000
1000
1000
,  // measure 3
1000
1000
1000
1000
,  // measure 4
1000
0000
1000
0000
1000
0000
1000
1000
,  // measure 5
0001
0001
0001
0001
,  // measure 6
0001
0001
0001
0001
,  // measure 7
0001
0001
0001
0001
,  // measure 8
0001
0000
0001
0M00
00M0
0M00
00M0
0M00
,  // measure 9
1000
0000
0000
0001
1000
0000
0010
0000
1000
0000
0000
0001
1000
0000
0010
0000
,  // measure 10
1000
0000
0000
0001
1000
0000
0010
0000
0100
0010
0100
0010
0100
0010
0100
0000
,  // measure 11
0001
0000
0000
1000
0001
0000
0100
0000
0001
0000
0000
1000
0001
0000
0100
0000
,  // measure 12
0001
0000
0000
1000
0001
0000
00M0
0000
0M00
0000
00M0
0000
0M00
0000
00M0
0000
,  // measure 13
1000
0000
0000
0100
0010
0000
0001
0000
1000
0000
0000
0001
0100
0000
0010
0000
,  // measure 14
1000
0000
0000
0100
0010
0000
0001
0000
0100
0010
0100
0010
0100
0010
0100
0000
,  // measure 15
0001
0000
0000
0100
0001
0000
1000
0000
0010
0000
0000
0100
0001
0000
1000
0000
,  // measure 16
0010
0000
0110
000M
M000
000M
M000
000M
,  // measure 17
1001
0000
0000
1000
0100
0000
0000
0100
0010
0000
0000
0010
0001
0000
1000
0000
,  // measure 18
0001
0000
0000
0001
0100
0000
0000
0100
0010
0000
0000
0010
1000
0000
0001
0000
,  // measure 19
1000
0000
0000
0001
0010
0000
0000
0010
0100
0000
0000
0100
1000
0000
0001
0000
,  // measure 20
0100
0000
0000
0100
0010
0000
000M
0000
M000
0000
000M
0000
M000
0000
000M
0000
,  // measure 21
1001
0000
0000
0000
0001
0000
0000
0001
1000
0000
0000
0000
0001
0000
1000
0001
,  // measure 22
1000
0000
0000
0000
0001
0000
0000
0000
1000
0000
0000
0001
1000
0001
1000
0001
,  // measure 23
1000
0000
0001
1000
0001
0000
1000
0001
1000
0000
0001
1000
0001
0000
1000
0001
,  // measure 24
0100
0000
0100
0000
0100
0000
0100
0000
0100
0010
0000
0100
0001
1000
0100
0010
,  // measure 25
0001
0000
M220
000M
M000
000M
M000
000M
,  // measure 26
M000
000M
M000
000M
M000
000M
M000
000M
,  // measure 27
M000
000M
M000
000M
M000
000M
0330
0000
,  // measure 28
1001
0000
0001
0000
0000
1000
0000
0000
0100
0000
0000
0100
0000
0000
1000
0000
,  // measure 29
0000
0000
0001
0000
0000
1000
0000
0000
0010
0000
0000
0010
0000
0000
0100
0000
,  // measure 30
0000
0000
0001
0000
0000
0010
0000
0000
0001
0000
0000
0001
0000
0000
0001
0000
,  // measure 31
0000
0000
1000
0000
0000
0010
0000
0000
1000
0000
0000
1000
0000
0000
1000
0000
,  // measure 32
0001
0000
0000
0001
0000
0000
0001
0000
0000
1000
0000
0000
0010
0000
0100
0000
,  // measure 33
0000
0000
0010
0000
0000
0010
0000
0000
0100
0001
0000
0000
1000
0001
1000
0001
,  // measure 34
0010
0000
0000
0010
0000
0000
0100
0000
0000
0100
0000
0000
0010
0000
0001
0000
,  // measure 35
0000
0000
0001
0000
0010
0100
1000
0001
1000
0010
0100
0001
1000
0001
0010
0001
,  // measure 36
1000
0000
0001
0000
0010
0000
0100
1000
0000
0001
0100
0000
0001
0000
0000
0000
,  // measure 37
0100
0000
0001
0000
1000
0000
0010
1000
0000
0001
0010
0000
0100
0000
0010
0000
,  // measure 38
0001
0000
1000
0000
0100
0000
0010
0100
0000
1000
0001
0000
1000
0000
0000
0000
,  // measure 39
0010
0000
0100
0000
0001
0000
1000
0100
0000
0010
0100
0000
1000
0000
0001
0000
,  // measure 40
1000
0010
0000
0100
0001
0000
1000
0010
0000
0100
0001
0000
1000
0001
1000
0001
,  // measure 41
1000
0100
0000
0010
0001
0000
1000
0100
0000
0010
0001
0000
0010
0100
0010
0100
,  // measure 42
2000
0000
0000
3100
0000
0000
0200
0000
0000
0310
0000
0000
0001
0000
0100
0000
,  // measure 43
0000
0000
0200
0000
0310
1000
0001
0010
0100
0010
0001
1000
0001
0010
0001
1000
,  // measure 44
0010
0000
1000
0000
0000
0001
0000
0010
0100
0010
0000
0001
0000
0100
0010
0000
,  // measure 45
0000
0000
0100
0000
0000
0010
0000
0100
0010
1000
0000
0100
0000
1000
0100
0000
,  // measure 46
0000
0000
0010
0000
0000
0100
0000
1000
0001
0100
0000
0001
0000
1000
0100
0000
,  // measure 47
0000
0000
0100
0000
0000
0010
0000
0001
1000
0010
0000
0010
0000
1000
0001
0000
,  // measure 48
0001
1000
0010
1000
0001
0010
0001
1000
0010
1000
0000
0000
0001
1000
0100
0000
,  // measure 49
0000
0000
1000
0000
0000
1000
0000
0001
0000
1000
0000
0000
1000
0001
0010
0001
,  // measure 50
1000
0000
0000
0010
0000
0000
0100
0000
0000
0001
0000
0000
0100
0000
0100
0000
,  // measure 51
0000
0000
0001
0000
0100
0010
1000
0001
0010
0001
1000
0010
1000
0001
0010
0001
,  // measure 52
2000
0000
0000
3002
0000
0000
0203
0000
,  // measure 53
2300
3200
0302
0023
,  // measure 54
0200
0000
0000
0000
0030
0000
0010
0020
,  // measure 55
0000
0000
0000
0000
0000
0300
0M30
0000
,  // measure 56
0001
0000
0000
0001
0000
0000
0001
0000
0000
2000
0000
0000
3100
0010
0100
0010
,  // measure 57
0100
0000
0000
0100
0000
0000
0100
0000
0000
0200
0000
0000
0310
0000
0100
1000
,  // measure 58
0001
0000
0000
0000
1000
0001
0100
0010
2000
0000
0000
0000
3001
0100
0010
1000
,  // measure 59
0002
0000
0000
0000
0000
0000
0000
0000
0000
0000
0000
0000
0103
0000
0000
0010
0000
0000
1000
0000
0000
0001
0000
0000
1000
0000
0000
0000
0000
0000
0001
0000
0100
0000
0001
0000
0100
0000
0000
0000
0000
0000
0001
0000
0000
0000
0000
0000
,  // measure 60
1000
0010
1000
0001
0100
0000
0010
0100
0001
1000
0100
0010
0001
1000
0001
1000
,  // measure 61
0100
0000
0010
0100
0000
1000
0001
0000
0100
0001
0000
1000
0100
0010
0100
1000
,  // measure 62
0001
0000
1000
0010
0000
M010
0001
0000
0001
0010
0000
0010
1000
010M
1000
0001
,  // measure 63
1000
0000
0001
0100
0000
010M
1000
0000
0100
0010
0001
1000
0001
1000
0001
0100
,  // measure 64
0001
0100
0010
1000
0001
0010
0100
0010
0001
1000
0200
0000
1300
0001
0100
0001
,  // measure 65
1000
0001
0010
0001
1000
0010
0100
0001
1000
0001
0020
0000
0031
1000
0100
1000
,  // measure 66
0001
0100
1000
0100
0001
1000
0100
1000
0100
0001
0100
1000
0001
0010
0100
1000
,  // measure 67
0001
0000
0000
0100
0000
0000
1000
0000
0000
0100
0000
0000
0001
0000
0000
0010
0000
0000
1000
0000
0000
0010
0000
0000
0001
0000
0000
0000
0000
0000
1000
0000
0001
0000
1000
0000
0002
0000
0000
0000
0000
0000
0023
0000
0000
0000
0000
0000
,  // measure 68
0130
1000
0010
0100
0002
0000
1003
0100
0010
0001
0010
0001
0100
1000
0100
0010
,  // measure 69
1000
0010
0001
0010
1000
0100
0001
0100
0010
1000
0010
0001
0100
0010
1000
0001
,  // measure 70
1000
0001
1000
0010
0000
M010
0001
0000
0001
0010
0000
001M
1000
0001
1000
0001
,  // measure 71
1000
0000
0001
0100
0000
010M
1000
0001
1000
0100
0010
0100
1000
0100
0010
0001
,  // measure 72
1M00
0010
0100
M001
0100
0010
100M
0010
0100
001M
1000
0001
M010
0000
0000
0000
,  // measure 73
2002
0000
0000
0000
,  // measure 74
3003
0000
0000
0000
;

//---------------dance-single - ---------------
#NOTEDATA:;
#CHARTNAME:;
#CHARTSTYLE:;
#CREDIT:Pandemonium X;
#STEPSTYPE:dance-single;
#DESCRIPTION:;
#DIFFICULTY:Medium;
#METER:11;
#METERF:11;
#RADARVALUES:0,0,0,0,0;
#NOTES:
// measure 0
0000
0000
0000
0000
,  // measure 1
0001
1000
0001
1000
,  // measure 2
0001
1000
0001
1000
,  // measure 3
0001
1000
0001
1000
,  // measure 4
0001
0000
1000
0000
0001
0000
1000
0001
,  // measure 5
1000
0001
1000
0001
,  // measure 6
1000
0001
1000
0001
,  // measure 7
1000
0001
1000
0001
,  // measure 8
1000
0001
0000
0000
,  // measure 9
0201
0310
0201
0310
,  // measure 10
0201
0000
0310
0000
0100
0010
0100
0000
,  // measure 11
0102
1003
0102
1003
,  // measure 12
0102
0000
1003
0000
0001
0010
0100
1000
,  // measure 13
1020
0130
1020
0130
,  // measure 14
1020
0000
0130
0000
0010
0100
0010
0000
,  // measure 15
0102
1003
0102
1003
,  // measure 16
0102
0000
1003
0000
0100
0010
0001
1000
,  // measure 17
2010
3200
0320
0031
,  // measure 18
2100
3200
0320
0031
,  // measure 19
2100
3200
0320
0031
,  // measure 20
2100
0000
3200
0000
0310
0001
0010
0100
,  // measure 21
1000
0000
0000
0000
0001
0000
0000
1000
0001
0000
0000
0000
1000
0000
0001
0000
,  // measure 22
1000
0000
0000
0000
0001
0000
0000
0000
1000
0000
0000
0001
1000
0000
0001
0000
,  // measure 23
0011
0110
1100
0011
,  // measure 24
1001
0101
1010
0110
,  // measure 25
2002
0000
0000
0000
,  // measure 26
0000
0000
0000
0000
,  // measure 27
0000
0000
0000
3003
,  // measure 28
0001
1000
0200
0300
,  // measure 29
1000
0001
0200
0300
,  // measure 30
0001
1000
0020
0030
,  // measure 31
1000
0001
0020
0030
,  // measure 32
0001
1000
0100
0001
,  // measure 33
0100
1000
0010
0001
,  // measure 34
0010
0000
0100
0000
0001
0000
1000
0001
,  // measure 35
0000
0010
0100
0000
1000
0000
0100
0000
,  // measure 36
1000
0001
0100
0000
0010
0000
0100
0000
,  // measure 37
0001
0100
0010
0000
0100
0000
0001
0000
,  // measure 38
1000
0001
0010
0000
0001
0000
1000
0000
,  // measure 39
0100
1000
0001
0000
0100
0000
0001
0000
,  // measure 40
1000
0000
0000
0001
0000
0000
0100
0000
0000
0010
0000
0000
1000
0000
1000
0000
,  // measure 41
0100
0000
0000
0010
0000
0000
0001
0000
0000
1000
0000
0000
0010
0000
0100
0000
,  // measure 42
0001
0000
0000
0100
0000
0000
0010
0000
0000
1000
0000
0000
0001
0000
0001
0000
,  // measure 43
0000
1000
0100
0010
0100
1000
0001
0010
,  // measure 44
0000
0000
0100
0000
0000
0010
0000
0000
0001
0000
0000
0100
0000
0000
0010
0000
,  // measure 45
0000
0000
0100
0000
0000
0010
0000
0000
1000
0000
0000
0001
0000
0000
1000
0000
,  // measure 46
0000
0000
0001
0000
0000
0010
0000
0000
0001
0000
0000
1000
0000
0000
0100
0000
,  // measure 47
0000
0000
1000
0000
0000
0100
0000
0000
1000
0000
0000
0001
0000
0000
0100
0000
,  // measure 48
0001
0000
0000
0001
0000
0000
0001
0000
0000
1000
0000
0000
0100
0000
1000
0000
,  // measure 49
0000
0000
0010
0000
0000
0010
0000
0000
0100
0001
0000
0000
1000
0000
0001
0000
,  // measure 50
0010
0000
0000
0100
0000
0000
0010
0000
0000
0001
0000
0000
0100
0000
0100
0000
,  // measure 51
0000
0010
0100
0001
1000
0100
0010
0100
,  // measure 52
2000
0000
0000
3002
0000
0000
0203
0000
,  // measure 53
0320
2030
3002
0023
,  // measure 54
0230
0000
0000
0000
0000
0000
1000
2000
,  // measure 55
0000
0000
0000
3300
,  // measure 56
0011
0000
0001
0000
0100
0000
0010
0100
,  // measure 57
0001
0000
1000
0000
0100
0000
0010
0100
,  // measure 58
1000
0000
0100
0010
0001
0000
0010
0100
,  // measure 59
1000
0000
0100
0010
0001
0100
1000
0100
,  // measure 60
0001
0100
0010
0000
0100
0000
0001
0000
,  // measure 61
1000
0000
0000
1000
0000
0000
0001
0000
0000
0001
0000
0000
0100
0000
0001
0000
,  // measure 62
1000
0000
0000
0100
0000
0000
0010
0000
0000
0001
0000
0000
1000
0000
0001
0000
,  // measure 63
1000
0000
0000
0001
0000
0000
0100
0000
0000
0010
0000
0000
1000
0000
0000
0000
,  // measure 64
0001
0000
0000
1000
0000
0000
0100
0000
0000
0010
0000
0000
0100
0000
0000
0000
,  // measure 65
0010
0000
0000
0001
0000
0000
0100
0000
0000
0001
0000
0000
1000
0000
0000
0000
,  // measure 66
0001
0000
0001
0010
0100
0000
0010
0100
,  // measure 67
1000
0000
0100
0010
0001
0010
1000
0010
,  // measure 68
0001
0100
0010
0100
0001
0000
0100
0000
,  // measure 69
0001
1000
0010
1000
0100
0010
0001
1000
,  // measure 70
0100
0000
0000
0010
0000
0000
0010
0000
0000
0100
0000
0000
0010
0000
0001
0000
,  // measure 71
0100
0000
0000
0100
0000
0000
0010
0000
0000
0010
0000
0000
0100
0000
0000
0000
,  // measure 72
0001
0000
0001
0100
0000
0100
0010
0000
0010
1000
0000
1000
0001
0000
0000
0000
,  // measure 73
0220
0000
0000
0000
,  // measure 74
0330
0000
0000
0000
;

//---------------dance-single - ---------------
#NOTEDATA:;
#CHARTNAME:;
#CHARTSTYLE:;
#CREDIT:Pandemonium X;
#STEPSTYPE:dance-single;
#DESCRIPTION:;
#DIFFICULTY:Easy;
#METER:7;
#METERF:7;
#RADARVALUES:0,0,0,0,0;
#NOTES:
// measure 0
0000
0000
0000
0000
,  // measure 1
0001
1000
0001
1000
,  // measure 2
0001
1000
0001
1000
,  // measure 3
0001
1000
0001
1000
,  // measure 4
0001
1000
0001
1000
,  // measure 5
0010
0100
0010
0100
,  // measure 6
0010
0100
0010
0100
,  // measure 7
0010
0100
0010
0100
,  // measure 8
0010
0100
0000
0000
,  // measure 9
0001
0001
1000
1000
,  // measure 10
0001
0001
0010
0100
,  // measure 11
1000
1000
0001
0001
,  // measure 12
1000
1000
0000
0000
,  // measure 13
0001
0001
1000
1000
,  // measure 14
0001
0001
0010
0100
,  // measure 15
1000
1000
0001
0001
,  // measure 16
1000
1000
0000
0000
,  // measure 17
0001
0100
0010
1000
,  // measure 18
0001
0100
0010
1000
,  // measure 19
0001
0100
0010
1000
,  // measure 20
0001
0100
0000
0000
,  // measure 21
0010
0010
0010
0100
,  // measure 22
0010
0010
1000
0001
,  // measure 23
0001
0100
0010
1000
,  // measure 24
0001
0100
0010
1000
,  // measure 25
0002
0000
0000
0000
,  // measure 26
0000
0000
0000
0000
,  // measure 27
0000
0000
0000
0003
,  // measure 28
2000
0000
0000
3000
,  // measure 29
0002
0000
0000
0003
,  // measure 30
0200
0000
0000
0300
,  // measure 31
0020
0000
0000
0030
,  // measure 32
0200
0000
0000
0300
,  // measure 33
0002
0000
0000
0003
,  // measure 34
2000
0000
0000
3000
,  // measure 35
0200
0000
0000
0300
,  // measure 36
0010
0001
0100
0000
,  // measure 37
0010
1000
0100
0000
,  // measure 38
0010
0001
1000
0000
,  // measure 39
0010
1000
0001
0000
,  // measure 40
1001
0000
0000
0100
,  // measure 41
1001
0000
0000
0010
,  // measure 42
1001
0000
0110
0000
,  // measure 43
2002
0000
0000
3003
,  // measure 44
0001
0100
0001
0001
,  // measure 45
1000
0100
1000
1000
,  // measure 46
0100
0010
0100
0100
,  // measure 47
0010
0001
1000
1000
,  // measure 48
0001
0100
0010
1000
,  // measure 49
0010
0100
0001
0010
,  // measure 50
0001
1000
0100
0010
,  // measure 51
0100
1000
0010
0100
,  // measure 52
0002
0000
0000
0000
,  // measure 53
2003
0000
0000
0000
,  // measure 54
3002
0000
0000
0000
,  // measure 55
2003
0000
0000
3000
,  // measure 56
0001
0100
0001
0100
,  // measure 57
0001
1000
0001
1000
,  // measure 58
0100
2000
3010
2000
,  // measure 59
3001
2000
3200
0320
,  // measure 60
0031
0010
0001
0100
,  // measure 61
0001
0001
0001
0001
,  // measure 62
1000
0001
0100
0010
,  // measure 63
1000
0001
0100
0010
,  // measure 64
1000
0010
0100
0002
,  // measure 65
0013
0100
0010
0200
,  // measure 66
1300
0200
0310
0200
,  // measure 67
0301
0200
0320
0032
,  // measure 68
2003
3001
0100
0001
,  // measure 69
2000
3010
0020
0130
,  // measure 70
0100
0001
1000
0100
,  // measure 71
0010
0100
1000
0001
,  // measure 72
1000
0000
0000
0010
0000
0000
0100
0000
0000
0001
0000
0000
1000
0000
0000
0000
,  // measure 73
0220
0000
0000
0000
,  // measure 74
0330
0000
0000
0000
;

//---------------dance-single - ---------------
#NOTEDATA:;
#CHARTNAME:;
#CHARTSTYLE:;
#CREDIT:Pandemonium X;
#STEPSTYPE:dance-single;
#DESCRIPTION:;
#DIFFICULTY:Beginner;
#METER:4;
#METERF:4;
#RADARVALUES:0,0,0,0,0;
#NOTES:
// measure 0
0000
0000
0000
0000
,  // measure 1
1000
0000
1000
0000
,  // measure 2
1000
0000
1000
0000
,  // measure 3
1000
0000
1000
0000
,  // measure 4
1000
0000
1000
1000
,  // measure 5
0001
0000
0001
0000
,  // measure 6
0001
0000
0001
0000
,  // measure 7
0001
0000
0001
0000
,  // measure 8
0001
0000
0000
0000
,  // measure 9
0100
0000
0010
0000
,  // measure 10
0100
0000
0010
0000
,  // measure 11
1000
0000
0001
0000
,  // measure 12
1000
0000
0000
0000
,  // measure 13
0100
0000
0010
0000
,  // measure 14
0100
0000
0010
0000
,  // measure 15
0001
0000
1000
0000
,  // measure 16
0001
0000
0000
0000
,  // measure 17
1000
0001
1000
0000
,  // measure 18
0001
1000
0001
0000
,  // measure 19
0100
0010
0100
0000
,  // measure 20
0010
0100
0010
0000
,  // measure 21
1000
0000
1000
0000
,  // measure 22
0001
0000
0001
0000
,  // measure 23
1000
0000
0001
0000
,  // measure 24
0100
0000
0010
0000
,  // measure 25
1001
0000
0000
0000
,  // measure 26
0000
0000
0000
0000
,  // measure 27
0000
0000
0000
0000
,  // measure 28
2000
0000
0000
3000
,  // measure 29
0002
0000
0000
0003
,  // measure 30
0200
0000
0000
0300
,  // measure 31
0020
0000
0000
0030
,  // measure 32
0200
0000
0000
0300
,  // measure 33
0020
0000
0000
0030
,  // measure 34
2000
0000
0000
3000
,  // measure 35
0002
0000
0000
0003
,  // measure 36
1000
0000
0000
0000
,  // measure 37
0001
0000
0000
0000
,  // measure 38
0100
0000
0000
0000
,  // measure 39
0010
0000
0000
0000
,  // measure 40
1000
0000
0000
0001
,  // measure 41
1000
0000
0000
0001
,  // measure 42
1000
0000
0001
0000
,  // measure 43
0110
0000
0000
0000
,  // measure 44
0001
0000
0001
0000
,  // measure 45
0001
0000
0001
0000
,  // measure 46
1000
0000
1000
0000
,  // measure 47
1000
0000
1000
0000
,  // measure 48
0010
0010
0010
0000
,  // measure 49
0100
0000
0000
0010
,  // measure 50
0010
0000
0100
0000
,  // measure 51
0001
0000
1000
0000
,  // measure 52
0110
0000
0000
0000
,  // measure 53
0000
0000
0000
0000
,  // measure 54
0000
0000
0000
0000
,  // measure 55
0000
0000
0000
0000
,  // measure 56
0001
0000
0000
0000
,  // measure 57
1000
0000
0000
0000
,  // measure 58
0100
0000
0100
0000
,  // measure 59
0100
0000
0010
0010
,  // measure 60
0100
0000
0010
0000
,  // measure 61
0001
0000
0000
0000
,  // measure 62
1000
0000
0001
0000
,  // measure 63
0100
0000
0000
0000
,  // measure 64
0010
0000
0000
0000
,  // measure 65
0100
0000
0000
0000
,  // measure 66
0001
0000
1000
0000
,  // measure 67
0001
0000
1000
1000
,  // measure 68
0001
0000
0000
0000
,  // measure 69
0010
0000
0000
0000
,  // measure 70
0100
0000
1000
0000
,  // measure 71
0001
0001
0001
0000
,  // measure 72
1000
0000
0000
0001
0000
0000
0100
0000
,  // measure 73
0020
0000
0000
0000
,  // measure 74
0030
0000
0000
0000
;

//---------------dance-double - ---------------
#NOTEDATA:;
#CHARTNAME:;
#CHARTSTYLE:;
#CREDIT:Pandemonium X;
#STEPSTYPE:dance-double;
#DESCRIPTION:;
#DIFFICULTY:Medium;
#METER:10;
#METERF:10;
#RADARVALUES:0,0,0,0,0;
#NOTES:
// measure 0
00000000
00000000
00000000
00000000
,  // measure 1
00001000
00010000
00001000
00010000
,  // measure 2
00001000
00010000
00001000
00010000
,  // measure 3
00001000
00010000
00001000
00010000
,  // measure 4
00001000
00010000
00001000
00010000
,  // measure 5
00001000
00010000
00001000
00010000
,  // measure 6
00001000
00010000
00001000
00010000
,  // measure 7
00001000
00010000
00001000
00010000
,  // measure 8
00001000
00010000
00000000
00000000
,  // measure 9
00000100
00010000
00001000
01000000
,  // measure 10
00001000
00010000
00000100
00010000
,  // measure 11
00001000
01000000
00001000
00010000
,  // measure 12
00000100
00010000
00000000
00000000
,  // measure 13
00000010
00010000
00001000
00100000
,  // measure 14
00001000
00010000
00000010
00010000
,  // measure 15
00001000
00100000
00001000
00010000
,  // measure 16
00000010
00010000
00000000
00000000
,  // measure 17
00011000
00001000
01000000
00100000
,  // measure 18
01100000
01000000
00001000
00010000
,  // measure 19
00011000
00010000
00000010
00000100
,  // measure 20
00000110
00000010
00000000
00000000
,  // measure 21
00000100
00000000
00000010
00000000
00000100
00000000
00000010
00001000
,  // measure 22
00000100
00000000
00010000
00000000
00001000
00000000
01000000
00001000
,  // measure 23
01000000
00000000
00010000
00100000
01000000
00000000
00100000
00010000
,  // measure 24
10000000
01000000
00100000
00010000
,  // measure 25
00022000
00000000
00000000
00000000
,  // measure 26
00000000
00000000
00000000
00000000
,  // measure 27
00000000
00000000
00000000
00033000
,  // measure 28
00001000
00010000
00000200
00000300
,  // measure 29
00001000
00000010
00000200
00000300
,  // measure 30
00000010
00001000
00000002
00000003
,  // measure 31
00000010
00000001
00002000
00003000
,  // measure 32
00000100
00000100
00000100
00001000
,  // measure 33
00000010
00000100
00000001
00001000
,  // measure 34
00000100
00010000
00001000
01000000
,  // measure 35
00000000
00010000
00100000
01000000
10000000
00000000
00010000
00000000
,  // measure 36
10000000
00000000
00100000
00000000
01000000
00010000
01000000
00000000
,  // measure 37
00010000
00000000
00100000
00000000
00001000
00100000
00001000
00000000
,  // measure 38
00010000
00000000
00000100
00000000
00010000
00001000
00010000
00000000
,  // measure 39
00000010
00000000
00000100
00000000
00000001
00000100
00000001
00000000
,  // measure 40
00000100
00000000
00000010
00000000
00001000
00000000
00000100
00000001
,  // measure 41
00000100
00000000
00001000
00000000
00000010
00000000
00000001
00000010
,  // measure 42
00000001
00000000
00000010
00000100
00000010
00000000
00000100
00000001
,  // measure 43
00002000
00000000
00000000
00003000
,  // measure 44
00000000
00000000
00000100
00000000
00000000
00010000
00000000
00000000
00001000
00000000
00000000
01000000
00000000
00000000
01010000
00000000
,  // measure 45
00000000
00000000
00010000
00000000
00000000
10000000
00000000
00000000
01000000
00000000
00000000
00100000
00000000
00000000
00110000
00000000
,  // measure 46
00000000
00000000
00010000
00000000
00000000
00100000
00000000
00000000
00001000
00000000
00000000
00010000
00000000
00000000
00011000
00000000
,  // measure 47
00000000
00000000
00010000
00000000
00000000
00000100
00000000
00000000
00001000
00000000
00000000
00000010
00000000
00000000
00000100
00000000
,  // measure 48
00000001
00000000
00000000
00000001
00000000
00000000
00000001
00000000
00000000
00001000
00000000
00000000
00000100
00000000
00000010
00000000
,  // measure 49
00000000
00000000
00000100
00000000
00000000
00000010
00000000
00000000
00000001
00001000
00000000
00000000
00000010
00000000
00001000
00000000
,  // measure 50
00000100
00000000
00000000
00000100
00000000
00000000
00010000
00000000
00000000
00010000
00000000
00000000
00001000
00000000
01000000
00000000
,  // measure 51
00000000
00010000
01000000
00100000
10000000
01000000
00100000
00010000
,  // measure 52
00200000
00000000
00000000
00302000
00000000
00000000
00023000
00000000
,  // measure 53
00030200
00002300
00003020
00000230
,  // measure 54
00002300
00000000
00000000
00000000
00000000
00000000
00003100
00000002
,  // measure 55
00000000
00000000
00000000
00000003
,  // measure 56
00001000
00000000
00000100
00000000
00000010
00000000
00000001
00000100
,  // measure 57
00000010
00000000
00001000
00000000
00000100
00000000
00010000
00001000
,  // measure 58
01000000
00000000
01000000
00010000
01000000
00000000
00100000
10000000
,  // measure 59
00010000
00000000
00010000
01000000
00100000
10000000
01000000
00100000
,  // measure 60
00010000
00100000
01000000
10000000
,  // measure 61
00010000
00000000
00000000
00010000
00000000
00000000
00010000
00000000
00000000
00010000
00000000
00000000
10000000
00000000
00010000
00000000
,  // measure 62
00100000
00000000
00000000
00001000
00000000
00000000
00010000
00000000
00000000
00000100
00000000
00000000
00001000
00000000
00000010
00000000
,  // measure 63
00000100
00000000
00000000
00000001
00000000
00000000
00000010
00000000
00000000
00000100
00000000
00000000
00001000
00000000
00000001
00000000
,  // measure 64
00000100
00000000
00000000
00000100
00000000
00000000
00000010
00000000
00000000
00001000
00000000
00000000
00001100
00000000
00000000
00000000
,  // measure 65
00001000
00000000
00000000
00001000
00000000
00000000
00000100
00000000
00000000
00010000
00000000
00000000
00011000
00000000
00000000
00000000
,  // measure 66
00001000
00000000
00100000
00010000
01000000
00000000
01000000
00010000
,  // measure 67
00100000
00000000
00100000
10000000
00100000
00010000
01000000
00100000
,  // measure 68
10000000
00010000
00100000
00000000
00100000
01000000
10000000
00000000
,  // measure 69
01000000
00100000
00100000
00001000
00010000
00010000
00000100
00001000
,  // measure 70
00000010
00000000
00000000
00000100
00000000
00000000
00000100
00000000
00000000
00000010
00000000
00000000
00000010
00000000
00000100
00000000
,  // measure 71
00000001
00000000
00000000
00000010
00000000
00000000
00000100
00000000
00000000
00001000
00000000
00000000
00000100
00000000
00000000
00000000
,  // measure 72
00010000
00000000
00001000
00010000
00000000
00001000
00010000
00000000
00010000
00001000
00000000
00010000
00001000
00000000
00000000
00000000
,  // measure 73
00022000
00000000
00000000
00000000
,  // measure 74
00033000
00000000
00000000
00000000
;

//---------------dance-double - ---------------
#NOTEDATA:;
#CHARTNAME:;
#CHARTSTYLE:;
#CREDIT:Pandemonium X;
#STEPSTYPE:dance-double;
#DESCRIPTION:;
#DIFFICULTY:Easy;
#METER:7;
#METERF:7;
#RADARVALUES:0,0,0,0,0;
#NOTES:
// measure 0
00000000
00000000
00000000
00000000
,  // measure 1
00001000
00010000
00001000
00010000
,  // measure 2
00001000
00010000
00001000
00010000
,  // measure 3
00001000
00010000
00001000
00010000
,  // measure 4
00001000
00010000
00001000
00010000
,  // measure 5
00001000
00010000
00001000
00010000
,  // measure 6
00001000
00010000
00001000
00010000
,  // measure 7
00001000
00010000
00001000
00010000
,  // measure 8
00001000
00010000
00000000
00000000
,  // measure 9
00001000
00001000
00010000
00010000
,  // measure 10
00001000
00001000
00010000
00001000
,  // measure 11
00010000
00010000
00001000
00001000
,  // measure 12
00010000
00010000
00000000
00000000
,  // measure 13
00001000
00001000
00010000
00010000
,  // measure 14
00001000
00001000
00010000
00001000
,  // measure 15
00010000
00010000
00001000
00001000
,  // measure 16
00010000
00010000
00000000
00000000
,  // measure 17
00001000
01000000
00100000
10000000
,  // measure 18
00100000
01000000
00001000
00010000
,  // measure 19
00001000
00010000
00000100
00001000
,  // measure 20
00000010
00001000
00000000
00000000
,  // measure 21
00000001
00001000
00000010
00000100
,  // measure 22
00000001
00001000
00000100
00010000
,  // measure 23
00001000
01000000
00010000
10000000
,  // measure 24
01000000
00100000
00010000
00001000
,  // measure 25
00000010
00000000
00000000
00000000
,  // measure 26
00000000
00000000
00000000
00000000
,  // measure 27
00000000
00000000
00000000
00000000
,  // measure 28
00000002
00000000
00000000
00000003
,  // measure 29
00000200
00000000
00000000
00000300
,  // measure 30
00000020
00000000
00000000
00000030
,  // measure 31
00002000
00000000
00000000
00003000
,  // measure 32
00000200
00000000
00000000
00000300
,  // measure 33
00020000
00000000
00000000
00030000
,  // measure 34
00002000
00000000
00000000
00003000
,  // measure 35
02000000
00000000
00000000
03000000
,  // measure 36
00100000
10000000
00010000
00000000
,  // measure 37
00100000
00010000
10000000
00000000
,  // measure 38
00010000
00100000
00010000
00000000
,  // measure 39
00100000
00001000
00100000
00000000
,  // measure 40
00002000
00000000
00000000
00013000
,  // measure 41
00020000
00000000
00000000
00031000
,  // measure 42
00011000
00000000
00010100
00000000
,  // measure 43
00001100
00000000
00000000
00000000
,  // measure 44
00001000
00000010
00000100
00000100
,  // measure 45
00000010
00000100
00000001
00000001
,  // measure 46
00001000
00000100
00000010
00000010
,  // measure 47
00000001
00000100
00000010
00001000
,  // measure 48
00000100
00000100
00010000
00010000
,  // measure 49
00001000
01000000
00010000
00100000
,  // measure 50
01000000
01000000
10000000
10000000
,  // measure 51
00000000
01000000
10000000
00100000
,  // measure 52
02000000
00000000
00000000
03000000
,  // measure 53
00200000
00300000
02000000
03000000
,  // measure 54
00020000
00000000
00000000
00000000
00000000
00000000
10000000
20000000
,  // measure 55
00000000
00000000
00000000
30030000
,  // measure 56
10000000
01000000
10000000
01000000
,  // measure 57
00100000
00010000
00100000
00010000
,  // measure 58
00100000
00002000
00013000
00020000
,  // measure 59
00030100
00000200
00002300
00003020
,  // measure 60
00000130
00000001
00000100
00000010
,  // measure 61
00001000
00001000
00000001
00000001
,  // measure 62
00000100
00000001
00000100
00000010
,  // measure 63
00001000
00000100
00000010
00000001
,  // measure 64
00001000
00000001
00000100
00000002
,  // measure 65
00001003
00000100
00010000
00002000
,  // measure 66
00013000
00002000
01003000
00020000
,  // measure 67
00130000
02000000
23000000
30200000
,  // measure 68
02300000
03010000
01000000
00100000
,  // measure 69
20000000
31000000
00200000
00310000
,  // measure 70
01000000
00001000
00010000
00000100
,  // measure 71
00001000
00000010
00000100
00000001
,  // measure 72
00001000
00000000
00000000
00000001
00000000
00000000
00000100
00000000
00000000
00000010
00000000
00000000
00001000
00000000
00000000
00000000
,  // measure 73
00002002
00000000
00000000
00000000
,  // measure 74
00003003
00000000
00000000
00000000
;

//---------------dance-double - ---------------
#NOTEDATA:;
#CHARTNAME:;
#CHARTSTYLE:;
#CREDIT:Pandemonium X;
#STEPSTYPE:dance-double;
#DESCRIPTION:;
#DIFFICULTY:Hard;
#METER:16;
#METERF:16;
#RADARVALUES:0,0,0,0,0;
#NOTES:
// measure 0
00000000
00000000
00000000
00000000
,  // measure 1
00001000
00020000
00031000
00000000
00010000
00002000
00013000
00000000
,  // measure 2
00001000
00020000
00031000
00000000
00010000
00002000
00013000
00000000
,  // measure 3
00001000
00020000
00031000
00000000
00010000
00002000
00013000
00000000
,  // measure 4
00001000
00020000
00031000
00000000
00010000
00002000
00013000
00010000
,  // measure 5
00001000
02000000
03100000
00000000
01000000
00002000
00013000
00000000
,  // measure 6
00010000
00000020
00000130
00000000
00000010
00020000
00031000
00000000
,  // measure 7
00010000
00002000
01003000
00000000
01000000
00002000
00013000
00000000
,  // measure 8
00001000
00000000
00001000
00M00000
000000M0
000M0000
0000M000
00M00000
,  // measure 9
00011000
00000000
00000000
00001000
01000000
00000000
00010000
00000000
00100000
00000000
00000000
00100000
00010000
00000000
01000000
00000000
,  // measure 10
00001000
00000000
00000000
00001000
00010000
00000000
00000100
00000000
00001000
00000001
00001000
00000001
00001000
00000010
00000100
00000000
,  // measure 11
00000001
00000000
00000000
00000100
00000010
00000000
00001000
00000000
00000100
00000000
00000000
00000100
00001000
00000000
00000010
00000000
,  // measure 12
00000100
00000000
00000000
00000100
00000010
00000000
00000000
00000000
0000M000
00000000
000M0000
00000000
0000M000
00000000
00M00000
00000000
,  // measure 13
00011000
00000000
00000000
00001000
01000000
00000000
00100000
00000000
01000000
00000000
00000000
01000000
00010000
00000000
01000000
00000000
,  // measure 14
00001000
00000000
00000000
00001000
01000000
00000000
00100000
00000000
10000000
00010000
10000000
00010000
01000000
00100000
10000000
00000000
,  // measure 15
01000000
00000000
00000000
01000000
00100000
00000000
00010000
00000000
01000000
00000000
00000000
01000000
00010000
00000000
00100000
00000000
,  // measure 16
01000000
00000000
00000000
01000000
00100000
00000000
00000000
00000M00
00000000
0000M000
00000000
000M0000
00000000
00000M00
00000000
000000M0
,  // measure 17
00011000
00000000
00010000
00000100
00010000
00000000
00000100
00001000
00000100
00000000
00001000
00000001
00001000
00000000
00000000
00000000
,  // measure 18
00001001
00000000
00001000
00000010
00001000
00000000
00000100
00001000
00000100
00000000
00010000
00000100
00010000
00000000
00000000
00000000
,  // measure 19
00011000
00000000
00001000
01000000
00001000
00000000
01000000
00010000
01000000
00000000
00010000
00100000
00010000
00000000
00000000
00000000
,  // measure 20
10010000
00000000
10000000
01000000
10000000
00000000
0000M000
00000000
00M00000
00000000
0000M000
00000000
000M0000
00000000
000000M0
00000000
,  // measure 21
10010000
00000000
00000000
00000000
01100000
00000000
00000000
00010000
10000000
00000000
00000000
00000000
10010000
00000000
10000000
00010000
,  // measure 22
10000000
00000000
00000000
00000000
01100000
00000000
00000000
00000000
10010000
00000000
00000000
00010000
10000000
00010000
10000000
00010000
,  // measure 23
10000000
00000000
01000000
10000000
00010000
00000000
01000000
00010000
00100000
00000000
00010000
00100000
00001000
00000000
00010000
00000010
,  // measure 24
00001000
00000000
00000001
00000000
00001000
00000000
00000001
00000000
00001000
00000010
00000000
00000100
00000001
00001000
00000000
00000100
,  // measure 25
00020000
00000000
00M02000
00000M00
00M00000
00000M00
00M00000
00000M00
,  // measure 26
00M00000
00000M00
00M00000
00000M00
00M00000
00000M00
00M00000
00000M00
,  // measure 27
00M00000
00000M00
00M00000
00000M00
00M00000
00000M00
MMM33MMM
00000000
,  // measure 28
00000000
00000000
00010000
00000000
00000000
00001000
00000000
00000000
01000000
00000000
00000000
00010000
00000000
00000000
00110000
00000000
,  // measure 29
00000000
00000000
00100000
00000000
00000000
01000000
00000000
00000000
10000000
00000000
00000000
00010000
00000000
00000000
01010000
00000000
,  // measure 30
00000000
00000000
01000000
00000000
00000000
00010000
00000000
00000000
00100000
00000000
00000000
00001000
00000000
00000000
00011000
00000000
,  // measure 31
00000000
00000000
00010000
00000000
00000000
00000100
00000000
00000000
00001000
00000000
00000000
00000010
00000000
00000000
00000101
00000000
,  // measure 32
00000001
00000000
00000000
00000001
00000000
00000000
00000001
00000000
00000000
00000010
00000000
00000000
00000100
00000000
00000100
00000000
,  // measure 33
00000000
00000000
00000010
00000000
00000000
00000001
00000000
00001000
00000000
00000001
00000000
00000000
00000100
00000000
00000010
00000000
,  // measure 34
00001000
00000000
00000000
00000010
00000000
00000000
00001000
00000000
00000000
00000010
00000000
00000000
00010000
00000000
00010000
00000000
,  // measure 35
00000000
00001000
01000000
00100000
00010000
00100000
10000000
01000000
,  // measure 36
00100000
00000000
01000000
00000000
10000000
00000000
00010000
10000000
00000000
00010000
10000000
00000000
01000000
00000000
00000000
00000000
,  // measure 37
00100000
00000000
00010000
00000000
01000000
00000000
00010000
01000000
00000000
00010000
01000000
00000000
00010000
00000000
00000000
00000000
,  // measure 38
00100000
00000000
00001000
00000000
00010000
00000000
00001000
00010000
00000000
00001000
00010000
00000000
00001000
00000000
00000000
00000000
,  // measure 39
00010000
00000000
00000100
00000000
00001000
00000000
00000010
00001000
00000000
00000010
00001000
00000000
00000010
00000000
00000000
00000000
,  // measure 40
00000100
00000001
00000000
00000100
00000001
00000000
00000100
00000001
00000000
00000001
00000100
00000000
00000000
00000000
00000000
00000000
,  // measure 41
00000010
00001000
00000000
00000010
00001000
00000000
00000010
00001000
00000000
00001000
00000010
00000000
00000000
00000000
00000000
00000000
,  // measure 42
00000100
00000000
00000000
00000010
00000000
00000000
00001000
00000000
00000000
00000100
00000000
00000000
00010000
00000000
00010000
00000000
,  // measure 43
00000000
00001000
01000000
00100000
00010000
00100000
10000000
00010000
,  // measure 44
00100000
00000000
01000000
00000000
00000000
01000000
00000000
01000000
00100000
00010000
00000000
00010000
00000000
00010000
10000000
00000000
,  // measure 45
00000000
00000000
00100000
00000000
00000000
00100000
00000000
00100000
01000000
00010000
00000000
00010000
00000000
00010000
00100000
00000000
,  // measure 46
00000000
00000000
00001000
00000000
00000000
00001000
00000000
00010000
00000100
00010000
00000000
00010000
00000000
00000100
00001000
00000000
,  // measure 47
00000000
00000000
00000010
00000000
00000000
00000010
00000000
00000010
00000100
00000001
00000000
00000001
00000000
00000001
00001000
00000000
,  // measure 48
00000100
00000010
00000100
00001000
00000100
00000010
00000100
00001000
00000100
00000010
00000000
00000000
00000001
00001000
00000001
00000000
,  // measure 49
00000000
00000000
00000100
00000000
00000000
00000010
00000000
00000100
00000000
00000001
00000000
00000000
00001000
00000100
00000010
00000001
,  // measure 50
00001000
00000000
00000000
00000100
00000000
00000000
00010000
00000000
00000000
00001000
00000000
00000000
01000000
00000000
01000000
00000000
,  // measure 51
00000000
00000000
00100000
00000000
10000000
00100000
10000000
00010000
01000000
00010000
10000000
00010000
10000000
01000000
00100000
00010000
,  // measure 52
02000000
00000000
00000000
03020000
00000000
00000000
00230000
00000000
,  // measure 53
00302000
00023000
00030020
00000230
,  // measure 54
00000302
00000000
00000000
00000000
00000000
00000000
00001000
00002000
,  // measure 55
00000000
00000000
00000000
00003003
,  // measure 56
00000001
00000000
00000000
00001000
00000000
00000000
00000010
00000000
00000000
00001000
00000000
00000000
00000100
00000000
00000100
00000010
,  // measure 57
00000001
00000000
00000000
00000001
00000000
00000000
00000010
00000000
00000000
00000100
00000000
00000000
00000100
00000000
00000100
00001000
,  // measure 58
00000010
00000000
00000000
00000000
00000010
00000000
00000010
00000100
00000001
00000000
00000000
00000000
00000100
00000000
00000100
00000010
,  // measure 59
00001000
00000000
00000000
00000000
00000000
00000000
00000000
00000000
00000000
00000000
00000000
00000000
00000100
00000000
00000000
00001000
00000000
00000000
00000100
00000000
00000000
00010000
00000000
00000000
00001000
00000000
00000000
00000000
00000000
00000000
00010000
00000000
00001000
00000000
00010000
00000000
00001000
00000000
00000000
00000000
00000000
00000000
00010000
00000000
00000000
00000000
00000000
00000000
,  // measure 60
00001000
01000000
00010000
00100000
00010000
00000000
00100000
01000000
10000000
00010000
10000000
01000000
10000000
00010000
10000000
00000000
,  // measure 61
00010000
00000000
01000000
00100000
00000000
01000000
00100000
00000000
01000000
00100000
00000000
01000000
00010000
01000000
00001000
00010000
,  // measure 62
00001000
00010000
00000100
00001000
00000000
00000010
00000100
00000000
00000001
00000010
00000000
00000100
00000010
00000000
00000001
00000010
,  // measure 63
00000200
00000000
00000000
00001300
00000000
00000000
00000200
00000000
00000000
00000310
00000001
00000100
00000010
00001000
00000001
00001000
,  // measure 64
00000001
00000000
00000100
00000001
00000000
00000010
00000100
00000000
00000100
00001000
00000000
00000000
00000100
00010000
00001000
00010000
,  // measure 65
00001000
00000000
00001000
00010000
00000000
00001000
00100000
00000000
00100000
00010000
00000000
00000000
00100000
00000000
01000000
10000000
,  // measure 66
00010000
00000000
01000000
00000000
00100000
10000000
00010000
00100000
01000000
00000000
00100000
00000000
01000000
10000000
00100000
01000000
,  // measure 67
00010000
00000000
00000000
00000000
00000000
00000000
01000000
00000000
00000000
00000000
00000000
00000000
00010000
00000000
00000000
01000000
00000000
00000000
00010000
00000000
00000000
00100000
00000000
00000000
00001000
00000000
00000000
00000000
00000000
00000000
00010000
00000000
00001000
00000000
00010000
00000000
00001000
00000000
00000000
00000000
00000000
00000000
00010000
00000000
00000000
00000000
00000000
00000000
,  // measure 68
00000100
00001000
00000100
00010000
00001000
00000000
00010000
00000010
00001000
00000001
00000100
00000010
00001000
00000001
00001000
00000001
,  // measure 69
00001000
00000100
00000001
00000100
00001000
00000001
00000100
00001000
00000100
00000001
00001000
00000000
00000100
00000000
00000100
00001000
,  // measure 70
00000001
00000100
00000010
00001000
00000000
00000010
00000100
00000000
00000010
00010000
00000000
00001000
00010000
00001000
01000000
00010000
,  // measure 71
00100000
00000000
01000000
10000000
00000000
00100000
01000000
00000000
00010000
00100000
01000000
10000000
00100000
01000000
00100000
10000000
,  // measure 72
00010000
00100000
00001000
00010000
00000010
00000100
00000010
00010000
00000100
00010000
00001000
00100000
00010000
00000000
00000000
00000000
,  // measure 73
22000000
00000000
00000000
00000000
,  // measure 74
33000000
00000000
00000000
00000000
;
