#VERSION:0.83;
#TITLE:CaptivAte2 -覚醒-;
#SUBTITLE:;
#ARTIST:e-lma;
#TITLETRANSLIT:;
#SUBTITLETRANSLIT:;
#ARTISTTRANSLIT:;
#GENRE:;
#CREDIT:;
#MUSIC:CaptivAte2 -kakusei-.ogg;
#BANNER:banner.png;
#BACKGROUND:background.png;
#JACKET:jacket.png;
#DISCIMAGE:;
#CDIMAGE:;
#SELECTABLE:YES;
#LYRICSPATH:;
#CDTITLE:;
#SAMPLESTART:22.662;
#SAMPLELENGTH:22.312;
#OFFSET:0.653;
#BPMS:0.000000=175.000000,
237.000000=87.500000,
237.500000=175.000000
;
#STOPS:64.000000=1.029000,
237.500000=0.857000
;
#WARPS:;
#DELAYS:;
#SPEEDS:;
#SCROLLS:;
#TICKCOUNTS:;
#TIMESIGNATURES:;
#LABELS:;
#COMBOS:;
#FAKES:;
#BGCHANGES:;
#FGCHANGES:;
#ATTACKS:;

//---------------dance-single - Pandemonium X---------------
#NOTEDATA:;
#CHARTNAME:;
#CHARTSTYLE:;
#CREDIT:Pandemonium X;
#STEPSTYPE:dance-single;
#DESCRIPTION:Pandemonium X;
#DIFFICULTY:Hard;
#METER:15;
#METERF:15;
#RADARVALUES:0,0,0,0,0;
#NOTES:
// measure 0
0000
0000
0000
0000
,  // measure 1
0000
0000
0000
0000
,  // measure 2
0000
0000
0000
0000
,  // measure 3
0000
0000
0000
0000
,  // measure 4
0000
0000
0000
0000
,  // measure 5
1000
0100
1000
0001
0000
0100
0001
0000
,  // measure 6
0001
1000
0100
0010
0001
0000
1000
0010
,  // measure 7
0100
0001
1000
0000
0000
0000
0000
0000
,  // measure 8
1000
0100
0010
0100
1000
0001
0100
0000
0000
0000
0000
0000
,  // measure 9
0010
1000
0010
1000
,  // measure 10
0001
0100
0001
0100
,  // measure 11
0001
0010
0001
0010
,  // measure 12
0100
0000
1000
0000
0100
0000
1000
1001
,  // measure 13
0001
1000
0010
1000
,  // measure 14
0001
0100
0010
1000
,  // measure 15
0001
0000
0100
0000
0010
0000
1000
1001
,  // measure 16
0000
0000
0000
0000
0001
0000
0100
0001
0100
0000
0001
0000
1000
0100
1000
0000
,  // measure 17
0001
0000
0100
0001
0100
0000
0001
0000
1000
0100
1000
0000
0001
0000
0100
0000
,  // measure 18
0010
1000
0001
0000
1000
0000
0010
1000
0010
0000
1000
0000
0001
0010
0001
0000
,  // measure 19
1000
0000
0010
1000
0010
0000
1000
0000
0001
0010
0001
0000
1000
0010
1000
0010
,  // measure 20
0000
0100
0010
0100
0001
0000
1000
0100
0000
1000
0100
0000
1000
0000
0010
0000
,  // measure 21
0100
0000
0001
0000
0010
0100
0010
0000
0001
0000
0100
0010
0100
0000
0010
0000
,  // measure 22
1000
0000
0100
0000
0010
0001
0010
0000
0100
0000
1000
0000
0001
0100
0001
0000
,  // measure 23
0100
0000
0010
0000
1000
0001
1000
0000
0001
0100
0000
0100
0010
0000
0010
1000
,  // measure 24
0000
1000
0100
0000
0010
0000
0100
1000
0100
0000
1000
0000
0001
0100
0001
0000
,  // measure 25
1000
0000
0010
0100
0010
0000
0100
0000
0001
1000
0001
0000
1000
0100
1000
0000
,  // measure 26
0001
0000
1000
0000
0100
0000
0010
0001
0010
0000
0001
0000
1000
0010
1000
0000
,  // measure 27
0001
0000
0100
0010
0100
0000
0010
0000
1000
0001
1000
0000
0001
0010
0001
0010
,  // measure 28
0000
0100
1000
0100
1000
0000
0001
0100
0000
0001
1000
0000
0100
0010
0100
0000
,  // measure 29
0010
0000
0001
0000
1000
0010
1000
0000
0001
0000
0010
0100
0010
0000
0001
0000
,  // measure 30
1000
0000
0001
0000
1000
0010
1000
0010
1000
0000
0001
0000
0010
0001
0010
0001
,  // measure 31
0010
0000
0001
0000
1000
0001
0100
0000
0010
1000
0000
0100
0010
0000
0001
0010
,  // measure 32
0000
0100
1000
0000
0000
0000
0000
0000
0110
0000
0000
0000
0000
0000
0000
0000
,  // measure 33
0000
0000
0000
0000
,  // measure 34
0000
0000
0000
0000
0000
0000
0000
0001
,  // measure 35
0001
0100
0020
0000
0000
1030
0000
0000
,  // measure 36
0100
0000
0020
0000
0000
0031
0000
0000
,  // measure 37
0010
0000
0200
0000
0000
2300
0000
0000
,  // measure 38
0002
0000
0000
0000
0000
3003
0000
0001
,  // measure 39
1000
0100
0020
0000
0100
0130
0000
1000
,  // measure 40
0001
1000
0100
1000
0010
0100
0000
0010
,  // measure 41
0100
0001
1000
0100
0010
0001
0000
0010
,  // measure 42
0100
0000
1000
0000
0001
0000
0000
1000
0100
0000
0000
0100
0010
0000
0000
0010
,  // measure 43
0001
0000
1001
0001
0100
0002
0000
0000
,  // measure 44
1003
0000
0001
0100
0001
2000
0000
0000
,  // measure 45
3100
0000
0010
0100
1000
0001
0100
0001
,  // measure 46
0010
0100
0110
0010
0001
0201
0000
0000
,  // measure 47
0010
0000
0301
0001
1000
0200
0000
0320
,  // measure 48
0000
0031
0001
1000
0010
0200
0000
0302
,  // measure 49
0000
1003
0001
0100
0001
1000
0100
0010
,  // measure 50
0001
0000
1001
1001
0000
0000
0110
0000
,  // measure 51
1001
0000
0201
0000
0000
1000
0000
0000
,  // measure 52
0310
0000
0201
0001
0000
0010
0000
0000
,  // measure 53
0301
0000
1200
1000
0000
0001
0000
0000
,  // measure 54
1300
0000
1020
1000
0000
0100
0000
0000
,  // measure 55
2030
0000
3001
1000
0100
1000
0001
0010
,  // measure 56
0001
0010
0100
1000
0100
1000
0010
1000
,  // measure 57
0010
0000
1000
0000
0001
0100
0001
0000
0100
0010
0100
0000
0010
1000
0010
0000
,  // measure 58
1000
0001
1000
0000
0001
0100
0010
1000
0100
0010
0001
0010
0100
0000
0000
0100
,  // measure 59
0000
0000
0100
0000
0000
0000
1001
0000
0001
0000
1000
0000
0100
0000
0010
0100
,  // measure 60
0000
0000
0010
0000
0001
0000
0100
0000
0001
0000
1000
0000
0010
0000
0100
0001
,  // measure 61
0000
0000
0100
0000
0001
0000
1000
0000
0100
0000
0010
0000
0100
0000
1000
0001
,  // measure 62
0000
0000
1000
0000
0001
0000
0100
0000
0001
0000
1000
0000
0010
0000
1000
0100
,  // measure 63
0000
0000
0010
0000
0100
0000
1000
0000
0001
0000
0100
0000
0001
0000
0010
0001
,  // measure 64
0000
0000
0010
0000
0100
0000
1000
0000
0010
0000
0100
0000
0001
0000
0010
0100
,  // measure 65
0000
0000
0010
0000
0001
0000
1000
0000
0010
0000
0100
0000
0001
0000
1000
0001
,  // measure 66
0000
0000
0010
0000
0100
0000
0010
0000
0011
0000
1100
0000
0100
0000
0100
1000
,  // measure 67
0000
0000
0001
0000
0100
0000
0010
0000
1000
0010
1000
0000
0010
0000
0100
0001
,  // measure 68
0000
0000
0010
0000
0001
0000
1000
0000
0010
0100
0010
0000
0100
0000
0001
0010
,  // measure 69
0000
0000
0100
0000
0010
0000
0001
0000
1000
0100
1000
0000
0010
0000
0100
0001
,  // measure 70
0000
0000
1000
0000
0001
0000
0010
0000
0001
0100
0001
0000
1000
0000
0001
0010
,  // measure 71
0000
0100
0010
0001
0100
0001
0100
0010
,  // measure 72
1000
0010
1000
0000
0001
0100
0001
0000
1000
0000
0001
0000
0010
0000
0100
0000
,  // measure 73
1000
0100
1000
0000
0001
0010
0001
0000
1000
0001
0100
0000
0001
0000
1000
0010
,  // measure 74
0000
0100
0001
0000
0010
0000
0100
0000
0010
0001
0100
0000
0001
0000
1000
0100
,  // measure 75
0000
0100
0010
0000
0100
1000
0010
0100
0002
0000
0000
0000
0000
0000
2003
0000
,  // measure 76
0000
0000
3020
0000
0000
0100
0000
0200
,  // measure 77
0000
0000
0000
0000
,  // measure 78
0000
0000
0000
0000
,  // measure 79
0330
0000
0000
0000
;

//---------------dance-single - Pandemonium X---------------
#NOTEDATA:;
#CHARTNAME:;
#CHARTSTYLE:;
#CREDIT:Pandemonium X;
#STEPSTYPE:dance-single;
#DESCRIPTION:Pandemonium X;
#DIFFICULTY:Challenge;
#METER:16;
#METERF:16;
#RADARVALUES:0,0,0,0,0;
#NOTES:
// measure 0
0000
0000
0000
0000
,  // measure 1
0000
0000
0000
0000
,  // measure 2
0000
0000
0000
0000
,  // measure 3
0000
0000
0000
0000
,  // measure 4
0000
0000
0000
0000
,  // measure 5
1010
0010
0100
0101
0000
0001
0001
0000
,  // measure 6
0010
0011
0001
1000
1010
0000
0000
1100
,  // measure 7
0100
0010
0011
0000
0000
0000
0000
0000
,  // measure 8
0001
0100
0010
1000
0001
1000
1100
0000
0000
0000
0000
0000
,  // measure 9
0011
0001
0100
0000
0010
0000
1000
0000
,  // measure 10
0001
1000
0100
0000
0010
0000
0100
0000
,  // measure 11
1000
0010
0100
0000
0010
0000
1000
0000
,  // measure 12
0001
0100
0010
0000
0100
0000
0001
1001
,  // measure 13
1000
0100
1000
0010
0100
0001
0010
0100
,  // measure 14
0010
0001
0100
0010
1000
0001
0010
0100
,  // measure 15
1000
0100
0010
0100
1000
0001
1000
0220
,  // measure 16
0330
0000
0000
0000
0001
0100
0001
0100
0001
0000
1000
0100
1000
0100
1000
0000
,  // measure 17
0001
0100
0001
0100
0001
0000
1000
0100
1000
0100
1000
0000
1000
0010
1000
0010
,  // measure 18
1000
0100
0010
0100
1000
0001
1000
0001
1000
0000
0001
0010
0001
0010
0001
0000
,  // measure 19
1000
0001
1000
0001
1000
0000
0001
0100
0001
0100
0001
0000
0001
0010
0100
0010
,  // measure 20
0000
0010
0001
1000
0001
1000
0001
0010
0000
0100
0010
0001
1000
0010
1000
0001
,  // measure 21
0000
1000
0100
1000
0000
0001
0100
0001
0100
0000
0001
1000
0001
1000
0001
0000
,  // measure 22
1000
0100
1000
0100
1000
0100
0010
0001
0000
1000
0010
0100
0001
1000
0100
0010
,  // measure 23
0001
0010
0001
1000
0001
0100
1000
0000
0100
0001
0000
0010
1000
0000
0010
0100
,  // measure 24
0000
0010
0001
0000
1000
0100
1000
0100
0010
0000
0001
0010
0001
0010
0100
0000
,  // measure 25
1000
0001
1000
0001
0100
0000
0010
1000
0010
1000
0001
0000
1000
0100
1000
0100
,  // measure 26
0010
0001
0010
0001
1000
0010
1000
0010
0100
0000
0010
0100
0010
0100
0001
0000
,  // measure 27
0010
0100
0010
0100
1000
0000
0100
0010
0100
0010
0001
0000
1000
0100
0010
0001
,  // measure 28
0000
0001
0010
0001
1000
0010
1000
0001
0000
0001
0010
0100
0010
0100
0010
0001
,  // measure 29
0100
0010
0100
0010
1000
0001
1000
0001
0010
0000
0001
1000
0001
1000
0010
0000
,  // measure 30
1000
0001
1000
0001
0100
0010
1000
0001
0000
0010
0100
1000
0001
0100
0010
1000
,  // measure 31
0001
0000
0010
0100
1000
0100
0001
0000
0100
1000
0000
0010
0001
0000
0010
0100
,  // measure 32
0000
0001
1000
0000
0000
0000
0000
0000
0202
0000
0000
0000
0000
0000
0000
0000
,  // measure 33
0000
0000
0000
0000
,  // measure 34
0303
0000
0000
0000
0000
0000
0000
1000
,  // measure 35
1000
0100
1100
0100
0010
0002
0000
1000
,  // measure 36
0000
0103
0001
0010
0001
2000
0000
0010
,  // measure 37
0000
3001
0010
0001
1000
0010
0000
0100
,  // measure 38
0010
1010
1000
1001
,  // measure 39
0001
0000
0011
0010
0100
1100
0000
1001
,  // measure 40
0000
0001
1001
0001
1000
1010
0000
1001
,  // measure 41
0000
1000
0010
0100
1000
0100
0001
0010
,  // measure 42
1000
0010
1010
0000
0011
0000
0101
0000
,  // measure 43
1001
0000
1000
0001
0010
0100
0000
0000
,  // measure 44
0110
0000
0010
0100
1000
0010
0000
0000
,  // measure 45
0110
0000
0100
0010
1000
0100
0000
1000
,  // measure 46
0100
0000
0011
0010
0100
1000
0000
0000
,  // measure 47
1000
0000
0001
0100
1000
0100
0000
0100
,  // measure 48
0000
0010
0001
0010
1000
0001
0000
1000
,  // measure 49
0100
0000
0011
0000
0000
1000
0000
0000
,  // measure 50
0200
0000
0010
0010
0000
0000
2300
0000
,  // measure 51
0010
0000
3001
0000
0000
0011
0000
0000
,  // measure 52
0001
0000
0101
0100
0000
0010
0000
0000
,  // measure 53
1000
0000
1010
0010
0000
0100
0000
0000
,  // measure 54
0001
0000
0101
0100
0000
0010
0000
0000
,  // measure 55
1000
0000
0001
0100
0010
1000
0001
0010
,  // measure 56
0100
0010
0001
0100
0010
1000
0001
0010
,  // measure 57
0100
0000
1000
0000
0100
0010
0100
0010
0001
0010
0001
0010
0100
1000
0100
1000
,  // measure 58
0100
0010
0001
1000
0001
0100
0010
1000
0001
0100
0010
1000
0001
0000
0000
1100
,  // measure 59
0000
0000
1001
0000
0000
0000
0110
0000
1000
0001
1000
0000
0001
0000
0100
0001
,  // measure 60
0000
0010
0100
0010
0001
0000
1000
0000
0001
1000
0001
0000
1000
0000
0001
0100
,  // measure 61
0000
0010
1000
0000
0100
0000
1000
0000
0001
0100
0001
0000
0100
0000
0001
1000
,  // measure 62
0000
0100
0010
0100
0010
0000
0100
0000
1000
0001
1000
0000
0001
0000
0010
0100
,  // measure 63
0000
0010
0001
0000
0100
0000
0010
0000
1000
0010
0100
0000
0010
0000
1000
0001
,  // measure 64
0000
0010
0100
0000
0010
0000
0001
0000
0100
0001
1000
0000
0100
0000
0010
0100
,  // measure 65
0000
1000
0001
1000
0001
0000
1000
0000
0100
0000
0010
0000
0001
0000
1000
0010
,  // measure 66
0000
0100
0001
0000
1000
0100
1000
0100
1000
0000
1001
0000
0000
0000
0000
0000
,  // measure 67
0101
0000
0000
1010
0000
0000
0101
0000
0001
0100
0010
0000
1000
0000
0010
0200
,  // measure 68
0000
0301
2000
0000
3100
0010
0100
0000
0010
0001
1000
0000
0010
0000
1000
0200
,  // measure 69
0000
0310
0200
0000
1300
0000
0001
0000
0100
0001
1000
0000
0100
0000
0010
0200
,  // measure 70
0000
0310
0002
0000
1003
0010
1000
0000
0010
0100
0001
0000
1000
0000
0001
0020
,  // measure 71
0000
0130
0020
0000
0031
0000
1000
0000
0010
0000
0000
0000
0010
0000
0000
0000
,  // measure 72
0010
0100
0010
0000
0010
0100
0010
0000
1001
0000
0000
0000
1000
0000
0000
0000
,  // measure 73
1000
0001
1000
0000
1000
0001
1000
0000
0101
0000
0100
0000
0010
0000
1000
0100
,  // measure 74
0000
0010
0001
0000
0010
0100
1000
0001
1000
0001
0200
0000
0320
0000
2030
0002
,  // measure 75
3000
0013
0100
1000
0100
0010
0001
1000
0002
0000
0000
0000
0000
0000
0100
0000
,  // measure 76
0000
0000
1000
0000
0000
0010
0000
0020
,  // measure 77
0000
0000
0000
0000
,  // measure 78
0000
0000
0000
0033
;

//---------------dance-single - Pandemonium X---------------
#NOTEDATA:;
#CHARTNAME:;
#CHARTSTYLE:;
#CREDIT:Pandemonium X;
#STEPSTYPE:dance-single;
#DESCRIPTION:Pandemonium X;
#DIFFICULTY:Medium;
#METER:12;
#METERF:12;
#RADARVALUES:0,0,0,0,0;
#NOTES:
// measure 0
0000
0000
0000
0000
,  // measure 1
0000
0000
0000
0000
,  // measure 2
0000
0000
0000
0000
,  // measure 3
0000
0000
0000
0000
,  // measure 4
0000
0000
0000
0000
,  // measure 5
1000
0100
0010
0001
0000
0000
1000
0000
,  // measure 6
1000
0100
0010
0001
1000
0000
0000
0010
,  // measure 7
0000
1000
0000
0000
,  // measure 8
0002
0000
0013
0000
,  // measure 9
0001
1000
0001
1000
,  // measure 10
0010
0100
0010
0100
,  // measure 11
0001
0010
0001
0010
,  // measure 12
0100
0000
1000
0000
0100
0000
1000
0001
,  // measure 13
0100
0010
0100
0010
,  // measure 14
1000
0010
1000
0010
,  // measure 15
0100
0000
0001
0000
0100
0000
0001
2002
,  // measure 16
3003
0000
1000
0001
0010
0001
1000
0010
,  // measure 17
1000
0001
0010
0001
1000
0010
1000
0100
,  // measure 18
0010
0001
1000
0001
0100
0001
1000
0100
,  // measure 19
1000
0001
0100
0001
1000
0100
0010
0001
,  // measure 20
1000
0000
0010
0000
0100
0000
0000
0001
0000
0000
0010
0000
0100
0000
0010
0000
,  // measure 21
0001
1000
0001
1000
0100
1000
0001
0100
,  // measure 22
0010
1000
0100
0001
0100
1000
0010
0001
,  // measure 23
0010
0000
1000
0000
0001
0000
1000
0000
0000
0100
0000
0000
0010
0000
0000
0001
,  // measure 24
0000
1000
0001
0100
1000
0100
0001
0100
,  // measure 25
1000
0100
0001
0100
1000
0100
0001
0010
,  // measure 26
0001
1000
0001
0010
1000
0010
0001
0010
,  // measure 27
1000
0010
0001
0010
1000
0010
0001
0010
,  // measure 28
0100
0000
1000
0000
0001
0000
0000
1000
0000
0000
0100
0000
0010
0000
0100
0000
,  // measure 29
1000
0010
0100
1000
0100
0001
0100
1000
,  // measure 30
0100
0000
0001
0000
1000
0000
0000
1000
0000
0000
1000
0000
0001
0000
0000
0001
,  // measure 31
0000
0000
0001
0000
1000
0000
1010
0000
0000
0000
0000
0000
0101
0000
0000
1010
,  // measure 32
0000
1001
0000
0000
0110
0000
0000
0000
,  // measure 33
0000
0000
0000
0000
,  // measure 34
0000
0000
0000
0000
,  // measure 35
0000
0000
1000
0100
0010
0001
0000
0001
,  // measure 36
0000
0000
0001
0010
0100
1000
0000
1000
,  // measure 37
0000
0000
0020
0000
0000
0200
0000
0030
,  // measure 38
0002
0000
0000
0000
0303
0000
0000
0001
,  // measure 39
0010
0001
1000
0010
0100
0001
0000
0001
,  // measure 40
0000
0000
0001
0100
0010
1000
0000
1000
,  // measure 41
0000
0100
0010
0100
1000
0001
0000
0000
,  // measure 42
0100
0010
1010
0000
0101
0000
0011
0000
,  // measure 43
1001
0000
1100
0100
0010
0002
0000
0000
,  // measure 44
0103
0000
0010
0100
0001
2000
0000
0000
,  // measure 45
3001
0000
0200
0000
0000
0320
0000
0000
,  // measure 46
2000
0000
0000
3030
,  // measure 47
1000
0000
0001
0000
0001
1000
0000
0100
,  // measure 48
0000
0020
0000
0000
0000
0000
0030
0000
,  // measure 49
0100
0000
2000
0000
0000
3002
0000
0000
,  // measure 50
0203
0000
0010
0010
0000
0000
0302
0000
,  // measure 51
0103
0000
1001
0000
0000
1000
0000
0000
,  // measure 52
0001
0000
1001
1000
0000
0001
0000
0000
,  // measure 53
1000
0000
1001
0001
0000
1000
0000
0000
,  // measure 54
0001
0000
1001
1000
0000
0001
0000
0000
,  // measure 55
2000
0000
3001
0100
0001
0100
0010
1000
,  // measure 56
0010
1000
0001
0010
0001
0010
0100
1000
,  // measure 57
0100
1000
0001
0100
0010
1000
0001
0010
,  // measure 58
0100
0000
0010
0000
0002
0000
0000
0000
0000
0000
0000
0000
1003
0000
0000
1000
,  // measure 59
0000
0000
1000
0000
0000
0000
0101
0000
0001
0000
1000
0000
0100
0000
0000
0010
,  // measure 60
0000
0000
0100
0000
1000
0000
0000
0000
0001
0000
0100
0000
0001
0000
0000
1000
,  // measure 61
0000
0000
0001
0000
0010
0000
0100
0000
0010
0000
0001
0000
1000
0000
0000
0010
,  // measure 62
0000
0000
0100
0000
0001
0000
0000
0000
1000
0000
0100
0000
0010
0000
0000
0100
,  // measure 63
0000
0000
1000
0000
0010
0000
0001
0000
0010
0000
0100
0000
0001
0000
0000
1000
,  // measure 64
0000
0000
0100
0000
0010
0000
0000
0000
0100
0000
1000
0000
0001
0000
0000
0100
,  // measure 65
0000
0000
0001
0000
0010
0000
0100
0000
0010
0000
0001
0000
1000
0000
0000
0010
,  // measure 66
0000
0100
0001
0000
1001
1001
0000
0000
,  // measure 67
1100
0000
0000
1100
0000
0000
1100
0000
1000
0000
0100
0000
0010
0000
0001
0100
,  // measure 68
0000
0000
0000
0000
0000
0000
0000
0000
0010
0000
0100
0000
0001
0000
1000
0010
,  // measure 69
0000
0000
0000
0000
0000
0000
0000
0000
0100
0000
0010
0000
1000
0000
0001
0010
,  // measure 70
0000
0000
0000
0000
0000
0000
0000
0000
0100
0000
0010
0000
0001
0000
0100
0001
,  // measure 71
0000
0001
1000
0000
0100
0000
0010
0000
0021
0000
0000
0000
0100
0000
0000
0000
,  // measure 72
0001
0130
1200
0010
,  // measure 73
1000
0000
0310
0000
1100
1000
0010
0000
,  // measure 74
0101
0000
0001
0000
0010
0000
0000
0000
0100
0000
0010
0000
0001
0000
0100
0001
,  // measure 75
0000
1000
0100
0010
0100
0000
0000
1000
,  // measure 76
0000
0000
0020
0000
0000
0100
0000
0200
,  // measure 77
0000
0000
0000
0000
,  // measure 78
0000
0000
0000
0000
,  // measure 79
0330
0000
0000
0000
;

//---------------dance-single - Pandemonium X---------------
#NOTEDATA:;
#CHARTNAME:;
#CHARTSTYLE:;
#CREDIT:Pandemonium X;
#STEPSTYPE:dance-single;
#DESCRIPTION:Pandemonium X;
#DIFFICULTY:Easy;
#METER:7;
#METERF:7;
#RADARVALUES:0,0,0,0,0;
#NOTES:
// measure 0
0000
0000
0000
0000
,  // measure 1
0000
0000
0000
0000
,  // measure 2
0000
0000
0000
0000
,  // measure 3
0000
0000
0000
0000
,  // measure 4
0000
0000
0000
0000
,  // measure 5
1000
0000
0000
0001
0000
0000
0010
0000
,  // measure 6
0000
0001
0000
0000
0100
0000
0000
0010
,  // measure 7
0000
1000
0000
0000
,  // measure 8
2002
0000
3003
0000
,  // measure 9
0001
1000
0001
1000
,  // measure 10
0001
0100
0001
0100
,  // measure 11
0010
0100
0010
0100
,  // measure 12
0010
0000
1000
0000
0010
0000
1000
0010
,  // measure 13
1000
0001
1000
0001
,  // measure 14
0010
0001
0010
0001
,  // measure 15
1000
0000
0100
0000
1000
0000
0100
0010
,  // measure 16
0000
0000
0002
0000
0000
0023
0000
0000
,  // measure 17
0032
0000
0000
0203
0000
0000
0320
0000
,  // measure 18
2030
0000
3002
0000
0000
2003
0000
0000
,  // measure 19
3200
0000
0000
2300
0000
0000
3002
0000
,  // measure 20
0203
0301
1000
0100
,  // measure 21
0010
0100
1000
0001
,  // measure 22
0100
0010
1000
0010
,  // measure 23
0100
0000
0000
0000
0000
0000
0001
0000
0000
1000
0000
0000
0100
0000
0000
0010
,  // measure 24
0000
0001
0020
0000
0000
0230
0000
0000
,  // measure 25
2300
0000
0000
3002
0000
0000
0203
0000
,  // measure 26
0302
0000
2003
0000
0000
3200
0000
0000
,  // measure 27
2300
0000
0000
3002
0000
0000
0203
0000
,  // measure 28
0320
1030
0001
0010
,  // measure 29
0001
1000
0100
0010
,  // measure 30
0001
0100
0010
1000
,  // measure 31
0001
0000
0000
0000
0000
0000
0100
0000
0000
0010
0000
0000
1000
0000
0000
0001
,  // measure 32
0000
1000
0000
0000
0110
0000
0000
0000
,  // measure 33
0000
0000
0000
0000
,  // measure 34
0000
0000
0000
0000
,  // measure 35
0000
0000
0001
0000
0000
0001
0000
0000
,  // measure 36
0001
0000
1000
0000
0000
1000
0000
0000
,  // measure 37
1000
0000
0010
0000
0000
0100
0000
0000
,  // measure 38
0002
0000
0000
0003
,  // measure 39
0000
0000
1000
0000
0000
0001
0000
0001
,  // measure 40
0000
0000
0100
0000
0000
0010
0000
0010
,  // measure 41
0000
0200
0000
0300
,  // measure 42
0000
0010
0100
0001
,  // measure 43
1000
0000
0200
0000
0000
1300
0000
0000
,  // measure 44
0100
0000
0020
0000
0000
0031
0000
0000
,  // measure 45
0010
0000
0002
0000
0000
0203
0000
0000
,  // measure 46
0020
0000
0000
0330
,  // measure 47
0010
0000
0100
0000
0000
0001
0000
1000
,  // measure 48
0000
0200
0000
0000
0000
0000
0300
0000
,  // measure 49
0010
0000
0002
0000
0000
0103
0000
0000
,  // measure 50
0010
0000
1000
1000
0000
0000
0001
0000
,  // measure 51
0000
1001
0000
0000
,  // measure 52
0000
0110
0000
0000
,  // measure 53
0000
1001
0000
0000
,  // measure 54
0000
0110
0000
0000
,  // measure 55
0000
1001
0000
0110
,  // measure 56
0000
1001
0000
0110
,  // measure 57
0000
1001
0110
1001
,  // measure 58
0110
2002
0000
0000
,  // measure 59
0000
0000
0000
3003
0001
0000
0100
0000
,  // measure 60
0010
0000
0100
0010
,  // measure 61
1000
0000
0001
0010
,  // measure 62
0100
0000
0010
0001
,  // measure 63
1000
0100
0010
0100
,  // measure 64
1000
0000
0100
1000
,  // measure 65
0001
0000
0100
0001
,  // measure 66
1000
0000
0000
0000
0100
0100
0000
0000
,  // measure 67
0010
0000
0000
0010
0000
0000
0010
0000
0001
0000
0000
0000
1000
0000
0000
0000
,  // measure 68
0010
0000
1000
0001
,  // measure 69
0010
0000
0100
1000
,  // measure 70
0001
0000
0100
0001
,  // measure 71
1000
0000
0010
0000
0100
0100
0000
0000
,  // measure 72
0010
0000
0100
0000
0001
0001
0000
0000
,  // measure 73
1000
0001
2000
0000
,  // measure 74
3002
0000
0103
0010
,  // measure 75
1000
0001
2002
0000
,  // measure 76
0000
0000
0000
0000
,  // measure 77
0000
0000
0000
0000
,  // measure 78
0000
0000
0000
0000
,  // measure 79
3003
0000
0000
0000
;

//---------------dance-single - Pandemonium X---------------
#NOTEDATA:;
#CHARTNAME:;
#CHARTSTYLE:;
#CREDIT:Pandemonium X;
#STEPSTYPE:dance-single;
#DESCRIPTION:Pandemonium X;
#DIFFICULTY:Beginner;
#METER:3;
#METERF:3;
#RADARVALUES:0,0,0,0,0;
#NOTES:
// measure 0
0000
0000
0000
0000
,  // measure 1
0000
0000
0000
0000
,  // measure 2
0000
0000
0000
0000
,  // measure 3
0000
0000
0000
0000
,  // measure 4
0000
0000
0000
0000
,  // measure 5
0000
0000
0000
0000
,  // measure 6
0000
0000
0000
0000
,  // measure 7
0000
0000
0000
0000
,  // measure 8
0000
0000
0000
0000
,  // measure 9
0001
0000
0000
0000
,  // measure 10
1000
0000
0000
0000
,  // measure 11
0010
0000
0000
0000
,  // measure 12
0100
0000
0000
0000
,  // measure 13
0010
0000
0000
0000
,  // measure 14
1000
0000
0000
0000
,  // measure 15
0001
0000
0000
0000
0000
0000
0000
1000
,  // measure 16
0000
0001
0000
0000
,  // measure 17
0000
1000
0000
0000
,  // measure 18
0000
0010
0000
0000
,  // measure 19
0000
0000
0000
0100
,  // measure 20
0010
0100
0000
0000
,  // measure 21
0000
0001
0000
0000
,  // measure 22
0000
1000
0000
0001
,  // measure 23
0000
0100
0000
0000
,  // measure 24
0000
0010
0000
0000
,  // measure 25
0000
1000
0000
0000
,  // measure 26
0000
0100
0000
0000
,  // measure 27
0000
0000
0000
0010
,  // measure 28
0010
0001
0000
0000
,  // measure 29
0000
1000
0000
0010
,  // measure 30
0100
0010
0000
0100
,  // measure 31
0000
0001
0000
1000
,  // measure 32
0000
0000
0110
0000
,  // measure 33
0000
0000
0000
0000
,  // measure 34
0000
0000
0000
0000
,  // measure 35
0000
0001
0000
0000
,  // measure 36
0000
1000
0000
0000
,  // measure 37
0000
0010
0000
0000
,  // measure 38
0000
0000
0000
0000
,  // measure 39
0000
1000
0000
0000
,  // measure 40
0000
0001
0000
0000
,  // measure 41
0000
0100
0000
0000
,  // measure 42
0000
0000
0000
0000
,  // measure 43
0000
0010
0000
0000
,  // measure 44
0000
0100
0000
0000
,  // measure 45
0000
0001
0000
0000
,  // measure 46
0000
0000
0000
0000
,  // measure 47
0000
1000
0000
0000
,  // measure 48
0000
0001
0000
0000
,  // measure 49
0000
0100
0000
0000
,  // measure 50
0000
0010
0000
0100
,  // measure 51
0000
0001
0000
0000
,  // measure 52
0000
1000
0000
0000
,  // measure 53
0000
0001
0000
0000
,  // measure 54
0000
1000
0000
0000
,  // measure 55
0000
0001
0000
1000
,  // measure 56
0000
0001
0000
1000
,  // measure 57
0000
0001
1000
0001
,  // measure 58
1000
0220
0000
0000
,  // measure 59
0000
0330
0001
0000
,  // measure 60
0000
0000
1000
0000
,  // measure 61
0000
0000
0100
0000
,  // measure 62
0000
0000
0010
0000
,  // measure 63
0001
0000
0100
0000
,  // measure 64
0000
0000
0010
0000
,  // measure 65
0000
0000
0100
0000
,  // measure 66
0000
0000
1001
0000
,  // measure 67
0001
0000
1000
0000
,  // measure 68
0000
0000
0001
0000
,  // measure 69
0000
0000
0100
0000
,  // measure 70
0000
0000
0010
0000
,  // measure 71
1000
0000
0100
0000
,  // measure 72
0000
0000
0010
0000
,  // measure 73
0000
0000
0001
0000
,  // measure 74
1000
0000
0010
0000
,  // measure 75
0100
0000
1001
0000
;
