#VERSION:0.83;
#TITLE:ACTØ;
#SUBTITLE:;
#ARTIST:モリモリあつし;
#TITLETRANSLIT:;
#SUBTITLETRANSLIT:;
#ARTISTTRANSLIT:;
#GENRE:;
#CREDIT:;
#MUSIC:ACT0.ogg;
#BANNER:banner.png;
#BACKGROUND:background.png;
#JACKET:jacket.png;
#DISCIMAGE:;
#CDIMAGE:;
#SELECTABLE:YES;
#LYRICSPATH:;
#CDTITLE:cdtitle.png;
#SAMPLESTART:77.61;
#SAMPLELENGTH:13.328;
#OFFSET:-0.096;
#BPMS:0.000000=92.500000,
16.000000=185.000000,
48.000000=370.000000,
62.000000=185.000000,
123.000000=92.500000,
137.000000=46.250000,
138.000000=92.500000,
140.000000=185.000000,
164.000000=46.250000,
167.000000=92.500000,
176.000000=185.000000,
220.000000=92.500000,
222.000000=185.000000
;
#STOPS:167.000000=0.649000;
#WARPS:;
#DELAYS:;
#SPEEDS:;
#SCROLLS:;
#TICKCOUNTS:;
#TIMESIGNATURES:;
#LABELS:;
#COMBOS:;
#FAKES:;
#BGCHANGES:;
#FGCHANGES:;
#ATTACKS:;

//---------------dance-single - ---------------
#NOTEDATA:;
#CHARTNAME:;
#CHARTSTYLE:;
#CREDIT:Pandemonium X;
#STEPSTYPE:dance-single;
#DESCRIPTION:;
#DIFFICULTY:Easy;
#METER:9;
#METERF:9;
#RADARVALUES:0,0,0,0,0;
#NOTES:
// measure 0
0000
0000
0000
0000
,  // measure 1
0000
0000
0000
0000
,  // measure 2
0000
0000
0000
0000
,  // measure 3
0000
0000
0000
0000
,  // measure 4
0001
0000
0000
2000
0000
0000
0000
0000
,  // measure 5
3100
0000
0000
0020
0000
0000
0130
0000
,  // measure 6
0110
0000
0000
0011
0000
0000
0101
0000
,  // measure 7
0000
1010
0000
0000
0110
0000
1001
0000
,  // measure 8
1000
0000
0000
0100
0000
0000
0010
0000
,  // measure 9
0100
1000
0001
0010
,  // measure 10
0100
0000
0000
0000
0000
0000
0000
0000
1000
0000
0000
0001
0000
0000
0100
0000
,  // measure 11
0020
0000
0000
0000
,  // measure 12
0030
0000
0000
0000
,  // measure 13
0000
0000
0000
0000
,  // measure 14
0000
0000
0000
0000
,  // measure 15
0000
0000
0000
0100
,  // measure 16
1001
1000
0001
0010
,  // measure 17
0001
1000
0100
0010
,  // measure 18
0100
1000
0010
0100
,  // measure 19
0001
0010
0100
0020
,  // measure 20
0031
0010
0001
0100
,  // measure 21
0010
1000
0001
0202
,  // measure 22
0303
2002
3003
0022
,  // measure 23
0033
0000
0000
0000
0001
0001
2000
0000
,  // measure 24
3100
0010
0100
1000
,  // measure 25
0001
0100
0010
1000
,  // measure 26
0010
0100
0001
0010
,  // measure 27
0100
0000
0010
0000
0001
0000
1000
1000
,  // measure 28
0000
0000
0001
0100
0010
1000
0001
0001
,  // measure 29
0000
0000
1000
0010
0100
0001
0000
2000
,  // measure 30
3000
0200
0300
0020
0030
0002
1003
0000
,  // measure 31
0000
0001
1010
1000
,  // measure 32
0100
0010
0001
0000
0011
0000
0001
0000
,  // measure 33
0010
0100
1000
0000
1100
0000
1000
0000
,  // measure 34
0010
0000
0100
0000
0002
0000
0000
0000
1003
0000
0000
0000
0002
0000
0000
0003
,  // measure 35
0100
0010
0100
0001
0000
0000
1000
0000
,  // measure 36
0000
0100
0000
0000
0010
0000
0110
0000
,  // measure 37
0100
0000
0000
1000
0000
0000
0010
0000
,  // measure 38
0000
0000
0100
0000
0000
0000
0000
0000
0001
0000
0000
1000
0000
0000
0001
0000
,  // measure 39
0010
0000
0000
0011
0000
1100
0000
1001
,  // measure 40
0000
0101
0000
1010
0000
0201
0000
0000
,  // measure 41
0010
0000
0000
0300
,  // measure 42
0010
0100
0001
1000
,  // measure 43
0100
1000
0001
0100
,  // measure 44
0201
0300
2020
3030
,  // measure 45
2200
3300
0022
0033
,  // measure 46
0020
0130
2000
3010
,  // measure 47
0100
0000
0000
0001
0000
0000
2000
0000
0002
0000
0000
0000
3003
0000
0000
0000
,  // measure 48
1000
0010
0100
0001
,  // measure 49
0010
0100
0010
0001
,  // measure 50
1000
0100
1000
0010
,  // measure 51
0100
0000
0001
0200
0000
0301
1000
0100
,  // measure 52
1000
0000
0100
0000
0010
0000
0001
0020
,  // measure 53
0000
0031
1000
0010
1000
0000
0001
1000
,  // measure 54
0010
0000
0000
0010
0000
0000
0010
0000
0100
0000
0000
0100
0000
0000
0100
0000
,  // measure 55
0000
0000
0000
0000
0000
0000
0000
0000
0001
0000
0000
0001
0000
0000
0001
0000
,  // measure 56
1000
0000
0000
1000
0000
0000
1000
0000
0010
0000
0000
0100
0000
0000
0001
0000
,  // measure 57
0011
0000
0002
0000
,  // measure 58
0003
0000
2000
0000
,  // measure 59
3000
1001
0001
2000
,  // measure 60
3010
0200
0301
0020
,  // measure 61
0130
2000
3001
0200
,  // measure 62
0301
0020
0130
2000
,  // measure 63
3100
0020
0031
0200
,  // measure 64
0310
2000
3001
0110
,  // measure 65
1001
0000
0000
0000
0002
0000
0000
0003
,  // measure 66
0000
0000
0000
0000
2000
0000
0000
3000
,  // measure 67
0000
0000
0001
0000
0101
0000
0000
0110
,  // measure 68
0000
0000
1010
0000
0000
1100
0000
0000
,  // measure 69
0110
0000
1001
0000
0001
0000
0000
1000
,  // measure 70
0000
0010
1000
0002
0000
0000
0000
0000
,  // measure 71
0003
0000
0020
0000
0130
0000
0000
1000
,  // measure 72
0000
0001
1000
0020
0000
0000
0000
0000
,  // measure 73
0230
0000
0302
0000
2003
0000
0000
3100
,  // measure 74
0000
0010
0001
2000
0000
3010
0100
0000
,  // measure 75
0001
0000
1000
0000
1100
0000
0000
0110
,  // measure 76
0000
0000
0011
0000
0000
0110
0000
0000
,  // measure 77
1100
0000
0000
1001
0000
0000
0001
0000
0001
0000
1000
0000
,  // measure 78
0010
0000
0010
0000
1000
0000
0001
0000
0000
0110
0000
0000
;

//---------------dance-single - ---------------
#NOTEDATA:;
#CHARTNAME:;
#CHARTSTYLE:;
#CREDIT:Pandemonium X;
#STEPSTYPE:dance-single;
#DESCRIPTION:;
#DIFFICULTY:Medium;
#METER:13;
#METERF:13;
#RADARVALUES:0,0,0,0,0;
#NOTES:
// measure 0
0000
0000
0000
0000
,  // measure 1
0000
0000
0000
0000
,  // measure 2
0000
0000
0000
0000
,  // measure 3
0000
0000
0000
0000
,  // measure 4
0002
0000
1003
0200
0000
0000
0000
0000
,  // measure 5
0310
0000
0100
2000
0000
0000
3002
0000
,  // measure 6
0103
0000
0000
1010
0000
0000
0101
0000
,  // measure 7
0000
0110
0000
0000
0110
0000
1001
0000
,  // measure 8
1000
0001
1000
0001
1000
0001
1000
0001
,  // measure 9
0100
0010
0100
0010
0100
0010
0100
0001
,  // measure 10
0200
0000
0000
0000
0000
0000
0000
0000
0310
0000
0000
1000
0000
0000
0002
0000
,  // measure 11
2000
0000
0000
3003
,  // measure 12
0220
0000
0000
0000
,  // measure 13
0000
0000
0000
0000
,  // measure 14
0000
0000
0000
0000
,  // measure 15
0000
0000
0330
1000
,  // measure 16
0101
0000
0000
0000
0001
0000
0000
1000
0000
0000
0100
0000
1000
0000
0000
0001
,  // measure 17
0000
0000
1000
0000
0001
1000
0000
0001
0000
0010
0001
0000
1000
0000
0000
0100
,  // measure 18
0000
0000
1000
0000
0001
0000
0000
0100
0000
0000
0010
0000
1000
0000
0000
0001
,  // measure 19
0000
0000
0010
0000
0100
1000
0000
0001
0000
0100
0010
0000
0200
0000
0000
0000
,  // measure 20
0301
0000
1000
0000
0100
0000
0000
0010
0000
0000
0001
0000
1000
0000
0000
0010
,  // measure 21
0000
0000
1000
0000
0001
0010
0000
0001
0000
1000
0010
0000
0200
0000
0000
0301
,  // measure 22
0000
0000
0M01
0000
2000
0000
0000
3100
0000
0000
M100
0000
0020
0000
0000
0031
,  // measure 23
0000
0000
0100
0000
0001
0000
0000
1000
0001
1000
0001
1000
0001
0000
0000
0000
,  // measure 24
0011
0000
0000
0000
0010
0000
0000
0001
0000
0000
1000
0000
0001
0000
0000
0100
,  // measure 25
0000
0000
0010
0000
1000
0001
0000
1000
0000
0001
0100
0000
0010
0000
0000
1000
,  // measure 26
0000
0000
0001
0000
0010
0000
0000
0100
0000
0000
1000
0000
0001
0000
0000
1000
,  // measure 27
0000
0000
0010
0000
0100
0001
0000
1000
0000
0001
1000
0000
0001
0000
1001
0000
,  // measure 28
0000
0000
1000
0020
0130
0002
0013
0011
,  // measure 29
0000
0000
0010
0100
1000
0002
0103
0002
,  // measure 30
0103
0002
1003
0002
1003
0002
0203
0000
,  // measure 31
0000
0000
0000
0000
0310
0010
0000
1000
1001
0000
0001
0001
0000
1000
1000
0000
,  // measure 32
1100
0000
0011
0000
0001
0001
0000
0100
0110
0000
0010
0010
0000
1000
1000
0000
,  // measure 33
1010
0000
1001
0000
0001
0001
0000
1000
1010
0000
0010
0010
0000
0100
0100
0000
,  // measure 34
0110
0000
0000
0000
1001
0000
0000
0000
0000
0000
0000
0000
0000
0000
0000
0000
2100
0000
0000
0000
0000
0000
0000
0000
0001
0000
0000
0001
0000
0000
3001
0000
,  // measure 35
1000
1000
0010
0100
0000
0001
0010
0100
,  // measure 36
0010
0001
0100
0010
0110
0000
0101
0000
,  // measure 37
0100
0010
1000
0100
0010
0100
1000
0010
,  // measure 38
0100
0000
0010
0000
1000
0000
0100
0000
1100
0000
0000
1000
0000
0000
0001
0000
,  // measure 39
1000
0000
0010
0110
0000
1001
0000
0101
,  // measure 40
0000
1010
0000
0110
0000
2002
0000
0000
,  // measure 41
3003
00M0
0M00
MMMM
,  // measure 42
1000
0000
0000
0001
0100
0001
0000
0100
0000
0010
0100
0001
1000
0000
0100
0010
,  // measure 43
0001
1000
0010
1000
0001
0010
0001
1000
0100
1000
0001
0010
0001
1000
0010
0100
,  // measure 44
0020
0000
0000
0000
0000
0000
0130
0001
2000
0000
0000
0001
0000
0000
3001
0000
,  // measure 45
0000
0000
0000
1000
0000
0000
0001
0000
0201
0000
0000
0000
0310
0000
1000
0000
,  // measure 46
0002
0000
0000
0013
0000
0000
0100
0000
2000
0000
0000
3010
0000
0000
0100
0000
,  // measure 47
0001
0000
1000
0010
0000
0100
0001
0000
2002
0000
0000
0000
3MM3
0000
0000
0000
,  // measure 48
1000
0000
0000
0001
0000
0000
1000
0000
0100
0000
0010
0000
0001
0000
0010
0000
,  // measure 49
0001
1000
0001
1000
0010
1000
0001
0010
,  // measure 50
0100
0001
0100
1000
0001
0100
1000
0100
,  // measure 51
0001
1000
0001
0000
1000
0000
1100
0000
0000
0000
0011
0000
0010
0000
0100
0000
,  // measure 52
1000
0000
0000
0010
0000
0000
0100
0000
0000
0001
0000
0000
0010
0100
0020
0000
,  // measure 53
0000
0031
1000
0010
0100
0002
0013
0100
,  // measure 54
1000
0000
0000
1000
0000
0000
1000
0000
0001
0000
0000
0001
0000
0000
0001
0000
,  // measure 55
1000
0000
0000
1000
0000
0000
1000
0000
0001
0000
0000
0001
0000
0000
0001
0000
0100
0000
0000
0000
0010
0000
0100
0000
0000
0000
0100
0000
0001
0000
0000
0000
,  // measure 56
1000
0000
0001
1000
0000
1000
0100
0000
0110
0000
0010
0001
0000
1000
0001
0000
,  // measure 57
1001
0001
0100
0010
1000
0010
0100
0002
,  // measure 58
0000
0000
0000
0000
1003
0100
1000
0001
,  // measure 59
0100
0010
0100
0000
1001
0000
1000
0100
,  // measure 60
0010
0000
0100
0010
0001
0000
0010
0100
,  // measure 61
1000
0000
0100
0010
0001
0000
0010
0100
,  // measure 62
1000
0000
0100
0010
0001
0000
0010
0100
,  // measure 63
1000
0000
0100
0010
0001
0000
0010
0100
,  // measure 64
1000
0000
0100
0010
0011
0000
1100
0000
,  // measure 65
1001
0000
0000
0000
0002
0000
0000
0103
,  // measure 66
0000
0000
0000
0000
0020
0000
0000
1030
,  // measure 67
0000
0000
0001
1000
0001
0000
0000
0000
1100
0000
0000
0000
0000
0000
0011
0000
,  // measure 68
0000
0000
0101
0000
0000
1010
0000
0000
,  // measure 69
0110
0000
1001
0000
0001
1000
0001
1000
,  // measure 70
0001
0100
0010
0200
0000
0010
0310
1000
,  // measure 71
0001
0100
0010
1000
0100
0010
0100
0010
,  // measure 72
0001
0100
0010
2000
0000
0000
0000
0000
,  // measure 73
3001
1000
0100
0010
0002
0000
0000
0203
,  // measure 74
0000
0310
1000
0002
0000
1003
0100
0001
,  // measure 75
0100
0100
1000
0001
1001
0000
0000
0101
,  // measure 76
0000
0000
0011
0000
0000
0110
0000
0000
,  // measure 77
1100
0000
0000
0011
0000
0000
0001
0000
0001
0000
0001
1000
,  // measure 78
0010
0000
0010
0000
0010
0100
0001
0000
0000
1010
0000
0000
;

//---------------dance-single - ---------------
#NOTEDATA:;
#CHARTNAME:;
#CHARTSTYLE:;
#CREDIT:Pandemonium X;
#STEPSTYPE:dance-single;
#DESCRIPTION:;
#DIFFICULTY:Hard;
#METER:17;
#METERF:17;
#RADARVALUES:0,0,0,0,0;
#NOTES:
// measure 0
0000
0000
0000
0000
,  // measure 1
0000
0000
0000
0000
,  // measure 2
0000
0000
0000
0000
,  // measure 3
0000
0000
0000
0000
,  // measure 4
1000
0000
0010
0200
0000
0000
0000
0000
,  // measure 5
0301
0000
0000
0000
1000
0000
0002
0000
0000
0000
0013
0100
0010
0000
0100
0000
,  // measure 6
1100
0000
0000
0101
0000
0000
1001
0000
,  // measure 7
0000
0011
0000
0000
1010
0000
1001
0000
,  // measure 8
0001
0000
0100
0000
0001
0000
0100
0000
0010
0000
1000
0000
0001
0000
0100
0010
,  // measure 9
1000
0000
0010
0000
1000
0000
0001
0010
0001
1000
0001
0100
0001
0000
1000
0000
,  // measure 10
0001
0010
0001
0010
0100
1000
0100
1000
0001
0000
0001
1000
0100
0000
0010
0001
,  // measure 11
1000
0000
0000
1000
0000
0000
1000
0000
0000
1000
0001
0000
0100
0000
0010
0000
,  // measure 12
2002
0000
0000
0000
,  // measure 13
0000
0000
0000
0000
,  // measure 14
0000
0000
0000
0000
,  // measure 15
0000
0000
0000
0000
0000
0000
0000
0000
3003
0000
0000
0000
0401
0000
0000
0310
,  // measure 16
0000
0010
1000
0001
1000
0001
0010
0001
1000
0000
0001
1000
0100
0010
0100
0010
,  // measure 17
0000
0001
1000
0000
0010
0100
0000
0100
0010
0100
0001
1000
0002
0000
0000
1003
,  // measure 18
0000
0100
0010
0000
0001
0000
0010
0100
0000
0010
0001
0000
1000
0000
0010
0100
,  // measure 19
0000
0010
1000
0000
0100
0010
0000
0001
1000
0000
0001
0000
0400
0000
0000
0301
,  // measure 20
0000
0010
0100
0000
1000
0000
0001
1000
0000
1000
0001
0000
0100
0000
0001
1000
,  // measure 21
0000
1000
0001
0100
0001
1000
0000
0100
0010
0001
0010
0001
0020
0000
0000
0130
,  // measure 22
0000
00M0
1000
0001
0200
0000
0000
0310
0000
0M00
0010
1000
0001
0000
0000
1000
,  // measure 23
0000
1000
0100
0000
0010
0100
0000
0010
0002
2003
3002
2003
3040
0000
0000
0000
,  // measure 24
1030
0001
1000
0001
0100
0000
0010
0100
0000
0001
0010
0000
0100
0000
0010
0001
,  // measure 25
0000
0010
0100
1000
0100
1000
0000
1000
0100
0000
0010
0000
0002
0000
0000
0103
,  // measure 26
0000
0100
0001
0000
0010
0100
0010
0001
0000
1000
0100
0000
0010
0000
0001
0010
,  // measure 27
0000
0001
0100
0010
1000
0100
0000
0010
0000
0010
0100
0000
1000
0000
1001
0000
,  // measure 28
0000
0000
0000
0000
0001
0100
0010
1000
0001
1000
0100
0010
0001
0000
1001
0000
,  // measure 29
0000
0000
0000
0000
1000
0000
0001
0000
1000
0000
0040
0030
1000
0000
0004
0103
,  // measure 30
0020
0000
0000
0000
0000
0000
4030
0000
0000
3010
0000
0000
0200
0000
0000
0000
0000
0000
0340
0000
0000
0130
0000
0000
0002
0000
0000
0000
0000
0000
1003
0000
0000
0100
0000
0000
0010
0000
0001
0000
0100
0000
0001
0000
1000
0000
0100
0000
,  // measure 31
0010
0000
0000
0000
0100
0000
0000
0000
1000
0000
0000
0000
0100
0000
0000
0000
0010
0000
0000
0000
0001
0000
0000
0000
1000
0000
0000
0000
0000
0000
0001
0000
0000
0000
0000
0000
0000
0000
0000
0000
0000
0000
0000
0000
0000
0000
0000
0000
110M
0000
0000
0000
0000
0000
0000
0000
0000
0000
0000
0000
0000
0000
0000
0000
0000
0000
0001
0000
0000
0100
0000
0000
0001
0000
0000
0000
0000
0000
0000
0000
0000
0000
0000
0000
0000
0000
0000
0000
0000
0000
1000
0000
0000
0010
0000
0000
,  // measure 32
1000
0000
0000
0000
0000
0000
0001
0010
0001
0000
0001
0000
0002
0000
1003
0000
101M
0000
0000
0000
0000
0000
0001
0100
0001
0000
0000
0000
0000
0000
0010
0001
,  // measure 33
0010
0000
0000
0010
0000
0000
0010
0000
0100
0000
0100
0000
2000
0000
3010
0000
1M10
0000
0000
0000
0000
0000
1000
0001
1000
0000
0000
0000
0000
0000
0001
1000
,  // measure 34
0001
0000
0000
0000
1000
0000
0000
0000
0001
0000
0000
0000
1000
0000
0000
0000
0200
0000
0000
0000
0000
0000
0000
0000
0000
0000
0000
0000
0300
0000
0000
0010
0M01
0000
0000
0000
0000
0000
1000
0000
0000
0000
0000
0000
0010
0000
0000
0000
0400
0000
0300
0000
0000
0000
0400
0000
0300
0000
0000
0000
0400
0000
0300
0000
,  // measure 35
0010
1000
0010
1000
0100
0000
0020
0000
0000
0000
0031
1000
0001
1000
0001
0000
,  // measure 36
1000
0000
0010
1000
0010
0000
0010
0000
0100
0000
0001
0000
1000
0000
0000
0000
,  // measure 37
0100
1000
0100
0000
1000
0000
0001
0100
0001
0000
0001
0000
1000
0010
1000
0000
,  // measure 38
1000
0000
0010
0100
0010
0000
0100
0000
0001
0000
0100
0001
0000
1000
0100
0000
,  // measure 39
0120
0000
0031
1001
0000
0101
0000
1020
,  // measure 40
0000
0000
0100
0000
0000
0000
1000
0000
0000
0000
0200
0000
0030
0000
0010
1300
,  // measure 41
010M
0000
0000
0000
000M
0000
0000
0000
000M
0000
0000
0000
MMMM
1000
0001
0010
,  // measure 42
0100
0000
0000
0000
0000
0000
0010
0001
0010
0000
0100
0000
0000
0000
0010
0000
0000
0000
0010
0000
0100
0000
1000
0000
0001
0000
0000
0000
0001
0000
1000
0000
,  // measure 43
0100
0000
0001
0000
0100
0000
1000
0000
0010
0000
0001
0000
0010
0000
1000
0000
0001
0000
1000
0000
0001
0000
1000
0000
0100
0000
0010
0000
0001
0000
1000
0001
,  // measure 44
0200
0000
0000
0000
0000
0000
0310
1000
0002
0000
0013
0100
0000
0010
0100
0000
,  // measure 45
4000
0000
3001
0100
0000
0001
1000
0000
0220
0000
0330
0000
1000
0001
0010
0001
,  // measure 46
1000
0000
0001
0100
0000
1000
0100
0000
1001
0000
0001
0010
0000
1000
0010
0000
,  // measure 47
0001
0000
1000
0010
0000
M010
0001
0000
1001
0000
0000
0000
MMMM
0000
0000
0000
,  // measure 48
1000
0000
0000
0001
0000
0000
1000
0001
0100
0010
1000
0010
0100
0001
0100
0001
,  // measure 49
1000
0000
0100
0000
0010
0000
0001
0000
1000
0010
1000
0010
0100
0001
1000
0001
,  // measure 50
1000
0100
0010
0001
1000
0010
0100
0001
1000
0100
0010
0001
1000
0010
0100
0001
,  // measure 51
1000
0100
1000
0000
1100
0000
0021
0000
0000
0000
0230
0000
0310
0001
1000
0010
,  // measure 52
0100
0000
0010
1000
0000
1000
0001
0000
0001
0010
0000
0010
0100
0010
0200
0000
,  // measure 53
0000
0000
0310
0001
1000
0000
0010
0000
0100
0000
0040
0000
1030
0100
0010
0001
,  // measure 54
1000
0000
0001
0100
0000
0010
1000
0000
1001
0000
0001
0010
0000
0100
1000
0000
,  // measure 55
0001
0000
1000
0010
0000
0100
0001
0000
1000
0001
1000
0010
0000
1000
0002
0000
1003
0000
0010
0000
1000
0000
0010
0000
0100
0000
0001
0000
0100
0000
0001
0000
,  // measure 56
1000
0000
1000
0100
0010
0000
0001
0000
0011
0000
001M
0100
0000
1000
0M10
0000
,  // measure 57
1001
2000
3200
0320
0130
0010
0001
2000
,  // measure 58
0000
0000
0000
0000
3100
0010
0001
1000
,  // measure 59
0010
0000
1000
0000
0001
0000
1000
0000
1001
0000
0000
0000
0001
0100
0001
0100
,  // measure 60
0001
0000
0000
0000
1000
0100
1000
0100
1000
0000
0000
0000
0001
0010
0001
0010
,  // measure 61
0001
0000
0000
0000
1000
0010
1000
0010
1000
0000
0000
0000
0001
1000
0001
1000
,  // measure 62
0100
0000
0000
0000
0010
0100
0010
0100
1000
0000
0000
0000
0001
0100
0001
0100
,  // measure 63
0010
0000
0000
0000
1000
0010
1000
0010
0100
0000
0000
0000
0001
1000
0001
1000
,  // measure 64
0010
0000
0000
0000
0100
0010
0100
0010
1000
0000
0000
0000
0101
0000
0000
0000
,  // measure 65
1001
0000
0000
0000
1000
0000
0010
0200
,  // measure 66
0000
0000
0000
0000
0301
0000
0010
0200
,  // measure 67
0000
0000
1300
0010
0200
0000
0000
0000
0310
0000
0000
0000
0000
0000
0101
0000
,  // measure 68
0000
0000
0011
0000
0000
1100
0000
0000
,  // measure 69
1001
0000
0110
0000
1000
0001
1000
0010
,  // measure 70
0100
0001
0010
0100
0010
0001
0100
0010
,  // measure 71
1000
0000
0001
0000
1000
0100
0010
0001
0100
0010
0100
0010
0100
0010
0100
0010
,  // measure 72
1000
0001
1000
0001
1000
0001
0020
0000
0000
0000
0000
0000
0000
0000
0000
0000
,  // measure 73
0130
1000
0004
0103
0010
1000
0100
0010
0001
0100
0001
1000
0010
1000
0001
4000
,  // measure 74
3010
0100
0001
0100
0001
1000
0004
4003
3400
0340
0034
1003
0010
1000
0001
0010
,  // measure 75
0100
0000
4000
3000
0001
0000
0400
0300
0002
0000
0000
0000
0000
0000
0100
0000
,  // measure 76
0000
0000
0010
0000
0000
0100
0000
0000
,  // measure 77
0010
0000
0000
1003
0000
0000
1001
0000
1100
0000
1000
0001
,  // measure 78
1001
0000
0101
0000
0001
1000
1001
0000
0000
0110
0000
0000
;

//---------------dance-single - ---------------
#NOTEDATA:;
#CHARTNAME:;
#CHARTSTYLE:;
#CREDIT:Pandemonium X;
#STEPSTYPE:dance-single;
#DESCRIPTION:;
#DIFFICULTY:Beginner;
#METER:6;
#METERF:6;
#RADARVALUES:0,0,0,0,0;
#NOTES:
// measure 0
0000
0000
0000
0000
,  // measure 1
0000
0000
0000
0000
,  // measure 2
0000
0000
0000
0000
,  // measure 3
0000
0000
0000
0000
,  // measure 4
1000
0000
0000
1000
0000
0000
0000
0000
,  // measure 5
0001
0000
0000
0001
0000
0000
0000
0000
,  // measure 6
0100
0000
0000
0010
0000
0000
1000
0000
,  // measure 7
0000
0100
0000
0000
0010
0000
0100
0000
,  // measure 8
1000
0000
0000
1000
0000
0000
1000
0000
,  // measure 9
0001
0100
0001
1000
,  // measure 10
0100
0000
0010
0100
,  // measure 11
0020
0000
0000
0000
,  // measure 12
0030
0000
0000
0000
,  // measure 13
0000
0000
0000
0000
,  // measure 14
0000
0000
0000
0000
,  // measure 15
0000
0000
0000
0000
,  // measure 16
0001
0000
1000
0000
,  // measure 17
0010
0000
1000
0000
,  // measure 18
0001
0000
0010
0000
,  // measure 19
0001
0000
1000
0001
,  // measure 20
0100
0000
0001
0000
,  // measure 21
1000
0000
0100
0010
,  // measure 22
0000
0100
0000
1000
,  // measure 23
0000
0010
0200
0301
,  // measure 24
0100
0000
0010
0000
,  // measure 25
0100
0000
0001
0000
,  // measure 26
1000
0000
0100
0000
,  // measure 27
0010
0000
0001
1000
,  // measure 28
0000
0000
0000
0001
,  // measure 29
0000
0000
0000
0100
,  // measure 30
0000
0010
0000
2000
,  // measure 31
0000
3001
1001
1000
,  // measure 32
0001
0100
0110
0010
,  // measure 33
1000
0001
1001
1000
,  // measure 34
0001
0100
0010
0000
,  // measure 35
0100
0000
0000
0001
0000
0000
1000
0000
,  // measure 36
0000
0001
0000
0000
1000
0000
1000
0000
,  // measure 37
0001
0000
0000
0100
0000
0000
0001
0000
,  // measure 38
0000
0100
0000
0000
0010
0000
0010
0000
,  // measure 39
1000
0000
0000
0001
0000
1000
0000
0010
,  // measure 40
0000
0100
0000
0001
0000
1000
0000
0000
,  // measure 41
0100
0000
0000
0000
,  // measure 42
1000
0000
0001
0000
,  // measure 43
0100
0000
0010
0000
,  // measure 44
0100
0000
0001
0000
,  // measure 45
1000
0000
0100
0000
,  // measure 46
0010
0000
0001
0000
,  // measure 47
1000
0001
1000
0000
,  // measure 48
0001
0000
0100
0000
,  // measure 49
0010
0000
1000
0000
,  // measure 50
0100
0000
0010
0000
,  // measure 51
0100
0000
1000
0000
,  // measure 52
0001
0000
0100
0000
,  // measure 53
0001
0000
1000
0000
,  // measure 54
0010
0000
0010
0000
,  // measure 55
0100
0100
0010
0000
,  // measure 56
0100
0000
0001
1000
,  // measure 57
1001
0000
1000
0000
,  // measure 58
0000
0000
0001
0000
,  // measure 59
0000
0000
0100
0000
,  // measure 60
0010
0000
0100
0000
,  // measure 61
0010
0000
1000
0000
,  // measure 62
0001
0000
1000
0000
,  // measure 63
0001
0000
0010
0000
,  // measure 64
0100
0000
0010
0010
,  // measure 65
0010
0000
0100
0000
,  // measure 66
0000
0000
1000
0000
,  // measure 67
0000
0000
0000
0000
0001
0000
0000
1000
,  // measure 68
0000
0000
0010
0000
0000
0100
0000
0000
,  // measure 69
0001
0000
1000
0000
0100
0000
0000
0010
,  // measure 70
0000
0200
0000
0000
,  // measure 71
0300
0000
0010
0000
0001
0000
0000
0100
,  // measure 72
0000
0020
0000
0000
,  // measure 73
0030
0000
0000
0000
0100
0000
0000
0010
,  // measure 74
0000
0100
0000
0001
,  // measure 75
1000
0100
0020
0000
,  // measure 76
0000
0000
0000
0000
,  // measure 77
0000
0000
0130
0000
,  // measure 78
0010
0000
0100
1001
;

//---------------dance-double - ---------------
#NOTEDATA:;
#CHARTNAME:;
#CHARTSTYLE:;
#CREDIT:Pandemonium X;
#STEPSTYPE:dance-double;
#DESCRIPTION:;
#DIFFICULTY:Medium;
#METER:13;
#METERF:13;
#RADARVALUES:0,0,0,0,0;
#NOTES:
// measure 0
00000000
00000000
00000000
00000000
,  // measure 1
00000000
00000000
00000000
00000000
,  // measure 2
00000000
00000000
00000000
00000000
,  // measure 3
00000000
00000000
00000000
00000000
,  // measure 4
00001000
00000000
00010000
00000200
00000000
00000000
00000000
00000000
,  // measure 5
00010300
00000000
00001000
02000000
00000000
00000000
03010000
00000000
,  // measure 6
10100000
00000000
00000000
11000000
00000000
00000000
00110000
00000000
,  // measure 7
00000000
01010000
00000000
00000000
01010000
00000000
11000000
00000000
,  // measure 8
10020000
00000000
00130000
00002000
00000000
00013000
00000020
00000000
,  // measure 9
00000230
00002300
00023000
00230000
,  // measure 10
02300000
00000000
00000000
00000000
00010000
00000000
00000000
00000000
03100000
00000000
00000000
10000000
00000000
00000000
00010000
00000000
,  // measure 11
00100000
00000000
00000000
00001000
00000000
00000000
00100000
00000000
00000000
00001000
00100000
00000000
00001000
00000000
00010000
00000000
,  // measure 12
00022000
00000000
00000000
00000000
,  // measure 13
00000000
00000000
00000000
00000000
,  // measure 14
00000000
00000000
00000000
00000000
,  // measure 15
00000000
00000000
00033000
00010200
,  // measure 16
00001300
00000000
00000000
00000000
00000010
00000000
00000000
00001000
00000000
00000000
00000010
00000000
00001000
00000000
00000000
00000001
,  // measure 17
00000000
00000000
00001000
00000000
00000001
00000000
00000000
00000010
00000000
00000000
00000001
00000000
00001000
00000000
00000000
00000010
,  // measure 18
00000000
00000000
00001000
00000000
00000100
00000000
00000000
00010000
00000000
00000000
00000100
00000000
00010000
00000000
00000000
00001000
,  // measure 19
00000000
00000000
00010000
00000000
00001000
00000000
00000000
01000000
00000000
00000000
00001000
00000000
02001000
00000000
00000000
00000000
,  // measure 20
03100000
00000000
00000000
00000000
10000000
00000000
00000000
01000000
00000000
00000000
10000000
00000000
00010000
00000000
00000000
01000000
,  // measure 21
00000000
00000000
00010000
00000000
01000000
00000000
00000000
00100000
00000000
00000000
01000000
00000000
00020000
00000000
00000000
00130000
,  // measure 22
00000000
00000000
01000000
00000000
20000000
00000000
00000000
30010000
00000000
00000000
01000000
00000000
00002000
00000000
00000000
00013000
,  // measure 23
00000000
00000000
00010000
00000000
00000200
00000000
00000000
00001300
00000001
00000100
00000001
00000100
00000002
00000000
00000000
00000000
,  // measure 24
00000013
00000000
00000000
00000000
00000100
00000000
00000000
00001000
00000000
00000000
00000100
00000000
00010000
00000000
00000000
00001000
,  // measure 25
00000000
00000000
00010000
00000000
00001000
00000000
00000000
01000000
00000000
00000000
00001000
00000000
00100000
00000000
00000000
01000000
,  // measure 26
00000000
00000000
10000000
00000000
00010000
00000000
00000000
10000000
00000000
00000000
00010000
00000000
00100000
00000000
00000000
00010000
,  // measure 27
00000000
00000000
00100000
00000000
00001000
00000000
00000000
00010000
00000000
00000000
00001000
00000000
00101000
00000000
00101000
00000000
,  // measure 28
00000000
00000000
00001000
00010000
00001000
00010000
00010010
00010010
,  // measure 29
00000000
00000000
00010000
00001000
00010000
00002000
00003000
01001000
,  // measure 30
00000000
01100000
00000000
10010000
00000000
00202000
00000000
00000000
,  // measure 31
00000000
00000000
00303000
00000000
00100000
00001000
00000000
00100000
00110000
00000000
00010000
01000000
00000000
01000000
00001000
00000000
,  // measure 32
00010000
00000000
00010100
00000000
00000100
00001000
00000000
00000010
00000110
00000000
00000100
00000001
00000000
00000001
00001000
00000000
,  // measure 33
00000010
00000000
00010000
00000000
00001000
00100000
00000000
00100000
01100000
00000000
01000000
10000000
00000000
01000000
00100000
00000000
,  // measure 34
00010000
00000000
00000000
00000000
01000000
00000000
00000000
00000000
00002000
00000000
00000000
00000000
00000000
00000000
00000000
00000000
00013000
00000000
00000000
00000000
00000000
00000000
00000000
00000000
00000100
00000000
00000000
00000100
00000000
00000000
00000100
00000000
,  // measure 35
00010000
00001000
00010000
00000020
00000000
00000130
00000001
00000020
,  // measure 36
00000000
00000130
00001000
00000001
00001001
00000000
00011000
00000000
,  // measure 37
00001000
02000000
00000000
03010000
00200000
00000000
01300000
20000000
,  // measure 38
00000000
00000000
30100000
00000000
02000000
00000000
00000000
00000000
03010000
00000000
00000000
00010000
00000000
00000000
00010000
00000000
,  // measure 39
10010000
00000000
00000000
00110000
00000000
00011000
00000000
00001010
,  // measure 40
00000000
00000101
00000000
00001010
00000000
00010200
00000000
00000000
,  // measure 41
01000300
0000M000
000M0000
000MM000
,  // measure 42
01010000
00000000
00000000
00000000
00000000
00000000
00010000
10000000
00010000
00000000
01000000
00000000
00000000
00000000
00010000
00000000
00000000
00000000
00100000
00000000
00010000
00000000
00001000
00000000
00000010
00000000
00000000
00000000
00001000
00000000
00000001
00000000
,  // measure 43
00001000
00000000
00000010
00000000
00000100
00000000
00001000
00000000
00010000
00000000
00100000
00000000
10000000
00000000
00010000
00000000
00100000
00000000
00010000
00000000
10000000
00000000
00010000
00000000
01000000
00000000
00001000
00000000
00010000
00000000
00001000
00010000
,  // measure 44
00002000
00000000
00000000
00000000
00003000
00000000
00010000
00000100
00010000
00000000
00000000
00010000
00000000
00000000
00010000
00000000
,  // measure 45
00000000
00000000
00001000
00010000
00000000
00001000
00100000
00000000
00020000
00000000
00000000
00000000
02030000
00000000
00000000
00000000
,  // measure 46
03100000
00000000
10000000
00010000
00000000
10000000
00010000
00000000
00100000
00000000
00010000
00100000
00000000
00010000
00100000
00000000
,  // measure 47
00110000
00000000
00100000
00001000
00000000
00010000
00000010
00000000
00002010
00000000
00000000
00003000
0000M020
00000000
00000000
00000000
,  // measure 48
00000130
00000000
00000000
00000100
00000000
00000000
00000100
00000000
00000001
00000000
00000010
00000000
00000001
00000000
00000010
00000000
,  // measure 49
00000100
00001000
00000100
00010000
00001000
01000000
00001000
00010000
,  // measure 50
00000100
00010000
00001000
01000000
00001000
00010000
00000100
00010000
,  // measure 51
00001000
00010000
00000100
00010100
00000000
00011000
00010000
00001000
,  // measure 52
01000000
00000000
00000000
01000000
00000000
00000000
00100000
00000000
00000000
00100000
00000000
00000000
01000000
00010000
20000000
00000000
,  // measure 53
00000000
31000000
10000000
01000000
00100000
00000000
01000000
10000000
,  // measure 54
00010000
00000000
00000000
01000000
00000000
00000000
00010000
00000000
00100000
00000000
00000000
00001000
00000000
00000000
00010000
00000000
,  // measure 55
00000100
00000000
00000000
00010000
00000000
00000000
00001000
00000000
01000000
00000000
00000000
00001000
00000000
00000000
00100000
00000000
00010000
00000000
00000000
00000000
00100000
00000000
01000000
00000000
00000000
00000000
01000000
00000000
00100000
00000000
00000000
00000000
,  // measure 56
00010000
00000000
10000000
00010000
00000000
00010000
10000000
00000000
00010000
00000000
01000000
00001000
00000000
00010000
00000100
00000000
,  // measure 57
00001100
00001000
00000100
00000010
00000002
00000000
00000203
00000000
,  // measure 58
00000020
00000330
00000020
00002030
,  // measure 59
00003200
00000000
00010300
00000000
00011000
00000000
00001000
01000000
,  // measure 60
00100000
00000000
01000000
00001000
00010000
00000000
00010000
00000010
,  // measure 61
00000100
00000000
00000010
00010000
00001000
00000000
00001000
00100000
,  // measure 62
00010000
00000000
00100000
00001000
00010000
00000000
00010000
00000100
,  // measure 63
00001000
00000000
00000100
00010000
00001000
00000000
00001000
01000000
,  // measure 64
00100000
00000000
00100000
01000000
01001000
00000000
00010100
00000000
,  // measure 65
00011000
00000000
00000000
00000000
00020000
00000000
00000100
00000200
,  // measure 66
00000000
00000000
00030300
00000000
00002000
00000000
00000001
00000002
,  // measure 67
00000000
00003003
00001001
00000000
00000101
00000000
00000000
00001010
,  // measure 68
00000000
00000000
00001100
00000000
00000000
00010100
00000000
00000000
,  // measure 69
00011000
00000000
00011000
00000000
00002000
00000000
00000000
02003000
,  // measure 70
00000000
03100000
10000000
00020000
00000000
00000000
00000000
00000000
,  // measure 71
00030000
00000000
00100000
01000000
20000000
00000000
00000000
30020000
,  // measure 72
00000000
00130000
00001000
00202000
00000000
00000000
00000000
00300000
,  // measure 73
00103000
00001000
00010000
00000010
00000200
00000000
00001300
00000200
,  // measure 74
00000000
00000301
00001000
00000200
00000000
00000310
00000001
00000100
,  // measure 75
00001000
00010000
00100000
10000000
00010000
00010000
00000000
10000000
,  // measure 76
10000000
00000000
00100000
00100000
00000000
01000000
01000000
00000000
,  // measure 77
01010000
00000000
00000000
00110000
00000000
00000000
00002000
00000000
00013000
00000000
00010000
00000100
,  // measure 78
00002000
00000000
00003100
00000000
00000100
00000010
00000001
00000000
00000000
00001100
00000000
00000000
;

//---------------dance-double - ---------------
#NOTEDATA:;
#CHARTNAME:;
#CHARTSTYLE:;
#CREDIT:Pandemonium X;
#STEPSTYPE:dance-double;
#DESCRIPTION:;
#DIFFICULTY:Easy;
#METER:8;
#METERF:8;
#RADARVALUES:0,0,0,0,0;
#NOTES:
// measure 0
00000000
00000000
00000000
00000000
,  // measure 1
00000000
00000000
00000000
00000000
,  // measure 2
00000000
00000000
00000000
00000000
,  // measure 3
00000000
00000000
00000000
00000000
,  // measure 4
00001000
00000000
00000000
00200000
00000000
00000000
00000000
00000000
,  // measure 5
00301000
00000000
00000000
00020000
00000000
00000000
00030100
00000000
,  // measure 6
00001000
00000000
00000000
00000010
00000000
00000000
00000100
00000000
,  // measure 7
00000000
00000001
00000000
00000000
00001000
00000000
00001000
00000000
,  // measure 8
00000100
00000000
00000000
00010000
00000000
00000000
00001000
00000000
,  // measure 9
01000000
00010000
10000000
01000000
,  // measure 10
00200000
00000000
00000000
00000000
00000000
00000000
00000000
00000000
00310000
00000000
00000000
10000000
00000000
00000000
00100000
00000000
,  // measure 11
02000000
00000000
00000000
00000000
,  // measure 12
03000000
00000000
00000000
00000000
,  // measure 13
00000000
00000000
00000000
00000000
,  // measure 14
00000000
00000000
00000000
00000000
,  // measure 15
00000000
00000000
00000000
00000000
,  // measure 16
10010000
10000000
00100000
10000000
,  // measure 17
00010000
00100000
00010000
00100000
,  // measure 18
00001000
00100000
00010000
01000000
,  // measure 19
00010000
00100000
00001000
00020000
,  // measure 20
00030100
00001000
00000010
00001000
,  // measure 21
00000001
00000100
00000001
00002000
,  // measure 22
00003100
00000200
00010300
00020000
,  // measure 23
00031000
00000000
00002000
00000000
01003000
00010000
02000000
00000000
,  // measure 24
03100000
01000000
00010000
00100000
,  // measure 25
00010000
00100000
00001000
00010000
,  // measure 26
00000100
00001000
00000010
00000100
,  // measure 27
00000001
00000000
00001000
00000000
00000100
00000000
00000010
00000001
,  // measure 28
00000000
00000000
00000010
00000000
00000001
00000000
00001000
00000010
,  // measure 29
00000000
00000000
00000100
00000000
00000010
00000000
00000000
00001000
,  // measure 30
00000000
00000100
00000000
00010000
00000000
00001000
02000000
00000000
,  // measure 31
00000000
00000000
00000000
00000000
03100000
01000000
00000000
00000000
10010000
00000000
00000000
00000000
10000000
00000000
00000000
00000000
,  // measure 32
00010000
00100000
00001000
00000000
00010100
00000000
00000100
00000000
,  // measure 33
00001000
00000010
00000100
00000000
00001001
00000000
00000001
00000000
,  // measure 34
00001000
00000100
00020000
00000000
00031000
00000000
00010000
00000000
,  // measure 35
00002000
00000000
00010000
00013000
00000000
00000000
00000100
00000000
,  // measure 36
00000000
00001000
00000000
00000000
00000010
00000000
00001001
00000000
,  // measure 37
00000001
00000000
00000000
00001000
00000000
00000000
00000100
00000000
,  // measure 38
00000000
00010000
00000000
00000000
00001000
00000000
00011000
00000000
,  // measure 39
00001000
00000000
00000000
00010000
00000000
01000000
00000000
00100000
,  // measure 40
00000000
10100000
00000000
01010000
00000000
20020000
00000000
00000000
,  // measure 41
30030000
00000000
00000000
00000000
,  // measure 42
10000000
00010000
00100000
00010000
,  // measure 43
01000000
00001000
00010000
00000100
,  // measure 44
00002000
00000000
00000000
00000000
00000000
00000000
00000000
00000000
00003010
00000000
00000000
00000010
00000000
00000000
00000010
00000000
,  // measure 45
00000000
00000100
00000000
00000100
00000002
00000000
00001003
00000000
,  // measure 46
00000100
00010000
00001000
01000000
,  // measure 47
00010000
00000000
00000000
10000000
00000000
00000000
00010000
00000000
10000000
00000000
00000000
00000000
01100000
00000000
00000000
00000000
,  // measure 48
00010000
00100000
00010000
01000000
,  // measure 49
00001000
00010000
00000100
00001000
,  // measure 50
00000010
00000010
00000100
00000100
,  // measure 51
00000010
00000000
00000100
00000002
00000000
00001003
00000200
00000000
,  // measure 52
00000310
00000000
00000100
00000000
00001000
00000000
00000100
00020000
,  // measure 53
00000000
00031000
01000000
00000000
00010000
00000000
10000000
00000000
,  // measure 54
01000000
00000000
00000000
01000000
00000000
00000000
01000000
00000000
00100000
00000000
00000000
00100000
00000000
00000000
00100000
00000000
,  // measure 55
00001000
00000000
00000000
00000000
00000000
00000000
00000000
00000000
00010000
00000000
00000000
00010000
00000000
00000000
00010000
00000000
,  // measure 56
00000100
00000000
00000000
00000100
00000000
00000000
00000100
00000000
00001000
00000000
00000000
00000010
00000000
00000000
00000100
00000000
,  // measure 57
00000101
00001001
00001000
00000100
,  // measure 58
00020000
00030000
00001000
01000000
,  // measure 59
00020000
20030000
31000000
00200000
,  // measure 60
00301000
00020000
00030100
00002000
,  // measure 61
00003010
00000200
00000301
00000020
,  // measure 62
00000130
00002000
00003001
00002000
,  // measure 63
00003100
00020000
00031000
00200000
,  // measure 64
00310000
02000000
00010000
00001000
,  // measure 65
03010000
00000000
00000000
00000000
20000000
00000000
00000000
00020000
,  // measure 66
00000000
00000000
30030000
00000000
00020000
00000000
00000000
20000000
,  // measure 67
00000000
00000000
30030000
00000000
10000000
00000000
00000000
00010000
,  // measure 68
00000000
00000000
00100000
00000000
00000000
00001000
00000000
00000000
,  // measure 69
00010000
00000000
00000100
00000000
00001000
00000000
00000000
00000010
,  // measure 70
00000000
00000100
00000001
00000020
00000000
00000000
00000000
00000000
,  // measure 71
00000030
00000000
00000200
00000000
00001300
00000000
00000000
00000100
,  // measure 72
00000000
00010000
00001000
00022000
00000000
00000000
00033000
00000000
,  // measure 73
00010000
00000000
00001000
00000000
01000000
00000000
00000000
00010000
,  // measure 74
00000000
00100000
01000000
00100000
00000000
01000000
10000000
10000000
,  // measure 75
00010000
00010000
10000000
00010000
02000000
00000000
00000000
03020000
,  // measure 76
00000000
00000000
00230000
00000000
00000000
00302000
00000000
00000000
,  // measure 77
00023000
00000000
00000000
00030020
00000000
00000000
00000130
00000000
00000100
00000000
00000010
00000000
,  // measure 78
00001000
00000000
00001000
00000000
00000100
00000000
00010000
00000000
00000000
00011000
00000000
00000000
;

//---------------dance-double - ---------------
#NOTEDATA:;
#CHARTNAME:;
#CHARTSTYLE:;
#CREDIT:Pandemonium X;
#STEPSTYPE:dance-double;
#DESCRIPTION:;
#DIFFICULTY:Hard;
#METER:17;
#METERF:17;
#RADARVALUES:0,0,0,0,0;
#NOTES:
// measure 0
00000000
00000000
00000000
00000000
,  // measure 1
00000000
00000000
00000000
00000000
,  // measure 2
00000000
00000000
00000000
00000000
,  // measure 3
00000000
00000000
00000000
00000000
,  // measure 4
10020000
00000000
00130000
20020000
00000000
00000000
30030000
00000000
,  // measure 5
10000000
00000000
00010000
20020000
00000000
30030000
10100000
00000000
,  // measure 6
01010000
00000000
00000000
00001100
00000000
00000000
01010000
00000000
,  // measure 7
00000000
00001100
00000000
00000000
00011000
00000000
01000100
00000000
,  // measure 8
01000000
00000000
00010000
00000000
00100000
00000000
00001000
00000000
00010000
00000000
00000010
00000000
00000100
00000000
00000010
00001000
,  // measure 9
00000001
00000000
00001000
00000000
00000010
00000000
00000100
00000000
00000001
00001000
00000100
00000000
00000010
00000001
00001000
00000000
,  // measure 10
00000010
00001000
00000010
00001000
00000100
00001000
00000100
00001000
00000100
00010000
00000100
00010000
00001000
00100000
00010000
01000000
,  // measure 11
00100000
00000000
00000000
00100000
00000000
00000000
00100000
00000000
00000000
00100000
01000000
00000000
00001000
00000000
00010000
00000000
,  // measure 12
00004000
00040000
00000000
00000000
00000000
00000000
00000000
00000000
,  // measure 13
00000000
00000000
00000000
00000000
,  // measure 14
00000000
00000000
00000000
00000000
,  // measure 15
00000000
00000000
MMM33MMM
00010200
,  // measure 16
00001300
00000000
00000001
00000010
00000100
00000000
00000010
00000100
00000000
00000100
00000010
00000000
00000001
00000000
00001000
00000010
,  // measure 17
00000000
00000010
00001000
00000100
00010000
00001000
00000000
00010000
00000000
00001000
00100000
00000000
00002000
00000000
00000000
00103000
,  // measure 18
00000000
00010000
10000000
00000000
01000000
00000000
00100000
01000000
00000000
01000000
00100000
00000000
00010000
00000000
10000000
00010000
,  // measure 19
00000000
00010000
01000000
00000000
00010000
00100000
00000000
00001000
00000000
00010000
00000100
00000000
00004000
00000000
00000000
00003010
,  // measure 20
00000000
00000100
00000001
00000000
00001000
00000000
00000100
00001000
00000000
00001000
00000100
00000000
00000010
00000000
00000001
00001000
,  // measure 21
00000000
00001000
00000010
00001000
00000010
00000100
00000000
00000001
00001000
00000100
00000000
00000000
00020000
00000000
00000000
00031000
,  // measure 22
00000000
000M0000
00001000
00010000
00002000
00000000
00000000
00013000
00000000
0000M000
00010000
00001000
00020000
00000000
00000000
00000000
,  // measure 23
00032000
00000000
00000000
00000000
01003000
00000000
00010000
00000000
00200000
00302000
00023000
00032000
00203000
00000000
00000000
00000000
,  // measure 24
01300000
00000000
10000000
00000000
00010000
00000000
01000000
00010000
00000000
00010000
10000000
00000000
01000000
00000000
00100000
01000000
,  // measure 25
00000000
01000000
10000000
00010000
01000000
00010000
00000000
01000000
00000000
00001000
00010000
00000000
00002000
00000000
00000000
00013000
,  // measure 26
00000000
00000100
00001000
00000000
00000100
00000000
00000010
00000001
00000000
00000001
00001000
00000000
00000010
00000000
00000100
00000001
,  // measure 27
00000000
00000001
00001000
00000000
00000100
00010000
00000000
00000100
00000000
00010000
00001000
00000000
00011000
00000000
00011000
00000000
,  // measure 28
00000000
00000000
00011000
001000M0
00011000
00M00010
00011000
00011000
,  // measure 29
00000000
00000000
00000000
00000000
00011000
00000000
00M00010
00000000
00011000
00000000
001000M0
00000000
00010000
00001000
04000000
00000000
,  // measure 30
03100000
00000000
00000000
01000000
00000000
00000000
00004000
00000000
00000000
00000000
00000000
00000000
00013000
00000000
00000000
00000100
00000000
00000000
00004000
00000000
00000000
00000000
00000000
00000000
00003010
00000000
00000000
00010000
00000000
00000000
00001000
00000000
00000000
00010000
00000000
00000000
00001000
00000000
01000000
00000000
00010000
00000000
00100000
00000000
00001000
00000000
00010000
00000000
,  // measure 31
00000100
00000000
00001000
00000000
00010000
00000000
00100000
00000000
01000000
00000000
00010000
00000000
10000000
00000000
00000000
10000000
00000000
00000000
00000000
00000000
00000000
00010000
00000000
00000000
00110000
00000000
00000000
00000000
00000000
00000000
00010000
00000000
00000000
00010000
00000000
00000000
00000000
00000000
00000000
01000000
00000000
00000000
01000000
00000000
00000000
00000000
00000000
00000000
,  // measure 32
01010000
00000000
00001100
00000000
00001000
00000100
00001000
00000010
00000001
00000000
00000010
00000010
00000000
00001000
00001000
00000000
,  // measure 33
00001010
00000000
00110000
00000000
00010000
01000000
10000000
01000000
00010000
00000000
10000000
10000000
00000000
00010000
00010000
00000000
,  // measure 34
01000000
00000000
00000000
00000000
00010000
00000000
00000000
00000000
00100000
00000000
00000000
00000000
00002000
00000000
00000000
00000000
00000000
00000000
00000000
00000000
00000000
00000000
00000000
00000000
00000000
00000000
00000000
00000000
00000000
00000000
00000000
00103000
00010000
00000000
00000000
00000000
00000000
00000000
00010000
00000000
00000000
00000000
00000000
00000000
00010000
00000000
00000000
00000000
04040000
00000000
03030000
00000000
00000000
00000000
40400000
00000000
30300000
00000000
00000000
00000000
04040000
00000000
03030000
00000000
,  // measure 35
00010000
01000000
00010000
01000000
00010000
00000000
20000000
00000000
00000000
00000000
31000000
00100000
01000000
00000000
10000000
00000000
,  // measure 36
00100000
01000000
00100000
00000000
01000000
00000000
00010000
00000000
02000000
00000000
00000000
00000000
03002000
00000000
00000000
00000000
,  // measure 37
00013000
00000100
00010000
00000000
00000100
00000000
00001000
00000001
00001000
00000000
00000001
00000000
00000010
00000100
00000010
00000000
,  // measure 38
00000100
00000000
00001000
00000100
00001000
00000000
00000100
00000000
00010000
00000000
00000100
00010000
00000000
00001000
01000000
00000000
,  // measure 39
01010000
00000000
00000000
01000000
00010000
00000000
00110000
00000000
00000000
00000000
11000000
00000000
00000000
00000000
10010000
00000000
,  // measure 40
00000000
00000000
01010000
00000000
00000000
00000000
01001000
00000000
00000000
00000000
00021000
00000000
00000000
00000000
00031000
00100000
,  // measure 41
00010000
00000000
00000000
00000000
0000MMMM
00000000
00000000
00000000
MMMM0000
00000000
00000000
00000000
MMMMMMMM
00010000
00000100
00001000
,  // measure 42
00000001
00000000
00000000
00000000
00000000
00000000
00000001
00000100
00000001
00000000
00001000
00000000
00000000
00000000
00000100
00000000
00000000
00000000
00000010
00000000
00000100
00000000
00001000
00000000
00000001
00000000
00000000
00000000
00000100
00000000
00000001
00000000
,  // measure 43
00001000
00000000
00000100
00000000
00000001
00000000
00000100
00000000
00001000
00000000
00000100
00000000
00010000
00000000
00100000
00000000
10000000
00000000
01000000
00000000
00100000
00000000
10000000
00000000
00100000
00000000
00010000
00000000
01000000
00000000
00100000
10000000
,  // measure 44
00020000
00000000
00000000
00000000
00000000
00000000
00130000
00001000
00100000
00000000
00001000
00010000
00000000
00000100
00001000
00000000
,  // measure 45
00000020
00000000
00000130
00000001
00000000
00001000
00000100
00000000
00000022
00000000
00000030
00000000
00000013
00000100
00001000
00000010
,  // measure 46
00010000
00000000
00001000
01000000
00000000
00001000
00010000
00000000
00011000
00000000
00010000
00000100
00000000
00010000
00001000
00000000
,  // measure 47
00011000
00000000
00100000
00000010
00000000
00010000
00001000
00000000
02000200
00000000
00000000
00000000
00MMM000
00000000
00000000
03000300
,  // measure 48
00011000
00000000
00000000
00110000
00000000
00000000
00100000
01000000
10000000
00100000
10000000
00010000
01000000
00010000
10000000
01000000
,  // measure 49
00100000
00000000
00010000
00000000
00001000
00000000
00000100
00000000
00000010
00000001
00000010
00000001
00001000
00000010
00001000
00000010
,  // measure 50
00000100
00000010
00001000
00000001
00000100
00000010
00001000
00000001
00001000
00000010
00000100
00000001
00001000
00000010
00000100
00000001
,  // measure 51
00001000
00000100
00001000
00000000
00000100
00000000
00001200
00000000
00000000
00000000
00020300
00000000
00031000
01000000
00100000
00000000
,  // measure 52
10000000
00000000
10000000
01000000
00000000
00100000
00010000
00000000
00001000
00010000
00000000
00010000
00001000
01000000
00200000
00000000
,  // measure 53
00000000
00000000
01300000
00010000
10000000
00000000
01000000
00000000
00100000
00000000
04000000
00000000
13000000
00000000
00040000
00000000
,  // measure 54
01030000
00000000
00100000
10000000
00000000
00010000
00100000
00000000
00001000
00000000
00010000
00000100
00000000
00001000
00000001
00000000
,  // measure 55
00000100
00000000
00000010
00000100
00000000
00000001
00001000
00000000
00000100
00000010
00000100
00000010
00000000
00000100
00002000
00000000
00003001
00000000
00001000
00000000
00000001
00000000
00001000
00000000
00000100
00000000
00001000
00000000
00000100
00000000
00001000
00000000
,  // measure 56
00000100
00000000
00010000
00001000
00010000
00000000
00011000
00000000
01001000
00000000
01000000
00100000
00000000
10000000
00010000
00000000
,  // measure 57
00110000
00200000
00320000
20030000
30200000
20300000
32000000
03200000
,  // measure 58
00000000
00000000
00000000
00300000
00200000
00320000
00032000
00003200
,  // measure 59
00000320
00000000
00000032
00000000
00002003
00000000
00003001
00000100
00000010
00000000
00000000
00000000
00001000
00000010
00001000
00000010
,  // measure 60
0M000100
00000000
00000000
00000000
00000001
00001000
00000001
00001000
00000100
00000000
00000000
00000000
00010000
00001000
00010000
00001000
,  // measure 61
01000M00
00000000
00000000
00000000
00100000
10000000
00100000
10000000
01000000
00000000
00000000
00000000
00100000
00010000
00100000
00010000
,  // measure 62
01000M00
00000000
00000000
00000000
00010000
01000000
00010000
01000000
00001000
00000000
00000000
00000000
00010000
00001000
00010000
00001000
,  // measure 63
001000M0
00000000
00000000
00000000
01000000
10000000
01000000
10000000
00010000
00000000
00000000
00000000
01000000
00100000
01000000
00100000
,  // measure 64
1000M000
00000000
00000000
00000000
00100000
01000000
00100000
01000000
0001M00M
00000000
00000000
00000000
00M11M00
00000000
00000000
00000000
,  // measure 65
00M01M10
00000010
00000100
00000001
00002000
00000000
00003100
00020000
,  // measure 66
00000000
00000000
00000000
00000000
00031000
00000000
01000000
00020000
,  // measure 67
00000000
00000000
10030000
01000000
00100000
00000000
00000000
00000000
001100MM
00000000
00000000
00000000
00000000
00000000
M00M1010
00000000
,  // measure 68
00000000
00000000
001M10M0
00000000
00000000
0M01M100
00000000
00000000
,  // measure 69
MM001100
00000000
00MM0011
00000000
00000001
00001000
00000010
00001000
,  // measure 70
00000001
00000010
00001000
00000010
00000001
00000100
00000100
00000010
,  // measure 71
00010000
00000000
00010000
00000000
00001000
01000000
00010000
00100000
00010000
01000000
00010000
01000000
00100000
10000000
00100000
10000000
,  // measure 72
00010000
01000000
00100000
10000000
00010000
00100000
02000000
00000000
00000000
00000000
00000000
00000000
00000000
00000000
00000000
00000000
,  // measure 73
03100000
00000000
00040000
00000000
01030000
00000000
00100000
10000000
00010000
00100000
00010000
00100000
00001000
00100000
00001000
00100000
,  // measure 74
00001000
00010000
00001000
00010000
00000100
00010000
00000100
00010000
00000100
00001000
00000010
00000100
00000001
00000100
00000010
00001000
,  // measure 75
00000100
00010000
00001000
01000000
00100000
10000000
01000000
00100000
00020000
00000000
01000000
00000000
01030000
00000000
10200000
00000000
,  // measure 76
10000000
10300000
01020000
01000000
01030000
10200000
10000000
10300000
,  // measure 77
01020000
00000000
00000000
00230000
00000000
00000000
00301000
00000000
00110000
00000000
00100000
00001000
,  // measure 78
00010000
00000000
00001010
00000000
00010000
00001000
00100000
00000000
00000000
10010000
00000000
00000000
;
