#VERSION:0.83;
#TITLE:1st Samurai;
#SUBTITLE:;
#ARTIST:sampling masters MEGA;
#TITLETRANSLIT:;
#SUBTITLETRANSLIT:;
#ARTISTTRANSLIT:;
#GENRE:;
#CREDIT:;
#MUSIC:1st Samurai.ogg;
#BANNER:banner.png;
#BACKGROUND:background.png;
#JACKET:jacket.png;
#DISCIMAGE:;
#CDIMAGE:;
#SELECTABLE:YES;
#LYRICSPATH:;
#CDTITLE:cdtitle.png;
#SAMPLESTART:55.271;
#SAMPLELENGTH:12.107;
#OFFSET:0.949;
#BPMS:0.000000=175.000000,
268.000000=87.500000,
269.500000=200.000000,
296.000000=179.000000,
299.000000=150.000000
;
#STOPS:269.500000=0.798000;
#WARPS:;
#DELAYS:;
#SPEEDS:;
#SCROLLS:;
#TICKCOUNTS:;
#TIMESIGNATURES:;
#LABELS:;
#COMBOS:;
#FAKES:;
#BGCHANGES:;
#FGCHANGES:;
#ATTACKS:;

//---------------dance-single - ---------------
#NOTEDATA:;
#CHARTNAME:;
#CHARTSTYLE:;
#CREDIT:Pandemonium X;
#STEPSTYPE:dance-single;
#DESCRIPTION:;
#DIFFICULTY:Beginner;
#METER:6;
#METERF:6;
#RADARVALUES:0,0,0,0,0;
#NOTES:
// measure 0
0000
0000
0000
0000
,  // measure 1
0000
0000
0000
0000
,  // measure 2
0000
0000
0000
0000
,  // measure 3
0000
0000
0000
0000
,  // measure 4
0000
0000
0000
0000
,  // measure 5
0001
0000
0001
0000
,  // measure 6
0001
0000
0000
0000
,  // measure 7
1000
0000
1000
0000
,  // measure 8
1000
0000
0000
0000
,  // measure 9
0010
0000
0010
0000
,  // measure 10
0010
0000
0000
0000
,  // measure 11
0100
0000
0100
0000
,  // measure 12
0010
0000
0100
0000
,  // measure 13
0001
0000
0000
1000
,  // measure 14
1000
0000
0000
0000
,  // measure 15
0010
0000
0000
0100
,  // measure 16
0100
0000
0000
0000
,  // measure 17
0001
0000
0000
0010
,  // measure 18
0010
0000
0000
0000
,  // measure 19
0100
0000
0000
1000
,  // measure 20
1000
0000
0001
0000
,  // measure 21
0100
0000
0010
0000
,  // measure 22
1000
0000
0001
0000
,  // measure 23
0010
0000
0001
0000
,  // measure 24
1000
0000
0100
0000
,  // measure 25
0020
0000
0030
0000
,  // measure 26
0020
0000
0030
0000
,  // measure 27
0200
0300
0200
0300
,  // measure 28
0200
0000
0300
0000
,  // measure 29
0020
0000
0000
0000
,  // measure 30
0000
0000
0030
0000
,  // measure 31
0002
0003
2000
3000
,  // measure 32
0020
0000
0000
0000
,  // measure 33
0130
2002
0000
3003
,  // measure 34
0000
2000
0000
3000
,  // measure 35
0001
0000
0001
0000
,  // measure 36
0001
0001
0001
0001
,  // measure 37
1000
0000
0001
0000
,  // measure 38
0100
0000
0010
0000
,  // measure 39
1000
0000
1000
0000
,  // measure 40
1000
1000
1000
1000
,  // measure 41
0001
0000
1000
0000
,  // measure 42
0010
0000
1000
0000
,  // measure 43
0100
0100
0100
0100
,  // measure 44
0010
0000
0001
0000
,  // measure 45
0100
0000
0000
0010
,  // measure 46
1000
0000
0000
0001
,  // measure 47
0010
0000
0000
0100
,  // measure 48
1000
0002
2000
3003
,  // measure 49
1000
0000
0000
1000
0000
0000
1000
0000
,  // measure 50
0001
0000
0000
0001
0000
0000
0001
0000
,  // measure 51
0100
0000
0000
0100
0000
0000
0100
0000
,  // measure 52
0000
0020
0200
0330
,  // measure 53
0001
0000
0001
0000
,  // measure 54
1000
0000
1000
0000
,  // measure 55
0010
0000
0010
0000
,  // measure 56
0100
0000
0100
0000
,  // measure 57
0002
0003
2000
3000
,  // measure 58
0020
0030
0200
0300
,  // measure 59
0001
0000
1000
0000
,  // measure 60
0100
0000
0010
0000
,  // measure 61
0001
0010
0001
0000
,  // measure 62
1000
0100
1000
0000
,  // measure 63
0000
0001
0000
1000
,  // measure 64
0000
0010
0000
0100
,  // measure 65
0001
0001
0001
0001
,  // measure 66
0001
0001
0001
0001
,  // measure 67
1001
0000
0000
0000
,  // measure 68
0001
0010
0001
0000
,  // measure 69
1000
0100
1000
0000
,  // measure 70
0000
0001
0000
1000
,  // measure 71
0000
0010
0000
0100
,  // measure 72
0001
0001
0001
0001
,  // measure 73
0001
0001
0001
0001
,  // measure 74
1001
0000
0000
0000
0000
0000
0000
1000
,  // measure 75
1000
0000
0001
0000
0000
0100
0000
0000
,  // measure 76
0010
0000
0000
1000
0000
0000
0001
0000
;

//---------------dance-single - ---------------
#NOTEDATA:;
#CHARTNAME:;
#CHARTSTYLE:;
#CREDIT:Pandemonium X;
#STEPSTYPE:dance-single;
#DESCRIPTION:;
#DIFFICULTY:Easy;
#METER:10;
#METERF:10;
#RADARVALUES:0,0,0,0,0;
#NOTES:
// measure 0
0000
0000
0000
0000
,  // measure 1
0000
0000
0000
0000
,  // measure 2
0000
0000
0000
0000
,  // measure 3
0000
0000
0000
0000
,  // measure 4
0000
0000
0000
0000
,  // measure 5
0101
0001
0010
0001
,  // measure 6
0100
0010
1000
0010
,  // measure 7
1100
0100
1000
0010
,  // measure 8
0100
0001
0010
0100
,  // measure 9
0120
0031
0100
0001
,  // measure 10
1000
0010
1000
0100
,  // measure 11
0210
1300
0100
1000
,  // measure 12
0010
0100
0001
1000
,  // measure 13
0001
0000
0000
0000
0000
0000
1000
0010
,  // measure 14
0100
0100
0100
0100
,  // measure 15
0000
0000
0000
0000
0000
0000
0010
1000
,  // measure 16
0001
0001
0001
0001
,  // measure 17
0000
0000
0000
0000
0000
0000
0010
0001
,  // measure 18
0100
0100
0100
0100
,  // measure 19
0000
0000
0000
0000
0000
0000
0010
0100
,  // measure 20
0001
1000
0100
0000
,  // measure 21
1000
0000
0001
0000
,  // measure 22
0100
0000
0010
0000
,  // measure 23
1000
0000
0100
0000
,  // measure 24
0010
0000
0001
0000
,  // measure 25
1000
0001
1001
0000
,  // measure 26
0001
1000
1001
0000
,  // measure 27
1001
0000
0110
0000
,  // measure 28
1001
0110
1001
0000
,  // measure 29
0001
0001
0001
0001
,  // measure 30
0001
0001
0001
0000
,  // measure 31
1001
0000
0110
0000
,  // measure 32
1001
0110
1001
0110
,  // measure 33
0001
1020
0000
0130
,  // measure 34
0000
0201
0000
0310
,  // measure 35
1001
0000
1001
0000
,  // measure 36
1001
1001
1001
1001
,  // measure 37
0001
1000
0010
1000
,  // measure 38
0100
0010
0001
1000
,  // measure 39
1001
0000
1001
0000
,  // measure 40
1001
1001
1001
1001
,  // measure 41
0001
0100
0001
0000
0100
0001
0100
0000
,  // measure 42
0001
0100
0001
0000
0100
0001
0100
0000
,  // measure 43
0010
0010
0010
0010
,  // measure 44
0010
0100
0010
0000
0100
0010
0100
0000
,  // measure 45
0010
0000
0100
0000
0001
0100
0001
0000
,  // measure 46
1000
0000
0100
0000
0010
0100
0010
0000
,  // measure 47
0100
0000
1000
0000
0001
1000
0001
0000
,  // measure 48
0000
0200
0020
0330
,  // measure 49
1001
0000
0000
1001
0000
0000
1001
0000
,  // measure 50
0110
0000
0000
0110
0000
0000
0110
0000
,  // measure 51
1001
0000
0000
1001
0000
0000
1001
0000
,  // measure 52
0000
0020
0200
0330
,  // measure 53
1001
0001
0001
0001
,  // measure 54
1000
1000
1000
1000
,  // measure 55
0010
0010
0010
0010
,  // measure 56
0100
0100
0100
0100
,  // measure 57
0010
2000
3100
0020
,  // measure 58
0031
0200
0310
2000
,  // measure 59
3001
0000
1000
0000
,  // measure 60
0100
0000
1000
0000
,  // measure 61
0001
0100
0001
0010
,  // measure 62
0001
1000
0100
0010
,  // measure 63
0100
0100
1000
1000
,  // measure 64
0010
0010
0100
0100
,  // measure 65
0001
1000
0001
1000
0001
1000
0001
1000
,  // measure 66
0001
1000
0001
1000
0001
1000
0001
1000
,  // measure 67
0002
0000
0000
0003
0000
0000
0000
0000
,  // measure 68
0001
0100
0001
0010
,  // measure 69
0001
1000
0100
0010
,  // measure 70
0100
0100
1000
1000
,  // measure 71
0010
0010
0100
0100
,  // measure 72
0001
1000
0001
1000
0001
1000
0001
1000
,  // measure 73
0001
1000
0001
1000
0001
1000
0001
1000
,  // measure 74
0002
0000
0000
0000
0000
0000
0003
1000
,  // measure 75
1000
0000
0001
0000
0000
0100
0000
0000
,  // measure 76
0010
0000
0000
1000
0000
0000
0001
0000
;

//---------------dance-single - ---------------
#NOTEDATA:;
#CHARTNAME:;
#CHARTSTYLE:;
#CREDIT:Pandemonium X;
#STEPSTYPE:dance-single;
#DESCRIPTION:;
#DIFFICULTY:Medium;
#METER:13;
#METERF:13;
#RADARVALUES:0,0,0,0,0;
#NOTES:
// measure 0
0000
0000
0000
0000
,  // measure 1
0000
0000
0000
0000
,  // measure 2
0000
0000
0000
0000
,  // measure 3
0000
0000
0000
0000
,  // measure 4
0000
0000
0000
0000
,  // measure 5
0001
0100
0010
0000
0010
0100
0001
0000
,  // measure 6
0001
0100
0010
0000
0010
0100
0001
1000
,  // measure 7
0100
1000
0010
0000
0010
1000
0100
0000
,  // measure 8
0100
1000
0010
0000
0010
1000
0100
0010
,  // measure 9
0001
0100
1000
0000
1000
0100
0001
0000
,  // measure 10
0001
0100
1000
0000
1000
0100
0001
0000
,  // measure 11
0001
0010
1000
0000
1000
0010
0001
0000
,  // measure 12
0001
0010
0100
0000
0100
1000
0001
0000
,  // measure 13
1001
0000
0001
0000
0100
0000
0010
1000
,  // measure 14
0100
0010
0001
0010
0001
0010
0001
0010
,  // measure 15
0001
0000
0100
0000
0010
0000
1000
0001
,  // measure 16
0100
0010
0100
0010
0100
0010
0100
0010
,  // measure 17
0100
0000
0001
0000
1000
0000
0001
0010
,  // measure 18
0100
0000
1000
0000
0001
0000
1000
0000
0001
0000
1000
0000
0001
1000
0001
0000
,  // measure 19
1000
0000
0001
0000
0100
0000
0001
0010
,  // measure 20
0100
0000
1000
0100
1000
0000
0001
0000
0100
0001
0100
0000
0010
0000
0000
0000
,  // measure 21
0100
0000
0000
0010
0100
0000
0000
0000
0100
0000
0000
0001
0100
0000
0000
0000
,  // measure 22
0001
0000
0000
0010
0001
0000
0000
0000
0010
0000
0000
0100
0010
0000
0000
0000
,  // measure 23
0100
0000
0000
1000
0100
0000
0000
0000
1000
0000
0000
0001
1000
0000
0000
0000
,  // measure 24
0010
0000
0000
1000
0010
0000
0000
0000
0100
0000
0000
0010
0100
0000
0001
0000
,  // measure 25
1000
0100
0000
1000
0100
0000
1000
0000
0001
0000
0000
0000
0000
0000
0000
0000
,  // measure 26
0100
0001
0000
0100
0001
0000
1000
0000
0001
0000
0000
0000
0000
0000
0000
0000
,  // measure 27
1000
0010
0000
0100
0001
0000
1000
0000
0001
0010
0000
0100
1000
0000
0001
0000
,  // measure 28
1000
0010
0000
0100
0001
0000
0010
0000
0100
0000
0000
0000
0000
0000
0000
0000
,  // measure 29
1000
0100
1000
0100
1000
0100
1000
0100
,  // measure 30
1000
0100
1000
0010
0100
0000
0000
0000
,  // measure 31
1000
0100
0001
0000
0010
1000
0010
0000
,  // measure 32
0100
0001
0100
1000
0010
0100
0001
1000
,  // measure 33
0100
0000
0000
1000
0020
0000
0000
0000
0000
0000
0000
0000
0130
0000
0000
0000
,  // measure 34
0010
0000
0000
0100
0002
0000
0000
0000
0000
0000
0000
0000
1003
0000
0000
0000
,  // measure 35
0101
0000
1010
0000
,  // measure 36
0101
1010
0101
1010
,  // measure 37
0001
0010
0001
0100
0010
1000
0100
0100
,  // measure 38
1000
0010
0100
0001
1000
0001
0010
0010
,  // measure 39
0001
0100
0010
1000
0001
0010
0100
0100
,  // measure 40
0110
1001
0110
1001
,  // measure 41
0001
0100
1010
0000
1000
0100
0011
0000
,  // measure 42
0001
0100
1010
0000
1000
0100
0011
0000
,  // measure 43
0001
0100
0001
0100
0001
0100
0001
0100
,  // measure 44
0001
0100
0010
1000
0001
0010
1100
0000
,  // measure 45
1000
1000
0100
0010
0001
0100
0001
1000
,  // measure 46
0001
0001
0010
0001
0100
0010
1000
0001
,  // measure 47
0010
0010
0001
1000
0100
0100
0010
0001
,  // measure 48
1000
0002
2000
3003
,  // measure 49
0101
0000
0000
0011
0000
0000
1001
0000
,  // measure 50
1010
0000
0000
1100
0000
0000
1001
0000
,  // measure 51
0101
0000
0000
1010
0000
0000
1001
0000
,  // measure 52
0000
2000
0002
3003
,  // measure 53
1001
0000
0000
0001
0100
0000
0000
0100
0010
0000
0000
0010
1000
0000
0000
1000
,  // measure 54
0100
0000
0000
0100
0010
0000
0000
0010
0001
0000
0000
0001
1000
0000
0000
1000
,  // measure 55
0010
0000
0000
0010
0100
0000
0000
0100
0001
0000
0000
0001
1000
0000
0000
1000
,  // measure 56
0100
0000
0000
0100
0010
0000
0000
0010
0001
0000
0000
0001
0100
0000
0000
0100
,  // measure 57
0010
1000
0200
0000
0310
0001
0200
0000
,  // measure 58
0310
1000
0200
0000
0310
0001
0200
0000
,  // measure 59
0310
0000
0100
0010
1001
0000
0100
0010
,  // measure 60
1001
0000
0010
0100
1001
0000
0010
0100
,  // measure 61
1001
0001
0100
0001
0010
0100
1000
0000
,  // measure 62
1000
0100
1000
0010
0100
0001
1000
0000
,  // measure 63
0001
0101
0001
1010
,  // measure 64
1000
0011
1000
1001
,  // measure 65
0001
0100
0010
1000
0001
0100
0010
1000
,  // measure 66
0001
0100
0010
1000
0001
0100
0010
1000
,  // measure 67
2002
0000
0000
3003
0000
0000
0000
0000
,  // measure 68
1001
0001
0100
0001
0010
0100
1000
0000
,  // measure 69
1000
0100
1000
0010
0100
0001
1000
0000
,  // measure 70
0001
0101
0001
1010
,  // measure 71
1000
0011
1000
1001
,  // measure 72
0001
0100
0010
1000
0001
0100
0010
1000
,  // measure 73
0001
0100
0010
1000
0001
0100
0010
1000
,  // measure 74
1001
0000
0000
0000
0000
0000
0000
0000
0000
0000
0000
0000
0001
1000
0001
0000
,  // measure 75
1001
0000
0101
0000
0000
1010
0000
0000
,  // measure 76
1001
0000
0000
1100
0000
0000
0001
0000
;

//---------------dance-single - ---------------
#NOTEDATA:;
#CHARTNAME:;
#CHARTSTYLE:;
#CREDIT:Pandemonium X;
#STEPSTYPE:dance-single;
#DESCRIPTION:;
#DIFFICULTY:Hard;
#METER:16;
#METERF:16;
#RADARVALUES:0,0,0,0,0;
#NOTES:
// measure 0
0000
0000
0000
0000
,  // measure 1
0000
0000
0000
0000
,  // measure 2
0000
0000
0000
0000
,  // measure 3
0000
0000
0000
0000
,  // measure 4
0000
0000
0000
0000
,  // measure 5
0001
0000
0100
0010
1000
0000
0000
0000
0001
0000
0100
0010
1000
0000
0000
0000
,  // measure 6
0001
0000
0100
0010
1000
0000
0000
0000
0001
0000
0100
0010
1000
0000
0001
0000
,  // measure 7
1000
0000
0001
0100
0010
0000
0000
0000
1000
0000
0001
0100
0010
0000
0000
0000
,  // measure 8
1000
0000
0001
0100
0010
0000
0000
0000
1000
0000
0001
0100
0010
0000
0010
0000
,  // measure 9
1000
0000
1000
0100
0010
0000
0001
0000
1000
0000
1000
0100
0010
0000
0001
0000
,  // measure 10
1000
0000
1000
0100
0010
0000
0001
0000
1000
0000
1000
0100
0010
0000
0001
0000
,  // measure 11
1000
0000
0001
0010
0100
0000
0100
0000
1000
0000
0001
0010
0100
0000
0100
0000
,  // measure 12
1000
0000
0100
0010
0001
0000
0001
0000
0010
0000
0010
0100
1000
0000
0000
0000
,  // measure 13
1000
0001
0100
0010
0100
0001
0010
1000
,  // measure 14
0010
0001
0001
0001
0001
0001
0001
0001
,  // measure 15
0001
1000
0010
0100
0010
1000
0100
0001
,  // measure 16
0100
1000
1000
1000
1000
1000
1000
1000
,  // measure 17
0100
0010
0100
1000
0010
0100
0010
0001
,  // measure 18
0010
0000
0100
0000
0100
0000
0100
0000
0100
0000
0100
0000
0100
0010
0100
0000
,  // measure 19
0010
0100
0001
1000
0100
0010
0001
0100
,  // measure 20
1000
0000
0100
0010
1000
0000
0001
0000
0010
0100
1000
0000
1001
0000
0000
0000
,  // measure 21
1000
0000
0001
1000
0001
0000
0100
0000
0001
0000
0010
0100
0010
0000
0100
0000
,  // measure 22
1000
0000
0001
1000
0001
0000
1000
0000
0100
0000
0010
0001
0010
0000
0001
0000
,  // measure 23
0100
0000
0010
1000
0010
0000
1000
0000
0100
0000
0010
0100
0010
0000
0001
0000
,  // measure 24
0100
0000
0001
1000
0001
0000
0010
0000
0100
0000
0010
0001
0010
0000
0001
0000
,  // measure 25
0100
1000
0000
0100
0001
0000
1000
0000
0001
0000
0101
0000
0000
1010
0000
0000
,  // measure 26
1000
0100
0000
0001
0100
0000
1000
0000
0100
0000
1100
0000
0000
0011
0000
0000
,  // measure 27
0001
0010
0000
1000
0010
0000
0001
0000
0100
1000
0000
0100
0001
0000
1000
0000
,  // measure 28
0100
0001
0000
0100
1000
0000
0010
0000
0100
0000
0110
0000
0000
1001
0000
0000
,  // measure 29
0001
0100
1000
0100
0010
1000
0001
0010
,  // measure 30
1000
0000
0010
0000
0001
0000
0010
0000
0100
0000
0110
0000
0000
1100
0000
0000
,  // measure 31
1001
0000
0001
0100
0010
0000
1000
0000
1001
0000
1000
0010
0100
0000
0001
0000
,  // measure 32
1001
0000
0001
1000
0001
0000
1000
0001
1000
0000
0001
1000
0001
0000
1000
0000
,  // measure 33
0010
0000
0000
0010
0200
0000
0000
0000
0000
0000
0310
0000
1001
0000
0000
0000
,  // measure 34
0011
0000
0000
0010
0200
0000
0000
0000
0000
0000
0310
0000
1001
0000
0000
0000
,  // measure 35
0101
0000
0100
1000
1100
0000
0001
0100
,  // measure 36
0201
1000
0001
1000
,  // measure 37
0301
0000
0000
0000
0000
0000
1000
0000
0000
0000
0000
0000
0001
0000
0000
0020
0030
0000
0000
0000
0000
0020
0030
0000
0000
0000
0000
1000
0000
0000
0000
0000
0000
0001
0000
0000
1000
0000
0000
0000
0000
0000
0001
0000
0000
0000
0000
0000
,  // measure 38
1000
0000
0000
0000
0000
0000
0001
0000
0000
0000
0000
0000
1000
0000
0000
0200
0300
0000
0000
0000
0000
0200
0300
0000
0000
0000
0000
0001
0000
0000
0000
0000
0000
1000
0000
0000
0010
0000
0000
0000
0000
0000
1000
0000
0000
0000
0000
0000
,  // measure 39
1001
0000
0001
0010
0011
0000
1000
0010
,  // measure 40
0120
1000
0001
1030
,  // measure 41
1000
0100
0010
0000
1001
0000
0000
0000
1000
0100
1000
0001
1000
0000
0000
0000
,  // measure 42
0001
0010
0100
0000
1001
0000
0000
0000
0001
0010
0001
1000
0001
0000
0000
0000
,  // measure 43
1000
0100
1000
0000
0001
0100
0001
0000
1000
0100
1000
0000
0001
0100
0001
0000
,  // measure 44
1000
0010
0100
0010
1000
0000
0001
0000
0010
0001
1000
0001
0010
0000
0100
0000
,  // measure 45
1000
0100
1000
0000
0001
0000
0100
0000
0010
0100
0010
0000
0100
0000
0001
0000
,  // measure 46
0100
0001
0100
0000
0001
0000
1000
0000
0001
0010
0001
0000
1000
0000
0010
0000
,  // measure 47
0100
0001
1000
0000
0100
0000
0010
0000
0100
1000
0001
0000
0100
0000
0001
0000
,  // measure 48
1000
0002
2000
3003
,  // measure 49
0101
0100
0010
1010
1000
0100
0110
0000
,  // measure 50
0110
0010
0001
0101
0100
0010
0110
0000
,  // measure 51
0110
0010
1000
1100
0100
0010
0011
0000
,  // measure 52
1000
0000
0002
0000
2000
0000
0000
3003
,  // measure 53
1000
0100
1000
0000
1000
0001
1000
0000
1000
0010
1000
0000
1000
0001
1000
0000
,  // measure 54
0001
0100
0001
0000
0001
1000
0001
0000
0001
0010
0001
0000
0001
1000
0001
0000
,  // measure 55
0010
0001
0010
0000
0010
0100
0010
0000
0010
1000
0010
0000
0010
0100
0010
0000
,  // measure 56
0100
0001
0100
0000
0100
0010
0100
0000
0100
1000
0100
0000
0100
0010
0100
0000
,  // measure 57
0010
0001
0010
0100
1000
0000
0000
0000
0100
0010
0001
1000
0010
0000
0000
0000
,  // measure 58
0100
0010
1000
0001
0010
0000
0000
0000
0100
1000
0001
0100
0010
0000
0000
0000
,  // measure 59
1001
0001
0010
0100
1000
0000
0000
0000
1001
1000
0100
0010
0001
0000
0000
0000
,  // measure 60
1001
0001
0010
0100
1000
0000
0000
0000
1001
1000
0100
0010
0001
0000
0000
0000
,  // measure 61
1000
0010
0100
0001
0010
0000
0100
0000
1000
0100
0010
0100
1000
0000
0001
0000
,  // measure 62
0010
0100
0010
0001
0100
0000
0010
0000
1000
0001
0010
0001
1000
0000
0001
0000
,  // measure 63
0100
0000
0100
0001
0000
0001
0010
0000
0010
0100
0000
0100
,  // measure 64
1000
0000
0000
0000
1000
0000
0001
0000
0000
0000
0001
0000
0100
0000
0000
0000
0100
0000
0001
0000
0000
1000
0000
0000
,  // measure 65
0010
0010
0010
0010
0010
0010
0010
0010
,  // measure 66
0010
0010
0010
0010
0010
0010
0010
0010
,  // measure 67
2002
0000
3000
0003
,  // measure 68
1000
0010
0100
0001
0010
0000
0100
0000
1000
0100
0010
0100
1000
0000
0001
0000
,  // measure 69
0010
0100
0010
0001
0100
0000
0010
0000
1000
0001
0010
0001
1000
0000
0001
0000
,  // measure 70
0100
0000
0100
0001
0000
0001
0010
0000
0010
0100
0000
0100
,  // measure 71
1000
0000
0000
0000
1000
0000
0001
0000
0000
0000
0001
0000
0100
0000
0000
0000
0100
0000
0001
0000
0000
1000
0000
0000
,  // measure 72
0010
0010
0010
0010
0010
0010
0010
0010
,  // measure 73
0010
0010
0010
0010
0010
0010
0010
0010
,  // measure 74
2002
0000
0000
0000
0000
0000
0000
0000
3000
0000
0000
0000
1003
0100
0110
0000
,  // measure 75
0011
0000
0101
0000
0000
1001
0000
0000
,  // measure 76
1100
0000
0000
1001
0000
0000
0020
0000
,  // measure 77
0000
0000
0000
0000
,  // measure 78
0000
0000
0000
0000
,  // measure 79
0030
0000
0000
0000
;

//---------------dance-double - ---------------
#NOTEDATA:;
#CHARTNAME:;
#CHARTSTYLE:;
#CREDIT:Pandemonium X;
#STEPSTYPE:dance-double;
#DESCRIPTION:;
#DIFFICULTY:Easy;
#METER:9;
#METERF:9;
#RADARVALUES:0,0,0,0,0;
#NOTES:
// measure 0
00000000
00000000
00000000
00000000
,  // measure 1
00000000
00000000
00000000
00000000
,  // measure 2
00000000
00000000
00000000
00000000
,  // measure 3
00000000
00000000
00000000
00000000
,  // measure 4
00000000
00000000
00000000
00000000
,  // measure 5
00020000
10030000
01000000
00100000
,  // measure 6
01000000
10000000
00010000
01000000
,  // measure 7
00002000
00013000
00000100
00010000
,  // measure 8
00000100
00001000
00000010
00000100
,  // measure 9
00000002
00000013
00000100
00000010
,  // measure 10
00000001
00000100
00000010
00001000
,  // measure 11
00000200
00001300
00000010
00001000
,  // measure 12
00000010
00001000
00000100
00011000
,  // measure 13
01001000
00000000
00010000
00000000
00100000
00000000
01000000
10000000
,  // measure 14
00100000
01000000
01000000
01000000
,  // measure 15
00100000
00000000
01000000
00000000
00001000
00000000
00010000
00000100
,  // measure 16
00001000
00001000
00001000
00001000
,  // measure 17
00000001
00000000
00000100
00000000
00000010
00000000
00001000
00000100
,  // measure 18
00000010
00000000
00000010
00000000
00000010
00000000
00000010
00000010
,  // measure 19
00000001
00000010
00000100
00001000
,  // measure 20
00000100
00001000
00000100
00010000
00001000
01000000
00001000
00000000
,  // measure 21
00010000
00000100
00001000
00000011
,  // measure 22
00000010
00000001
00001000
00000100
,  // measure 23
00010000
00000100
00010000
00101000
,  // measure 24
00010000
01000000
00010000
00100000
,  // measure 25
01000000
00000000
00000000
01000000
00000000
00000000
01000000
00000000
10000000
00000000
00000000
00000000
00000000
00000000
00000000
00000000
,  // measure 26
00100000
00000000
00000000
00100000
00000000
00000000
00100000
00000000
01000000
00000000
00000000
00000000
00000000
00000000
00000000
00000000
,  // measure 27
00010000
00000000
00000000
00010000
00000000
00000000
00010000
00000000
00100000
00000000
00000000
00100000
00000000
00000000
00100000
00000000
,  // measure 28
00001000
00000000
00000000
00010000
00000000
00000000
00000010
00000000
00001010
00000000
00000000
00000000
00000000
00000000
00000000
00000000
,  // measure 29
00001000
00001000
00001000
00001000
,  // measure 30
00001000
00001000
00001000
00000000
,  // measure 31
00001001
00000000
00000110
00000000
,  // measure 32
00001001
00000110
00001001
00000110
,  // measure 33
00000001
00002020
00000000
00003030
,  // measure 34
00001000
00002200
00000000
00003300
,  // measure 35
00000100
00000000
00000100
00000000
,  // measure 36
00000100
00000100
00000100
00000100
,  // measure 37
00001000
00000100
00010000
00001000
,  // measure 38
01000000
00010000
00100000
01000000
,  // measure 39
00100000
00000000
00100000
00000000
,  // measure 40
00100000
00100000
00100000
00100000
,  // measure 41
02000000
13000000
02000000
03100000
,  // measure 42
02000000
13000000
02000000
03100000
,  // measure 43
00010000
00100000
00010000
00100000
,  // measure 44
00001000
00010000
00000100
00001000
,  // measure 45
00000020
00001030
00000020
00000130
,  // measure 46
00000020
00001030
00000020
00000130
,  // measure 47
00000020
00001030
00000020
00000130
,  // measure 48
00001001
00000000
00000000
00000000
,  // measure 49
00000001
00000000
00000000
00000100
00000000
00000000
00000010
00000000
,  // measure 50
00001000
00000000
00000000
00000100
00000000
00000000
00010000
00000000
,  // measure 51
00001000
00000000
00000000
01000000
00000000
00000000
00010000
00000000
,  // measure 52
10010000
00000000
00000000
00000000
,  // measure 53
10000000
01000000
00100000
00010000
,  // measure 54
00001000
00000100
00000010
00000001
,  // measure 55
00000100
00001000
00010000
00100000
,  // measure 56
10000000
01000000
00100000
00010000
,  // measure 57
00200000
00300000
00002000
00003000
,  // measure 58
00020000
00030000
00000020
00000030
,  // measure 59
00000210
00000300
00001002
00000003
,  // measure 60
00000120
00000030
00002001
00003000
,  // measure 61
00000001
00001000
00000100
00010000
,  // measure 62
00001000
01000000
00010000
00100000
,  // measure 63
01000000
01000000
10000000
10000000
,  // measure 64
00100000
00100000
01000000
01000000
,  // measure 65
00010000
00010000
00010000
00010000
,  // measure 66
00010000
00010000
00010000
00010000
,  // measure 67
00110000
00000000
00000000
00000000
,  // measure 68
00100000
00010000
00100000
00001000
,  // measure 69
00010000
00000010
00001000
00000010
,  // measure 70
00000100
00000100
00000001
00000001
,  // measure 71
00001000
00001000
00000100
00000100
,  // measure 72
00010000
00010000
00010000
00010000
,  // measure 73
00010000
00010000
00010000
00010000
,  // measure 74
00011000
00000000
00000000
00000000
00000000
00000000
00000000
00001000
,  // measure 75
00001000
00000000
01000000
00000000
00000000
00100000
00000000
00000000
,  // measure 76
10000000
00000000
00000000
00010000
00000000
00000000
00100000
00000000
;

//---------------dance-double - ---------------
#NOTEDATA:;
#CHARTNAME:;
#CHARTSTYLE:;
#CREDIT:Pandemonium X;
#STEPSTYPE:dance-double;
#DESCRIPTION:;
#DIFFICULTY:Medium;
#METER:13;
#METERF:13;
#RADARVALUES:0,0,0,0,0;
#NOTES:
// measure 0
00000000
00000000
00000000
00000000
,  // measure 1
00000000
00000000
00000000
00000000
,  // measure 2
00000000
00000000
00000000
00000000
,  // measure 3
00000000
00000000
00000000
00000000
,  // measure 4
00000000
00000000
00000000
00000000
,  // measure 5
00110000
00010000
10000000
00000000
00110000
00010000
10000000
00000000
,  // measure 6
00110000
00010000
10000000
00010000
00100000
00001000
00010000
00000100
,  // measure 7
00001100
00000100
00000010
00000000
00001100
00000100
00000010
00000000
,  // measure 8
00001100
00000100
00000010
00000001
00000100
00000010
00010000
00001000
,  // measure 9
00011000
00001000
00100000
00000000
00011000
00001000
00100000
00000000
,  // measure 10
00011000
00001000
00100000
00010000
01000000
00010000
00100000
00001000
,  // measure 11
00011000
00010000
00000100
00000000
00011000
00010000
00000100
00000000
,  // measure 12
00011000
00010000
00000100
00001000
00000100
00010000
00011000
00000000
,  // measure 13
01001000
00000000
00100000
00000000
01000000
00000000
00010000
00100000
,  // measure 14
01000000
00010000
01000000
10000000
01000000
00010000
01000000
10000000
,  // measure 15
00010000
00000000
00100000
00000000
00001000
00000000
00010000
00000100
,  // measure 16
00001000
00000010
00000001
00000010
00001000
00000010
00000001
00000010
,  // measure 17
00001000
00000000
00000010
00000000
00000100
00000000
00000010
00001000
,  // measure 18
00000001
00000010
00001000
00000010
00000001
00000010
00001000
00000010
,  // measure 19
00000001
00000000
00000100
00000000
00000010
00000000
00001000
00000100
,  // measure 20
00010000
00000000
00001000
00010000
00001000
00000000
00010000
00000000
00001000
00010000
00001000
00000000
00011000
00000000
00000000
00000000
,  // measure 21
00001000
00000000
00000000
00001000
01000000
00000000
00000000
01000000
00100000
00000000
00000000
00100000
10000000
00000000
00000000
01000000
,  // measure 22
00100000
00000000
00000000
00100000
00001000
00000000
00000000
00001000
00010000
00000000
00000000
00010000
00000100
00000000
00000000
00001000
,  // measure 23
00000010
00000000
00000000
00000010
00000100
00000000
00000000
00000100
00000001
00000000
00000000
00000001
00000010
00000000
00000000
00000010
,  // measure 24
00000100
00000000
00000000
00000100
00001000
00000000
00000000
00001000
00000010
00000000
00000000
00000010
00010000
00000000
00000000
00010000
,  // measure 25
00001000
00100000
00000000
00001000
00100000
00000000
00001000
00000000
00011000
00000000
00000000
00000000
00000000
00000000
00000000
00000000
,  // measure 26
00010000
00000100
00000000
00010000
00000100
00000000
00010000
00000000
00011000
00000000
00000000
00000000
00000000
00000000
00000000
00000000
,  // measure 27
00001000
00100000
00000000
00001000
00100000
00000000
00001000
00000000
00010000
00000100
00000000
00010000
00000100
00000000
00010000
00000000
,  // measure 28
00001000
01000000
00000000
00001000
00010000
00000000
00000010
00000000
00000110
00000000
00000000
00000000
00000000
00000000
00000000
00000000
,  // measure 29
00000010
00000100
00000010
00000100
00000010
00000100
00000010
00000100
,  // measure 30
00000010
00000100
00000001
00000010
00000100
00000000
00000000
00000000
,  // measure 31
00001000
00000100
00001000
00000100
00000000
00000000
00010000
00001000
00010000
00001000
00000000
00000000
,  // measure 32
00100000
00000000
00010000
00000000
00100000
00000000
00010000
00000000
00000000
01000000
00000000
00000000
10000000
00000000
00000000
01000000
00000000
00000000
00010000
00000000
00000000
10000000
00000000
00000000
,  // measure 33
01000000
00200000
00000000
00301000
,  // measure 34
00010000
00001020
00000000
00000030
,  // measure 35
00000101
00000000
00001010
00000000
,  // measure 36
00000101
00001010
00000101
00001010
,  // measure 37
00001000
00000100
00010000
00001000
01000000
00010000
00100000
00100000
,  // measure 38
01000000
10000000
00010000
01000000
00010000
00100000
00001000
00001000
,  // measure 39
00011000
00100000
00011000
00000010
,  // measure 40
00011000
00011000
00011000
00011000
,  // measure 41
00010000
00000100
00001100
00000000
00001000
00000010
00000100
00000000
,  // measure 42
00000001
00000010
00000110
00000000
00000100
00001000
00000001
00000000
,  // measure 43
00001000
00000010
00001000
00000010
00001000
00000010
00001000
00000010
,  // measure 44
00001000
00000100
00010000
00001000
01000000
00010000
00110000
00000000
,  // measure 45
00100000
10000000
00100000
00010000
01000000
00001000
00010000
00000100
,  // measure 46
00001000
00000010
00000001
00000010
00001000
00000001
00000010
00000100
,  // measure 47
00001000
00000100
00000001
00001000
00000100
00010000
00001000
01000000
,  // measure 48
01010000
20000000
00020000
30030000
,  // measure 49
10000000
01000000
00100000
00000000
01000000
00100000
00010000
00000000
,  // measure 50
00100000
00010000
00001000
00000000
00010000
00001000
00000100
00000000
,  // measure 51
00001000
00000100
00000010
00000000
00000001
00000100
00000010
00000000
,  // measure 52
00000100
00000002
00002000
00003003
,  // measure 53
00000001
00000100
00000010
00001000
00000001
00000100
00000010
00001000
,  // measure 54
00000100
00010000
00001000
01000000
00001000
00010000
00000100
00010000
,  // measure 55
00001000
01000000
00100000
01000000
00001000
01000000
00100000
01000000
,  // measure 56
00010000
01000000
00100000
10000000
00010000
01000000
00100000
10000000
,  // measure 57
02000000
03000000
00200000
00300000
,  // measure 58
00002000
00003000
00020000
00030000
,  // measure 59
00010200
00000300
00001020
00000030
,  // measure 60
00000102
00000003
00002001
00003000
,  // measure 61
00000100
00010000
00001000
01000000
00010000
00100000
01000000
10000000
,  // measure 62
00010000
01000000
00001000
00010000
00000100
00001000
00000010
00000100
,  // measure 63
00000001
00001010
00001000
00001100
,  // measure 64
00000100
00011000
01000000
00011000
,  // measure 65
00001000
00010000
00001000
00010000
00001000
00010000
00001000
00010000
,  // measure 66
00001000
00010000
00001000
00010000
00001000
00010000
00001000
00010000
,  // measure 67
00022000
00000000
00000000
00033000
00000000
00000000
00000000
00000000
,  // measure 68
00100000
00010000
01000000
00100000
10000000
01000000
00100000
00010000
,  // measure 69
00100000
00001000
00010000
00000100
00001000
00000010
00000100
00000001
,  // measure 70
00001000
00001100
00000100
00010100
,  // measure 71
00100000
00011000
00000010
00011000
,  // measure 72
00001000
00010000
00001000
00010000
00001000
00010000
00001000
00010000
,  // measure 73
00001000
00010000
00001000
00010000
00001000
00010000
00001000
00010000
,  // measure 74
00011000
00000000
00000000
00000000
00000000
00000000
00000000
00000000
00000000
00000000
00000000
00000000
00001000
01000000
00010000
00000000
,  // measure 75
00110000
00000000
11000000
00000000
00000000
00110000
00000000
00000000
,  // measure 76
01001000
00000000
00000000
00011000
00000000
00000000
00000200
00000000
,  // measure 77
00000000
00000000
00000000
00000000
,  // measure 78
00000300
00000000
00000000
00000000
;

//---------------dance-double - ---------------
#NOTEDATA:;
#CHARTNAME:;
#CHARTSTYLE:;
#CREDIT:Pandemonium X;
#STEPSTYPE:dance-double;
#DESCRIPTION:;
#DIFFICULTY:Hard;
#METER:16;
#METERF:16;
#RADARVALUES:0,0,0,0,0;
#NOTES:
// measure 0
00000000
00000000
00000000
00000000
,  // measure 1
00000000
00000000
00000000
00000000
,  // measure 2
00000000
00000000
00000000
00000000
,  // measure 3
00000000
00000000
00000000
00000000
,  // measure 4
00000000
00000000
00000000
00000000
,  // measure 5
00110000
00000000
00100000
01000000
10000000
00000000
00000000
00000000
01000000
00000000
00100000
00010000
10000000
00000000
00000000
00000000
,  // measure 6
00100000
00000000
01000000
00010000
00100000
00000000
00001000
00000000
00010000
00000000
00000100
00001000
00000010
00000000
00001000
00000000
,  // measure 7
00000011
00000000
00000001
00000100
00000010
00000000
00000000
00000000
00000100
00000000
00000010
00001000
00000001
00000000
00000000
00000000
,  // measure 8
00000001
00000000
00000010
00000001
00001000
00000000
00000100
00000000
00010000
00000000
00001000
01000000
00010000
00000000
10000000
00000000
,  // measure 9
10010000
00000000
10000000
01000000
00100000
00000000
00000000
00000000
00010000
00000000
00100000
01000000
10000000
00000000
00000000
00000000
,  // measure 10
00010000
00000000
10000000
01000000
00100000
00000000
00010000
00000000
00100000
00000000
00001000
00010000
00000100
00000000
00001000
00000000
,  // measure 11
00001001
00000000
00001000
00000100
00000010
00000000
00000000
00000000
00000001
00000000
00001000
00000100
00000010
00000000
00000000
00000000
,  // measure 12
00000001
00000000
00001000
00000100
00000010
00000000
00000001
00000000
00001000
00000000
00000001
00000010
00000100
00000000
00000000
00000000
,  // measure 13
00000010
00000001
00000100
00000010
00001000
00000100
00010100
00011000
,  // measure 14
00101000
00001000
00010000
00001000
00010000
00001000
00010000
00001000
,  // measure 15
01000000
00010000
00100000
00000000
01000000
10000000
10010000
01010000
,  // measure 16
01001000
00001000
00010000
00001000
00010000
00001000
00010000
00001000
,  // measure 17
00100000
00001000
00010000
00000000
00000010
00001000
00001010
00010010
,  // measure 18
00011000
00000000
00001000
00000000
00010000
00000000
00001000
00000000
00010000
00000000
00001000
00000000
00010000
00001000
00010000
00000000
,  // measure 19
00001000
01000000
00100000
00000000
01000000
00010000
00110000
00101000
,  // measure 20
00011000
00000000
00010000
00000100
00010000
00000000
00001000
00000000
01000000
00001000
01000000
00000000
01001000
00000000
00000000
00000000
,  // measure 21
00001000
00000000
00000000
00100000
00001000
00000000
00010000
00000000
00000010
00000000
00000000
00000100
00000010
00000000
00001000
00000001
,  // measure 22
00000010
00000000
00000000
00000100
00000010
00000000
00000001
00000000
00001000
00000000
00000000
00000100
00010000
00000000
00001000
00010000
,  // measure 23
00001000
00000000
00000000
00010000
00001000
00000000
01000000
00000000
00010000
00000000
00000000
00100000
01000000
00000000
00100000
01000000
,  // measure 24
00100000
00000000
00000000
01000000
10000000
00000000
00010000
00000000
01000000
00000000
00000000
00100000
01000000
00000000
00010000
00000000
,  // measure 25
00100000
00001000
00000000
00010000
00000010
00000000
00001000
00000000
00001001
00000000
00000000
00000000
00000000
00000000
00000000
00000000
,  // measure 26
00000010
00010000
00000000
00001000
00100000
00000000
00010000
00000000
10010000
00000000
00000000
00000000
00000000
00000000
00000000
00000000
,  // measure 27
10000000
00010000
00000000
00100000
00001000
00000000
00010000
00000000
00010000
00001000
00000000
00010000
00000100
00000000
00001000
00000000
,  // measure 28
00001000
00000100
00000000
00001000
00000001
00000000
00001000
00000000
00001100
00000000
00000000
00000000
00000000
00000000
00000000
00000000
,  // measure 29
00001000
00000100
00010000
00001000
01000000
00001000
00010000
00000100
,  // measure 30
00010000
00001000
01000000
00001000
00011000
00000000
00000000
00000000
,  // measure 31
00100000
00001000
00100000
00001000
00100000
00000000
00001000
00000000
00010000
00000010
00010000
00000010
00010000
00000000
00001000
00000000
,  // measure 32
00010000
00001000
00010000
00001000
00010000
00000000
00010000
00000000
00011000
00000000
00011000
00000000
00011000
00000000
00011000
00000000
,  // measure 33
00001000
00000000
00000000
00100000
02000000
00000000
00000000
00000000
00000000
00000000
13000000
00000000
10010000
00000000
00000000
00000000
,  // measure 34
00010000
00000000
00000000
00100000
00002000
00000000
00000000
00000000
00000000
00000000
00000000
00000000
00003000
00000000
00000000
00000000
,  // measure 35
00010100
00010000
01001000
00010000
,  // measure 36
00001100
01010000
00001100
01010000
,  // measure 37
00010000
00000000
01000000
00000000
00100000
10000000
00000000
00010000
00000000
00100000
00000000
00001000
00010000
00000000
00000100
00000000
,  // measure 38
00001000
00000000
00000001
00000000
00000100
00000001
00000000
00001000
00000000
00000001
00000000
00001000
00000100
00000000
00010000
00000000
,  // measure 39
00010010
00001000
00110000
00001000
,  // measure 40
00010010
00110000
00010010
00110000
,  // measure 41
00001000
01000000
00100000
00000000
10100000
00000000
00000000
00000000
10000000
01000000
00100000
00010000
00100000
00000000
00000000
00000000
,  // measure 42
00010000
00100000
00001000
00000000
00101000
00000000
00000000
00000000
00001000
00010000
00000100
00001000
00000001
00000000
00000000
00000000
,  // measure 43
00000100
00000001
00000100
00000000
00000010
00001000
00000010
00000000
00000100
00000001
00000100
00000000
00000010
00001000
00000010
00000000
,  // measure 44
00001000
00000100
00001000
00000000
00000100
00000000
00010000
00001000
00010000
00001000
01000000
00001000
01000000
00000000
00010000
00000000
,  // measure 45
00100000
00010000
00001000
00000100
00000010
00001000
00000010
00000001
,  // measure 46
00000100
00001000
00010000
00100000
00010000
00100000
10000000
00100000
,  // measure 47
10000000
01000000
00100000
00010000
00000100
00000010
00001000
00000010
,  // measure 48
00000021
00000100
00000002
00000033
,  // measure 49
00000101
00000000
00000000
00001010
00000000
00000000
00001100
00000000
,  // measure 50
00011000
00000000
00000000
01001000
00000000
00000000
01100000
00000000
,  // measure 51
10100000
00000000
00000000
10010000
00000000
00000000
11000000
00000000
,  // measure 52
00210000
00001000
00020000
00330000
,  // measure 53
00100000
00001000
00010000
00000000
00000100
00001000
00000001
00000000
00000100
00000001
00001000
00000000
00000100
00001000
00000001
00000000
,  // measure 54
00000100
00000010
00001000
00000000
00000010
00010000
00001000
00000000
00010000
00001000
01000000
00000000
00010000
10000000
01000000
00000000
,  // measure 55
00100000
01000000
10000000
00000000
01000000
00100000
00010000
00000000
00100000
00001000
00010000
00000000
00000010
00000100
00000001
00000000
,  // measure 56
00001000
00000100
00000010
00000000
00000100
00001000
00000001
00000000
00000100
00000010
00010000
00000000
00001000
00100000
00010000
00000000
,  // measure 57
00100000
00010000
00001000
00000100
00000010
00000000
00000000
00000000
00000010
00000100
00001000
00010000
00100000
00000000
00000000
00000000
,  // measure 58
00100000
00010000
00001000
00000100
00000010
00000000
00000000
00000000
00000010
00000100
00001000
00010000
00100000
00000000
00000000
00000000
,  // measure 59
00101000
00000000
00000000
00100000
00001000
00000000
00010000
00000000
00010010
00000000
00000000
00000010
00010000
00000000
00001000
00000000
,  // measure 60
00101000
00000000
00000000
00100000
00001000
00000000
00010000
00000000
00010010
00000000
00000000
00000010
00010000
00000000
00001000
00000000
,  // measure 61
01000000
00100000
01000000
00100000
01000000
00000000
00010000
00000000
00100000
01000000
00100000
01000000
00100000
00000000
00001000
00000000
,  // measure 62
00010000
00000100
00010000
00000100
00010000
00000000
00000100
00000000
00001000
00000010
00001000
00000010
00001000
00000000
00000010
00000000
,  // measure 63
00000100
00000000
00000100
00000001
00000000
00000001
00001000
00000000
00001000
00000100
00000000
00000100
,  // measure 64
00010000
00000000
00010000
00001000
00000000
00001000
01000000
00000000
01000000
00001000
00000000
00001000
,  // measure 65
00100000
00000010
00100000
00000010
00100000
00000010
00100000
00000010
,  // measure 66
00100000
00000010
00100000
00000010
00100000
00000010
00100000
00000010
,  // measure 67
00022000
00000000
00030000
00003000
,  // measure 68
00100000
01000000
00100000
01000000
00100000
00000000
10000000
00000000
00100000
01000000
00100000
01000000
00100000
00000000
01000000
00000000
,  // measure 69
00010000
00100000
00010000
00100000
00010000
00000000
00100000
00000000
00001000
00010000
00001000
00010000
00001000
00000000
00100000
00000000
,  // measure 70
00010000
00000000
10000000
01000000
00000000
01000000
00100000
00000000
00100000
00001000
00000000
00001000
,  // measure 71
00010000
00000000
00000000
00000000
00010000
00000000
00000100
00000000
00000000
00000000
00001000
00000000
00000010
00000000
00000000
00000000
00000010
00000000
00010000
00000000
00000000
00001000
00000000
00000000
,  // measure 72
00100000
00000010
00100000
00000010
00100000
00000010
00100000
00000010
,  // measure 73
00100000
00000010
00100000
00000010
00100000
00000010
00100000
00000010
,  // measure 74
00021000
00000000
00000000
00000000
00030000
00000000
00000000
00000000
00000000
00000000
00000000
00000000
00010000
00000100
00010100
00000000
,  // measure 75
00010100
00000000
00000110
00000000
00000000
00001001
00000000
00000000
,  // measure 76
00011000
00000000
00000000
10010000
00000000
00000000
00100000
00000000
;
