#VERSION:0.83;
#TITLE:pedigree;
#SUBTITLE:;
#ARTIST:BEMANI Sound Team "S-C-U";
#TITLETRANSLIT:;
#SUBTITLETRANSLIT:;
#ARTISTTRANSLIT:S-C-U;
#GENRE:;
#ORIGIN:;
#CREDIT:;
#BANNER:pedigree.png;
#BACKGROUND:pedigree-bg.png;
#PREVIEWVID:;
#JACKET:pedigree-jacket.png;
#CDIMAGE:;
#DISCIMAGE:;
#LYRICSPATH:;
#CDTITLE:;
#MUSIC:pedigree.ogg;
#OFFSET:-1.206000;
#SAMPLESTART:61.837578;
#SAMPLELENGTH:15.157887;
#SELECTABLE:YES;
#BPMS:0.000=190.000;
#STOPS:;
#DELAYS:;
#WARPS:;
#TIMESIGNATURES:0.000=4=4;
#TICKCOUNTS:0.000=4;
#COMBOS:0.000=1;
#SPEEDS:0.000=1.000=0.000=0;
#SCROLLS:0.000=1.000;
#FAKES:;
#LABELS:0.000=Song Start;
#BGCHANGES:;
#KEYSOUNDS:;
#ATTACKS:
;

//---------------dance-single - ----------------
#NOTEDATA:;
#CHARTNAME:;
#STEPSTYPE:dance-single;
#DESCRIPTION:;
#CHARTSTYLE:;
#DIFFICULTY:Hard;
#METER:80;
#RADARVALUES:0.496756,0.560469,0.046488,0.185951,0.065083,374.000000,369.000000,5.000000,20.000000,0.000000,0.000000,0.000000,0.000000,0.000000,0.496756,0.560469,0.046488,0.185951,0.065083,374.000000,369.000000,5.000000,20.000000,0.000000,0.000000,0.000000,0.000000,0.000000;
#CREDIT:;
#NOTES:
// measure 0
0000
0000
0000
0000
,  // measure 1
0000
0000
0000
0000
,  // measure 2
0000
0000
0000
0000
,  // measure 3
0000
0000
0000
0000
,  // measure 4
0000
0000
0000
0000
,  // measure 5
0000
0000
0000
0000
,  // measure 6
0000
0000
0000
0000
,  // measure 7
0000
0001
0010
0100
,  // measure 8
0010
0000
0000
0001
0000
0000
0000
0000
,  // measure 9
0000
0000
0000
1000
0010
0100
0010
1000
,  // measure 10
0001
0000
0000
1000
0000
0000
0010
0000
,  // measure 11
0000
0000
0100
0000
0000
0010
0000
0000
,  // measure 12
1000
0000
0000
0000
0000
0100
0000
1000
,  // measure 13
0000
0100
1000
0010
,  // measure 14
0200
0000
0000
0002
0000
0000
0000
0000
,  // measure 15
0303
0000
0000
0000
,  // measure 16
1000
0001
1000
0000
0001
0010
0000
0001
,  // measure 17
0000
1000
0010
0000
0100
0010
1000
0100
,  // measure 18
0010
0000
0100
1000
0000
0010
0000
0100
,  // measure 19
0000
0000
0000
1000
0100
0001
0100
0010
,  // measure 20
0001
0000
0000
0001
0010
1000
0010
0001
,  // measure 21
1000
0000
0000
0001
0100
1000
0100
0010
,  // measure 22
1000
0000
0010
1000
0000
0010
0000
0100
,  // measure 23
0000
0010
1000
0000
0001
0000
0010
0000
,  // measure 24
0000
0010
0100
0000
0010
0001
0000
0100
,  // measure 25
0000
0010
1000
0000
0001
0010
0100
0010
,  // measure 26
0001
0000
1000
0010
0000
1000
0000
0100
,  // measure 27
0000
0000
0000
1000
0100
0001
0100
0010
,  // measure 28
0001
0000
0000
0001
0100
1000
0100
0010
,  // measure 29
1000
0000
0000
1000
0010
0001
0010
0100
,  // measure 30
0010
0000
0000
1000
1000
0000
0000
0000
,  // measure 31
0000
0000
0000
0100
0010
0001
1000
0100
,  // measure 32
0020
0000
0031
0000
0100
0001
0000
1000
,  // measure 33
0000
0001
0100
0000
0001
0010
0100
0010
,  // measure 34
0001
0000
1000
0000
0010
1000
0000
0200
,  // measure 35
0000
0000
0300
0100
1000
0100
0001
0100
,  // measure 36
0000
0010
0001
0000
1000
0001
0000
0100
,  // measure 37
0000
0010
1000
0000
0001
1000
0100
1000
,  // measure 38
0002
0000
0020
0000
,  // measure 39
0000
0000
0000
0033
,  // measure 40
2000
0000
3000
0000
0100
1000
0000
0010
,  // measure 41
0000
0100
0001
0000
0100
0010
1000
0001
,  // measure 42
1000
0000
0000
0010
0000
0000
1000
0000
0001
0000
0000
0010
0000
0000
0100
0000
,  // measure 43
0000
1000
0000
0001
0010
1000
0010
0100
,  // measure 44
0010
0000
0001
0010
0100
0010
0000
0001
,  // measure 45
0000
0100
0010
0000
1000
0000
0001
0000
,  // measure 46
1001
0000
0100
1001
0000
0110
0000
0101
,  // measure 47
0000
1000
2020
0000
0000
0000
3030
0000
,  // measure 48
0001
0100
0010
1000
0000
0100
0000
1000
,  // measure 49
0000
0010
1000
0000
0001
0010
0000
0100
,  // measure 50
0020
0000
0000
0230
0000
0000
0000
0310
,  // measure 51
0001
0010
0100
0010
0001
0010
0100
0010
,  // measure 52
0001
1000
0100
1000
0000
0010
0000
0100
,  // measure 53
0000
0001
1000
0000
0001
0100
0000
0010
,  // measure 54
2000
0000
0000
0002
0000
0000
3003
1000
,  // measure 55
0100
0010
0100
1000
0100
0010
0100
1000
,  // measure 56
0001
0100
0001
0010
0000
0100
0000
0010
,  // measure 57
0000
0001
1000
0000
0010
0100
0000
0010
,  // measure 58
1000
0000
0000
1000
0000
0000
1000
0000
0001
0000
0000
0001
0000
0000
0001
0000
,  // measure 59
0020
0000
0000
0130
1000
0100
0001
0100
,  // measure 60
0020
0000
0000
0031
2000
0000
0000
3010
,  // measure 61
0200
0301
0020
0130
,  // measure 62
2000
0000
0002
0000
,  // measure 63
3003
1000
0100
0010
,  // measure 64
0000
0000
0001
0000
0100
0000
0001
0000
0100
0000
0000
0010
0000
0000
1000
0000
,  // measure 65
0000
0100
1000
0100
1000
0010
0100
0001
,  // measure 66
0000
0000
1000
0000
0001
0000
1000
0000
0001
0000
0000
0100
0000
0000
0001
0000
,  // measure 67
0000
0010
0100
0010
0100
0010
0001
1000
,  // measure 68
0000
0000
0010
0000
0100
0000
0010
0000
0100
0000
0000
0001
0000
0000
0100
0000
,  // measure 69
0000
0010
1000
0010
0100
0001
1000
0100
,  // measure 70
0010
0000
0000
0001
0000
0000
0010
0000
0100
0000
0000
1000
0000
0000
0001
0000
,  // measure 71
1000
0100
0010
0001
0010
0100
0010
0001
,  // measure 72
0000
0000
1000
0000
0100
0000
0001
0000
0100
0000
0000
0010
0000
0000
0001
0000
,  // measure 73
0000
0010
0100
1000
0100
0001
0100
1000
,  // measure 74
0000
0000
1000
0000
0010
0000
0001
0000
0010
0000
0000
0100
0000
0000
0001
0000
,  // measure 75
0000
1000
0001
1000
0010
0001
0010
1000
,  // measure 76
0010
0000
0100
0000
1000
0000
0100
0000
0001
0000
0000
0010
0000
0000
0100
0000
,  // measure 77
0000
0010
0001
1000
0010
0001
0010
1000
,  // measure 78
0001
0000
0000
0001
0000
0000
0001
0000
1000
0000
0000
1000
0000
0000
1000
0000
,  // measure 79
0010
0100
0010
0100
0010
0100
0010
0100
,  // measure 80
0001
0000
0000
1000
0000
0000
0000
0000
;

//---------------dance-single - ----------------
#NOTEDATA:;
#CHARTNAME:;
#STEPSTYPE:dance-single;
#DESCRIPTION:;
#CHARTSTYLE:;
#DIFFICULTY:Challenge;
#METER:95;
#RADARVALUES:0.606998,0.803775,0.185951,0.306820,0.385849,457.000000,437.000000,20.000000,33.000000,18.000000,0.000000,4.000000,0.000000,0.000000,0.606998,0.803775,0.185951,0.306820,0.385849,457.000000,437.000000,20.000000,33.000000,18.000000,0.000000,4.000000,0.000000,0.000000;
#CREDIT:;
#OFFSET:-1.206000;
#BPMS:0.000000=95.000000
,30.000000=47.500000
,31.000000=190.000000
,287.000000=95.000000
;
#STOPS:;
#DELAYS:;
#WARPS:;
#TIMESIGNATURES:0.000000=4=4
;
#TICKCOUNTS:0.000000=4
;
#COMBOS:0.000000=1
;
#SPEEDS:0.000000=1.000000=0.000000=0
;
#SCROLLS:0.000000=1.000000
;
#FAKES:;
#LABELS:0.000000=Song Start
;
#NOTES:
0000
0000
0000
0000
,
0000
0000
0000
0000
,
0000
0000
0000
0000
,
0000
0000
0000
0000
0000
1000
0010
1000
,
0001
0000
0000
0000
0000
0000
1100
0000
0000
0000
0000
0000
0000
0000
0000
0000
0000
0000
0000
0000
0000
0000
1000
0010
1000
0000
0001
0000
0010
0000
0001
0000
,
1000
0000
0000
0100
0000
0000
0001
0000
0000
0000
0100
0000
0000
0010
0000
0000
,
0001
0000
0000
0000
0000
1000
0000
0001
0000
0000
0100
0000
0010
0000
1000
0000
,
0001
0000
0000
1000
0000
0000
0000
0000
0000
0000
0002
0000
0013
0000
0100
0000
,
1000
0000
0010
0100
0000
0010
0000
1000
,
0001
0000
1000
0100
0010
0100
1000
0000
,
0001
0100
0000
0001
0000
0010
0000
0000
,
0000
0000
0001
0100
1000
0000
0100
0000
0010
0000
1000
0000
1001
0000
0000
0000
,
0000
0000
1000
0100
0001
0000
0100
0000
0010
0000
0001
0000
1001
0000
0000
0000
,
0000
0000
0001
0100
1000
0000
0100
0000
0010
0000
1000
0000
1001
0000
1000
0000
,
0000
0100
0000
1000
0000
0010
0000
0100
,
0001
0000
0000
0000
1000
0000
0000
0000
0001
0100
0001
0100
0001
0000
0010
0000
,
0001
0000
1000
0010
0000
0100
0000
1000
,
0100
0000
0010
1000
0001
0010
0100
0000
,
0010
0001
0000
1000
0000
0100
0000
0000
,
0000
0000
1000
0010
0001
0000
0010
0000
1000
0000
0001
0000
1001
0000
0000
0000
,
0000
0000
1000
0100
0001
0000
0100
0000
1000
0000
0001
0000
1001
0000
0000
0000
,
0000
0000
0001
0100
1000
0000
0100
0000
0010
0000
1000
0000
1001
0000
0000
0000
,
0000
0010
0010
1000
0001
1000
0000
0100
,
1000
0000
0001
0100
0001
0100
0010
1000
0100
1000
0001
0010
0200
0000
0000
0000
,
0310
0000
0100
2000
0000
3010
0000
0100
,
0002
0000
0013
1000
0010
0100
0020
0000
,
0032
0000
0103
0001
0000
2000
0000
0000
,
3000
0000
0001
0010
0001
0000
0010
0000
0001
0000
2000
0000
0000
0000
0010
0000
,
3010
0000
0100
0002
0000
0013
0000
0010
,
0100
0000
0010
0001
1000
0001
0200
0000
,
0000
0000
0000
0000
0320
0000
0000
0000
4030
0004
0000
0000
0000
0000
0000
0000
,
0000
0000
3003
2020
,
3030
0000
0100
1000
0000
0001
0000
0100
,
0002
0000
0000
0000
0013
0000
0100
0000
0010
0000
0001
0000
1000
0000
0000
0010
,
0000
0000
1000
0000
0100
0000
0000
0100
0000
0000
1000
0000
0000
0000
0002
0000
,
0000
0000
1003
0010
1000
0000
0100
0000
1000
0000
0001
0000
0010
0000
0000
0000
,
0100
0010
1000
0002
0000
2003
0000
0100
,
3200
0320
0130
1001
,
0M10
1MM1
0000
M1M1
0000
1M1M
0000
100M
,
4004
0000
0000
0000
0000
3003
0001
0100
,
1000
0100
0000
0010
0000
1000
0000
0001
,
0010
0000
0010
0001
0000
1000
0102
0000
,
0000
0000
0020
0000
0000
0000
0000
0000
0033
0000
0001
0010
0100
0000
0010
0100
,
1000
0000
0100
1000
0010
0000
0100
0010
1000
0000
0001
0000
1000
0000
0100
0000
,
1000
0010
0000
0001
0000
0010
0000
0100
,
0001
0000
1000
0100
0000
0010
1002
0000
,
0000
0000
0200
0000
0000
0000
0000
0000
0303
0000
0001
0100
0010
0000
0100
0010
,
1000
0100
0010
0001
0010
0100
1000
0001
,
0100
0001
0000
0010
0000
1000
0000
0010
,
0001
0000
0000
0000
1000
0000
0010
0000
0000
0000
0100
0000
0101
0000
0000
0001
,
0000
0000
1000
0000
1100
0000
0000
1000
0000
0000
0010
0000
2001
0000
0000
0000
,
0000
0000
3001
1000
0001
0000
0010
0000
0001
0000
1000
0000
0200
0000
0000
0000
,
0000
0000
1300
0100
0020
0000
0000
0000
0000
0000
0130
1000
0020
0000
0000
0000
,
0230
0302
2003
3020
,
0000
0000
0130
0020
0200
0000
0000
0000
0000
0000
0000
0000
0330
0000
0000
0000
,
0100
0000
0010
0000
1000
0000
0000
0001
,
0010
0000
0001
0000
1000
0000
0000
0001
0000
0000
0100
0000
0000
0000
0010
0000
,
0100
0001
1000
0100
0010
0100
0010
0001
,
1000
0000
0010
0000
0100
0000
0000
0001
0000
0000
1000
0000
0000
0000
0001
0000
,
0100
0010
1000
0100
0010
0001
1000
0001
,
0100
0000
0010
0000
1000
0000
0000
0100
0000
0000
0010
0000
0000
0000
0100
0000
,
0010
0000
0001
0000
1000
0000
0010
0000
0100
0000
0001
0000
1000
0000
0000
0001
,
0000
0000
1000
0000
0001
0000
0000
1000
0000
0000
0001
0000
1000
0010
1000
0010
,
1000
0001
0100
0001
0100
0001
0010
0100
1000
0010
0100
0001
0000
0000
1000
0010
,
1000
0000
0001
0000
0010
0000
0000
0100
0000
0000
0010
0000
0000
0000
0001
1000
,
0001
0000
1000
0000
0001
0100
0001
0100
0010
1000
0001
0010
0000
0000
0100
0010
,
0100
0000
0010
0000
0001
0000
0000
1000
0000
0000
0100
0000
0000
0000
1000
0100
,
1000
0000
0001
0000
0100
0010
0100
0010
0100
0001
1000
0001
0000
0000
0010
0001
,
0010
0000
0001
0000
1000
0000
0000
0001
0000
0000
0010
0000
0000
0000
0100
0010
,
0100
0000
0010
0000
0001
0100
0010
1000
0001
0010
0100
1000
0001
0000
0000
0101
,
0000
0000
0001
0000
1000
0000
0000
1100
0000
0000
1000
0000
0010
0000
0100
0000
,
0010
0000
0000
0000
0000
0000
0100
0000
0000
0000
0000
0000
0010
0000
0000
0100
0000
0000
0010
0000
0000
0100
0000
0000
0010
0000
0000
0100
0000
0000
0010
0000
0000
0100
0000
0000
0001
0000
0000
0000
MMMM
0000
0000
0000
0000
MM1M
0000
0000
,
0000
MM0M
0000
0000
0000
0000
0000
0000
0000
0000
0000
0000
0000
0000
0000
0000
0000
0000
0000
0000
0000
0000
0000
0000
;

//---------------dance-single - ----------------
#NOTEDATA:;
#CHARTNAME:;
#STEPSTYPE:dance-single;
#DESCRIPTION:;
#CHARTSTYLE:;
#DIFFICULTY:Medium;
#METER:65;
#RADARVALUES:0.350651,0.523104,0.130166,0.139464,0.009298,264.000000,250.000000,14.000000,15.000000,0.000000,0.000000,0.000000,0.000000,0.000000,0.350651,0.523104,0.130166,0.139464,0.009298,264.000000,250.000000,14.000000,15.000000,0.000000,0.000000,0.000000,0.000000,0.000000;
#CREDIT:;
#NOTES:
// measure 0
0000
0000
0000
0000
,  // measure 1
0000
0000
0000
0000
,  // measure 2
0000
0000
0000
0000
,  // measure 3
0000
0000
0000
0000
,  // measure 4
0000
0000
0000
0000
,  // measure 5
0000
0000
0000
0000
,  // measure 6
0000
0000
0000
0000
,  // measure 7
0000
1000
0010
0100
,  // measure 8
0001
0000
0000
0010
0000
0000
0000
0000
,  // measure 9
0000
0000
0100
0010
,  // measure 10
0001
0000
0000
1000
0000
0000
0010
0000
,  // measure 11
0000
0000
1000
0000
0000
0001
0000
0000
,  // measure 12
0100
0000
0000
0000
0000
0010
0000
0100
,  // measure 13
0000
0010
1000
0100
,  // measure 14
0010
0000
0000
0100
0000
0000
0000
0000
,  // measure 15
0000
0000
0020
0000
,  // measure 16
0031
0000
1000
0000
0000
0001
0100
0000
,  // measure 17
0001
0000
0010
0000
0000
0100
1000
0000
,  // measure 18
0010
0000
0100
0010
0000
1000
0000
0001
,  // measure 19
0000
0000
1000
0100
,  // measure 20
0011
0000
0001
0010
,  // measure 21
1100
0000
1000
0100
,  // measure 22
0011
0000
0000
0000
,  // measure 23
0000
0000
0000
0000
,  // measure 24
0001
0000
0100
0000
0000
0010
1000
0000
,  // measure 25
0010
0000
0100
0000
0000
0001
1000
0000
,  // measure 26
0100
0000
1000
0010
0000
0100
0000
0001
,  // measure 27
0000
0000
1000
0100
,  // measure 28
0011
0000
0001
0010
,  // measure 29
1100
0000
1000
0100
,  // measure 30
0011
0000
0000
0001
0001
0000
0000
0000
,  // measure 31
0000
0000
1000
0100
,  // measure 32
0020
0000
0030
0000
0100
0010
0000
0001
,  // measure 33
0000
0100
0010
0000
1000
0000
0001
0000
,  // measure 34
0100
0000
0010
0000
1000
0010
0000
0200
,  // measure 35
0000
0300
0010
1000
,  // measure 36
0001
0000
0010
0000
0100
0010
0000
0001
,  // measure 37
0000
0010
0001
0000
0001
0100
0010
1000
,  // measure 38
0002
0000
2000
0000
,  // measure 39
0000
0000
0000
3003
,  // measure 40
0200
0000
0300
0000
0010
0100
0000
0001
,  // measure 41
0000
1000
0010
0000
1000
0000
0010
0000
,  // measure 42
0100
0001
0010
0100
,  // measure 43
0010
0001
1000
0010
,  // measure 44
0100
0000
0010
1000
0010
0100
0000
0010
,  // measure 45
0000
1000
0001
0000
0010
0000
0100
0000
,  // measure 46
1100
0000
0100
0010
0000
0011
0000
1100
,  // measure 47
0000
0001
1001
0000
0000
0000
0000
0000
,  // measure 48
0001
0100
0010
1000
,  // measure 49
0001
0010
0100
0010
,  // measure 50
0002
0000
0000
2003
0000
0000
0000
0000
,  // measure 51
3001
0010
0100
1000
,  // measure 52
0001
1000
0010
1000
,  // measure 53
0100
0010
0100
1000
,  // measure 54
0020
0000
0000
0230
0000
0000
0300
0000
,  // measure 55
0010
0100
0001
1000
,  // measure 56
0001
0010
0001
1000
,  // measure 57
0100
1000
0010
0100
,  // measure 58
0001
0000
0000
0100
0000
0000
0010
0000
1000
0000
0000
0010
0000
0000
0100
0000
,  // measure 59
0002
0000
0003
1000
0001
0000
1000
0000
,  // measure 60
0020
0000
0230
0000
,  // measure 61
0310
1000
0010
0100
,  // measure 62
0002
0000
2000
0000
,  // measure 63
3003
0001
0010
0100
,  // measure 64
1100
0000
0000
0100
0000
0000
0000
0000
,  // measure 65
0000
0000
0000
0000
,  // measure 66
1001
0000
0000
0001
0000
0000
0010
0000
,  // measure 67
0000
0000
0100
0000
0000
0010
0000
0000
,  // measure 68
1001
0000
0000
0001
0000
0000
1000
0000
,  // measure 69
1001
0000
0000
0010
0000
0000
1000
0000
,  // measure 70
0010
0000
0100
0000
,  // measure 71
0010
0100
0001
1000
,  // measure 72
0001
0010
0001
0100
,  // measure 73
0010
0000
1000
0000
0100
0010
0001
0100
,  // measure 74
0010
1000
0010
0100
,  // measure 75
0001
0000
1000
0000
0100
1000
0010
0100
,  // measure 76
0001
1000
0010
1000
,  // measure 77
0100
0000
0010
0000
0100
0010
0001
0100
,  // measure 78
0010
1000
0010
0100
,  // measure 79
0001
1000
0001
1000
0001
1000
0001
1000
,  // measure 80
0001
0000
0000
0010
0000
0000
0000
0000
;

//---------------dance-single - ----------------
#NOTEDATA:;
#CHARTNAME:;
#STEPSTYPE:dance-single;
#DESCRIPTION:;
#CHARTSTYLE:;
#DIFFICULTY:Easy;
#METER:50;
#RADARVALUES:0.284240,0.595044,0.139464,0.130166,0.000000,214.000000,199.000000,15.000000,14.000000,0.000000,0.000000,0.000000,0.000000,0.000000,0.284240,0.595044,0.139464,0.130166,0.000000,214.000000,199.000000,15.000000,14.000000,0.000000,0.000000,0.000000,0.000000,0.000000;
#CREDIT:;
#NOTES:
// measure 0
0000
0000
0000
0000
,  // measure 1
0000
0000
0000
0000
,  // measure 2
0000
0000
0000
0000
,  // measure 3
0000
0000
0000
0000
,  // measure 4
0000
0000
0000
0000
,  // measure 5
0000
0000
0000
0000
,  // measure 6
0000
0000
0000
0000
,  // measure 7
0000
0000
0000
0000
,  // measure 8
1000
0000
0010
0000
,  // measure 9
1000
0000
0010
0000
,  // measure 10
0100
0000
0001
0000
,  // measure 11
0100
0000
0001
0000
,  // measure 12
1000
0000
0001
0000
,  // measure 13
0010
0000
0001
0000
,  // measure 14
0100
0000
0010
0000
,  // measure 15
0000
0000
2000
0000
,  // measure 16
3001
1000
0000
0001
,  // measure 17
0100
0001
0000
0100
,  // measure 18
0010
0100
0000
0010
,  // measure 19
1000
0000
0001
0010
,  // measure 20
0100
0000
0100
0010
,  // measure 21
0001
0000
0001
0010
,  // measure 22
0100
0000
0000
0000
,  // measure 23
0000
0000
0000
0000
,  // measure 24
1000
0001
0000
0100
,  // measure 25
0001
1000
0000
0100
,  // measure 26
0010
0001
0000
0010
,  // measure 27
0001
0000
1000
0010
,  // measure 28
0100
0000
0100
0010
,  // measure 29
1000
0000
1000
0010
,  // measure 30
0100
0000
0001
0000
,  // measure 31
0000
0000
1000
0100
,  // measure 32
0020
0030
0100
0010
,  // measure 33
0001
0100
0010
1000
,  // measure 34
0001
0010
0001
1000
,  // measure 35
0002
0003
1000
0001
,  // measure 36
0100
0001
0010
0100
,  // measure 37
0010
0001
0100
0010
,  // measure 38
2000
0000
0002
0000
,  // measure 39
0000
0000
0000
3003
,  // measure 40
0200
0300
0010
1000
,  // measure 41
0010
0100
0001
0010
,  // measure 42
0001
0001
1000
1000
,  // measure 43
0001
0100
0010
1000
,  // measure 44
0010
0100
0001
0010
,  // measure 45
0100
0010
0001
0100
,  // measure 46
0001
0000
1000
0001
0000
1000
0000
0001
,  // measure 47
0000
1000
0001
0000
0000
0000
0000
0000
,  // measure 48
0100
0010
1000
0010
,  // measure 49
0100
0001
0010
0100
,  // measure 50
2000
0000
0000
0002
0000
0000
0000
0000
,  // measure 51
0000
3003
0000
0000
,  // measure 52
1000
0010
1000
0100
,  // measure 53
0010
0100
1000
0001
,  // measure 54
0200
0000
0000
0020
0000
0000
0000
0000
,  // measure 55
0330
0000
0000
0000
,  // measure 56
0010
0100
0001
1000
,  // measure 57
0100
1000
0001
0010
,  // measure 58
1001
0000
0110
0000
,  // measure 59
1001
0000
1000
0001
,  // measure 60
0200
0000
0302
0000
,  // measure 61
0013
0100
1000
0001
,  // measure 62
0200
0000
0020
0000
,  // measure 63
0330
0100
0010
1000
,  // measure 64
1001
0000
0000
0000
,  // measure 65
0010
0000
0100
0000
,  // measure 66
1001
0000
0000
0000
,  // measure 67
0100
0000
0010
0000
,  // measure 68
1001
0000
0010
0000
,  // measure 69
0100
0000
0010
0000
,  // measure 70
1001
0000
0110
0000
,  // measure 71
0001
0100
0010
1000
,  // measure 72
0000
0001
1000
0010
,  // measure 73
0000
1000
0100
0010
,  // measure 74
0001
1000
0100
0000
,  // measure 75
1000
0010
0100
0010
,  // measure 76
1000
0001
0010
0000
,  // measure 77
0100
0010
0001
1000
,  // measure 78
1001
0010
1001
0100
,  // measure 79
1001
1001
1001
1001
,  // measure 80
0110
0000
0000
0000
;

//---------------dance-single - ----------------
#NOTEDATA:;
#CHARTNAME:;
#STEPSTYPE:dance-single;
#DESCRIPTION:;
#CHARTSTYLE:;
#DIFFICULTY:Beginner;
#METER:25;
#RADARVALUES:0.130166,0.334712,0.055785,0.000000,0.000000,98.000000,92.000000,6.000000,0.000000,0.000000,0.000000,0.000000,0.000000,0.000000,0.130166,0.334712,0.055785,0.000000,0.000000,98.000000,92.000000,6.000000,0.000000,0.000000,0.000000,0.000000,0.000000,0.000000;
#CREDIT:;
#NOTES:
// measure 0
0000
0000
0000
0000
,  // measure 1
0000
0000
0000
0000
,  // measure 2
0000
0000
0000
0000
,  // measure 3
0000
0000
0000
0000
,  // measure 4
0000
0000
0000
0000
,  // measure 5
0000
0000
0000
0000
,  // measure 6
0000
0000
0000
0000
,  // measure 7
0000
0000
0000
0000
,  // measure 8
0010
0000
0000
0000
,  // measure 9
0000
0000
1000
0000
,  // measure 10
0001
0000
0000
0000
,  // measure 11
0000
0000
0100
0000
,  // measure 12
0010
0000
0000
0000
,  // measure 13
1000
0000
0000
0000
,  // measure 14
0001
0000
0000
0000
,  // measure 15
0000
0000
0000
0000
,  // measure 16
1000
0000
0000
0000
,  // measure 17
0010
0000
0000
0000
,  // measure 18
1000
0000
0000
0000
,  // measure 19
0000
0000
0001
0001
,  // measure 20
0001
0000
0001
0001
,  // measure 21
0001
0000
0001
0001
,  // measure 22
0001
0000
0000
0000
,  // measure 23
0000
0000
0000
0000
,  // measure 24
0100
0000
0000
0000
,  // measure 25
0010
0000
0000
0000
,  // measure 26
1000
0000
0000
0000
,  // measure 27
0100
0000
1000
1000
,  // measure 28
1000
0000
1000
1000
,  // measure 29
1000
0000
0010
0010
,  // measure 30
0010
0000
0100
0000
,  // measure 31
0000
0000
0010
0000
,  // measure 32
1001
0000
0000
0000
,  // measure 33
0000
0000
0001
0000
,  // measure 34
1000
0000
0000
0000
,  // measure 35
0010
0000
1000
0000
,  // measure 36
0100
0000
0000
0000
,  // measure 37
1000
0000
0001
0000
,  // measure 38
0100
0000
0010
0000
,  // measure 39
0000
0000
0000
0000
,  // measure 40
0100
0000
0000
0000
,  // measure 41
0010
0000
1000
0000
,  // measure 42
0001
0000
0000
0000
,  // measure 43
0010
0000
0001
0000
,  // measure 44
1000
0000
0000
0000
,  // measure 45
1000
0000
0000
0000
,  // measure 46
1001
0000
0000
0000
,  // measure 47
0000
0000
0000
0000
,  // measure 48
0010
0000
0000
0000
,  // measure 49
0100
0000
0000
0000
,  // measure 50
0001
0000
0001
0000
,  // measure 51
0001
0000
0000
0000
,  // measure 52
1000
0000
0000
0000
,  // measure 53
0010
0000
0000
0000
,  // measure 54
1000
0000
1000
0000
,  // measure 55
1000
0000
0000
0000
,  // measure 56
0100
0000
0000
0000
,  // measure 57
1000
0000
0000
0000
,  // measure 58
0110
0000
1001
0000
,  // measure 59
0110
0000
0100
0000
,  // measure 60
1001
0000
0010
0000
,  // measure 61
0100
0000
0001
0000
,  // measure 62
1000
0000
0001
0000
,  // measure 63
0000
0000
0000
0000
,  // measure 64
0100
0000
0000
0000
,  // measure 65
0000
0000
0000
0000
,  // measure 66
0010
0000
0000
0000
,  // measure 67
0000
0000
0000
0000
,  // measure 68
1000
0000
0000
0000
,  // measure 69
0000
0000
0000
0000
,  // measure 70
0001
0000
1000
0000
,  // measure 71
0010
0000
0000
0000
,  // measure 72
0100
0000
0000
0000
,  // measure 73
0000
0000
0000
0000
,  // measure 74
0010
0000
0000
0000
,  // measure 75
0000
0000
0000
0000
,  // measure 76
1000
0000
0000
0000
,  // measure 77
0001
0000
0000
0000
,  // measure 78
0100
0000
0010
0000
,  // measure 79
1000
1000
1000
1000
,  // measure 80
0001
0000
0000
0000
;
