#VERSION:0.83;
#TITLE:cold;
#SUBTITLE:;
#ARTIST:Noizenecio;
#TITLETRANSLIT:;
#SUBTITLETRANSLIT:;
#ARTISTTRANSLIT:;
#GENRE:;
#ORIGIN:;
#CREDIT:;
#BANNER:cold.png;
#BACKGROUND:cold-bg.png;
#PREVIEWVID:;
#JACKET:cold-jacket.png;
#CDIMAGE:;
#DISCIMAGE:;
#LYRICSPATH:;
#CDTITLE:;
#MUSIC:cold.ogg;
#OFFSET:-0.958000;
#SAMPLESTART:60.360172;
#SAMPLELENGTH:11.367218;
#SELECTABLE:YES;
#BPMS:0.000=190.000;
#STOPS:;
#DELAYS:;
#WARPS:;
#TIMESIGNATURES:0.000=4=4;
#TICKCOUNTS:0.000=4;
#COMBOS:0.000=1;
#SPEEDS:0.000=1.000=0.000=0;
#SCROLLS:0.000=1.000;
#FAKES:;
#LABELS:0.000=Song Start;
#BGCHANGES:;
#KEYSOUNDS:;
#ATTACKS:
;

//---------------dance-single - ----------------
#NOTEDATA:;
#CHARTNAME:;
#STEPSTYPE:dance-single;
#DESCRIPTION:;
#CHARTSTYLE:;
#DIFFICULTY:Hard;
#METER:95;
#RADARVALUES:0.570576,0.962418,0.360907,0.104262,0.048121,498.000000,453.000000,45.000000,13.000000,0.000000,0.000000,0.000000,0.000000,0.000000,0.570576,0.962418,0.360907,0.104262,0.048121,498.000000,453.000000,45.000000,13.000000,0.000000,0.000000,0.000000,0.000000,0.000000;
#CREDIT:;
#NOTES:
// measure 0
0000
0000
0000
0000
,  // measure 1
0000
0000
0000
0000
,  // measure 2
0000
0000
0000
0000
,  // measure 3
0000
0000
0000
0000
,  // measure 4
1000
1000
0001
1000
,  // measure 5
0001
0001
1000
0001
,  // measure 6
0100
0010
1000
0001
0100
0010
1000
0001
,  // measure 7
0100
0000
0100
0000
0100
1000
0001
0000
,  // measure 8
1001
0001
0010
0000
0100
0000
0010
0001
,  // measure 9
0100
0010
0100
0001
1000
0000
0001
1000
,  // measure 10
0001
0010
0001
0000
0010
0000
0001
0000
,  // measure 11
1000
1000
0100
0010
0100
0000
1100
0000
,  // measure 12
0100
1000
0010
0000
0100
0000
0001
0000
,  // measure 13
1000
0000
0010
0000
1000
0000
0100
0010
,  // measure 14
0001
0100
0000
0100
0010
0000
0010
1000
,  // measure 15
0000
0100
0010
0000
0110
0000
0110
0000
,  // measure 16
1001
1000
0010
0000
0100
0000
0001
0000
,  // measure 17
1000
0010
0100
0010
1000
0100
0010
0100
,  // measure 18
1000
0001
1000
0000
0001
0000
0010
0000
,  // measure 19
0100
0010
0001
0100
0010
0000
1010
0000
,  // measure 20
1000
0001
1000
0000
0001
0000
0010
0000
,  // measure 21
0100
0010
0001
0100
,  // measure 22
0020
0000
0000
0000
,  // measure 23
0000
0000
0000
0030
,  // measure 24
1000
0000
0000
0000
,  // measure 25
0001
0000
1000
0000
,  // measure 26
0100
0000
0000
0000
0000
0000
0000
0010
,  // measure 27
0100
1000
0010
0000
0100
0000
0001
0000
,  // measure 28
0100
0000
0000
0000
,  // measure 29
0001
0000
0010
0000
,  // measure 30
0001
0000
0000
0000
,  // measure 31
1000
0000
0200
0000
,  // measure 32
1300
0010
0100
0001
,  // measure 33
2000
0000
0000
0010
0000
3010
1000
0000
,  // measure 34
0010
0100
0001
0010
,  // measure 35
0200
0000
0000
0010
0000
0310
0100
0000
,  // measure 36
0010
0001
0010
0000
0100
0000
1000
0000
,  // measure 37
0001
0000
0100
0010
0100
0000
0010
0000
,  // measure 38
1000
0000
0001
0100
0001
0000
0100
0000
,  // measure 39
0020
0000
0000
1000
0000
1030
0001
0000
,  // measure 40
1001
0010
0000
0000
1000
0000
0000
0100
,  // measure 41
0000
0100
0000
1000
0000
0010
0100
0001
,  // measure 42
0000
1000
0000
0000
0001
0000
0000
0010
,  // measure 43
0000
0010
0000
0001
0000
0010
0100
1000
,  // measure 44
0001
1000
0001
1000
0001
1000
0001
1000
,  // measure 45
0001
1000
0001
1000
0001
1000
0001
1000
,  // measure 46
0001
1000
0001
1000
0001
1000
0001
1000
0001
1000
0001
1000
0001
1000
0001
1000
,  // measure 47
0001
0001
0001
0001
0001
1000
0100
0000
,  // measure 48
1100
1000
0000
0000
0110
0000
0000
1010
,  // measure 49
0000
1001
0000
0011
0000
0010
0001
0100
,  // measure 50
0010
1000
0000
0000
0011
0000
0000
0110
,  // measure 51
0000
0011
0000
1100
0000
1000
0001
0100
,  // measure 52
0001
0010
0000
0000
1001
0000
0000
1100
,  // measure 53
0000
0110
0000
0011
0000
0010
0001
0100
,  // measure 54
0001
1000
0000
0000
0110
0000
0000
1000
,  // measure 55
0000
0001
0000
0010
0001
0100
0010
1000
,  // measure 56
0100
1000
0010
0000
0100
0000
0010
1010
,  // measure 57
0000
0011
0000
0101
0000
0001
0100
0001
,  // measure 58
1000
0001
0000
0001
0010
0000
0000
0110
,  // measure 59
0000
0000
1100
0000
0000
0000
1010
0000
0010
0000
0100
0000
0001
0000
1000
0100
,  // measure 60
1000
0100
0010
0100
1000
0000
0000
0101
,  // measure 61
0000
0110
0000
1010
0000
1000
0001
0010
,  // measure 62
0100
0000
0010
0001
0000
1001
0000
0010
,  // measure 63
0100
0000
0100
0000
0100
1000
0100
0001
,  // measure 64
0010
0000
0100
0000
1000
0000
0001
0000
1000
0000
0000
0001
0000
0000
0010
0000
,  // measure 65
0000
0001
0000
0100
0001
0010
0001
1000
,  // measure 66
0100
0010
0000
0100
1000
0010
0100
0001
,  // measure 67
0000
0000
1000
0000
0000
0000
0001
0100
0001
0000
0010
0000
0100
0000
1000
0000
,  // measure 68
0001
0000
0010
0000
0100
0000
0010
0000
0001
0000
0000
1000
0000
0000
0010
0000
,  // measure 69
0000
0100
0000
0001
0100
0001
1000
0100
,  // measure 70
0010
0100
1000
0010
0100
0001
1000
0020
,  // measure 71
0000
1000
1030
0000
0110
0000
0101
0000
,  // measure 72
0011
0001
1000
0010
0200
0000
0000
0310
,  // measure 73
0000
1010
0000
1000
0002
0000
1000
1003
,  // measure 74
0001
0010
0001
1000
0020
0000
0000
0130
,  // measure 75
0000
0101
0000
0001
1000
0100
0000
1000
,  // measure 76
0001
0010
0000
0001
0200
0000
0000
0310
,  // measure 77
0000
1010
0000
1000
0001
0010
0001
1000
,  // measure 78
0010
0001
0010
1000
,  // measure 79
0100
0100
0100
0100
0100
1000
0002
0000
,  // measure 80
0103
0000
0001
0010
0000
0100
0000
0000
,  // measure 81
0010
0000
0001
0100
0000
0010
0000
0100
,  // measure 82
0001
0000
1000
0100
0000
0010
0000
0000
,  // measure 83
0100
0000
1000
0010
0000
0100
0000
0001
,  // measure 84
1000
0000
0001
0100
0000
0010
0000
0000
,  // measure 85
1000
0000
0100
0010
0000
0100
0000
1000
,  // measure 86
1010
0000
0000
1100
0000
0000
1001
0000
,  // measure 87
0000
0000
0000
0000
,  // measure 88
1000
0001
1000
0000
0001
0000
0100
0000
,  // measure 89
0010
1000
0100
0010
,  // measure 90
0100
0000
1000
0000
0100
0000
0010
0001
,  // measure 91
0010
0000
0001
2000
0000
3001
2000
0000
,  // measure 92
3001
0000
1000
0000
0100
0000
0010
0100
,  // measure 93
0010
0100
1000
0110
,  // measure 94
1001
0000
0000
0011
0000
0000
1100
0000
,  // measure 95
0001
0001
0001
0001
0001
1000
0010
0000
,  // measure 96
1001
0000
0000
0000
;

//---------------dance-single - ----------------
#NOTEDATA:;
#CHARTNAME:;
#STEPSTYPE:dance-single;
#DESCRIPTION:;
#CHARTSTYLE:;
#DIFFICULTY:Medium;
#METER:80;
#RADARVALUES:0.459440,0.654444,0.144363,0.072181,0.004010,401.000000,383.000000,18.000000,9.000000,0.000000,0.000000,0.000000,0.000000,0.000000,0.459440,0.654444,0.144363,0.072181,0.004010,401.000000,383.000000,18.000000,9.000000,0.000000,0.000000,0.000000,0.000000,0.000000;
#CREDIT:;
#NOTES:
// measure 0
0000
0000
0000
0000
,  // measure 1
0000
0000
0000
0000
,  // measure 2
0000
0000
0000
0000
,  // measure 3
0000
0000
0000
0000
,  // measure 4
1000
0010
0100
0001
,  // measure 5
0010
0100
1000
0001
,  // measure 6
0100
0010
0100
0010
1000
0001
1000
0001
,  // measure 7
0010
0000
0010
0000
0010
0001
0100
0000
,  // measure 8
1010
1000
0001
0010
,  // measure 9
0100
0000
0010
0000
0001
0000
1000
0001
,  // measure 10
0100
0001
0010
0100
,  // measure 11
0010
0001
0010
0001
0010
0000
0001
0000
,  // measure 12
1000
0001
0100
0001
,  // measure 13
0010
0000
0100
0000
0010
0000
0001
1000
,  // measure 14
1100
0000
0000
0011
0000
0000
0001
0200
,  // measure 15
0000
0010
0310
0000
0110
0000
0110
0000
,  // measure 16
1000
0001
0010
0001
,  // measure 17
1000
0000
0010
0000
0100
0000
0010
1000
,  // measure 18
0100
1000
0010
0100
,  // measure 19
0001
1000
0001
1000
0001
0000
1000
0000
,  // measure 20
0010
0100
0001
1000
,  // measure 21
0100
1000
0010
0100
,  // measure 22
0002
0000
0000
0000
,  // measure 23
0000
0000
0000
0000
,  // measure 24
0013
0000
0000
0000
,  // measure 25
0001
0000
1000
0000
,  // measure 26
0001
0000
0000
0000
,  // measure 27
0100
0010
1000
0001
,  // measure 28
0010
0000
0000
0000
,  // measure 29
0010
0000
0001
0000
,  // measure 30
1000
0000
0000
0000
,  // measure 31
0001
0000
0000
0000
,  // measure 32
0100
0010
1000
0010
,  // measure 33
0100
0100
0100
0001
,  // measure 34
1000
1000
1000
1000
,  // measure 35
0001
1000
0010
0100
,  // measure 36
0001
0001
0001
0100
,  // measure 37
0010
0010
0010
0100
,  // measure 38
0001
1000
0010
0100
,  // measure 39
0001
0001
0001
0000
,  // measure 40
1001
0010
0000
0000
1000
0000
0000
0010
,  // measure 41
0000
0100
0000
0001
0000
1000
0000
0100
,  // measure 42
0000
1000
0000
0000
0010
0000
0000
0100
,  // measure 43
0000
0010
0000
1000
0000
0010
0000
0100
,  // measure 44
0001
0001
1000
1000
,  // measure 45
0010
0010
0100
0100
,  // measure 46
0001
0100
0010
1000
0001
0100
0010
1000
,  // measure 47
0001
1000
0001
1000
0001
1000
0010
0000
,  // measure 48
1001
0001
0000
0000
0011
0000
0000
0001
,  // measure 49
0000
0001
0000
1000
0000
0010
1000
0100
,  // measure 50
0000
0100
0000
0000
1001
0000
0000
0010
,  // measure 51
0000
0100
0000
0001
0000
0100
0010
1000
,  // measure 52
0000
0001
0000
0000
1100
0000
0000
0100
,  // measure 53
0000
1000
0000
0010
0000
0100
0010
1000
,  // measure 54
0000
0001
0000
0000
1010
0000
0000
0100
,  // measure 55
0000
0001
0000
0010
0100
0010
0001
1000
,  // measure 56
0001
0100
0000
0000
0011
0000
0000
0001
,  // measure 57
0000
1000
0000
0010
0000
0100
0010
1000
,  // measure 58
0000
0001
0000
0000
1100
0000
0000
0100
,  // measure 59
0000
1000
0000
0010
0100
0010
1000
0001
,  // measure 60
0010
0100
0000
0000
0011
0000
0000
0001
,  // measure 61
0000
0100
0000
0010
0000
1000
0010
0100
,  // measure 62
0001
0000
0000
0100
0000
0100
0000
0100
,  // measure 63
0020
0000
0100
0000
0130
0010
0100
0010
,  // measure 64
1000
0100
0010
0001
1000
0000
0000
0001
,  // measure 65
0000
1000
0000
0010
0000
1000
0001
0010
,  // measure 66
0000
0100
0000
0000
0010
0001
0100
0010
,  // measure 67
0000
0100
0000
0010
1000
0001
0100
0001
,  // measure 68
0000
0000
1000
0000
0000
0000
0000
0000
0010
0000
0000
0001
0000
0000
0100
0000
,  // measure 69
0000
0010
0000
0100
0010
1000
0001
0010
,  // measure 70
0000
0100
0000
0000
1100
0000
1000
0020
,  // measure 71
0000
0100
0130
0000
0110
0000
1001
0000
,  // measure 72
0001
1000
0010
1000
0200
0000
0000
0310
,  // measure 73
0000
0001
0000
0200
0000
0000
0310
0100
,  // measure 74
0010
1000
0010
0100
0002
0000
0000
0013
,  // measure 75
0000
0001
0000
1000
0001
0100
0001
1000
,  // measure 76
0100
0010
0000
0000
0200
0000
0000
1300
,  // measure 77
0000
1000
0000
1000
0001
0100
0001
0010
,  // measure 78
0100
0010
0001
1000
,  // measure 79
0010
0100
0010
0100
0010
1000
0002
0000
,  // measure 80
1003
0000
0000
0010
0000
1000
0000
0000
,  // measure 81
0010
0000
0000
0100
0000
0001
0000
0010
,  // measure 82
0001
0000
0000
1000
0000
0001
0000
0000
,  // measure 83
0100
0000
0000
0010
0000
1000
0000
0010
,  // measure 84
0100
0000
0000
0001
0000
1000
0000
0000
,  // measure 85
0100
0000
0000
0010
0000
0100
0000
1000
,  // measure 86
0010
0000
0000
0100
0000
0000
0001
0000
,  // measure 87
0000
0000
0000
0000
,  // measure 88
1000
0001
1000
0000
0001
0000
0100
0000
,  // measure 89
0001
0010
0100
0010
,  // measure 90
0001
0000
1000
0000
0010
0000
0100
0010
,  // measure 91
0100
0001
0010
0100
,  // measure 92
1000
0000
0001
0000
1000
0000
1000
0100
,  // measure 93
0010
0100
1000
0100
,  // measure 94
0010
0000
0000
0001
0000
0000
0100
0000
,  // measure 95
0010
1000
0010
1000
0010
1000
0100
0000
,  // measure 96
1001
0000
0000
0000
;

//---------------dance-single - ----------------
#NOTEDATA:;
#CHARTNAME:;
#STEPSTYPE:dance-single;
#DESCRIPTION:;
#CHARTSTYLE:;
#DIFFICULTY:Easy;
#METER:65;
#RADARVALUES:0.380384,0.500457,0.056141,0.016040,0.000000,332.000000,325.000000,7.000000,2.000000,0.000000,0.000000,0.000000,0.000000,0.000000,0.380384,0.500457,0.056141,0.016040,0.000000,332.000000,325.000000,7.000000,2.000000,0.000000,0.000000,0.000000,0.000000,0.000000;
#CREDIT:;
#NOTES:
// measure 0
0000
0000
0000
0000
,  // measure 1
0000
0000
0000
0000
,  // measure 2
0000
0000
0000
0000
,  // measure 3
0000
0000
0000
0000
,  // measure 4
1000
0010
1000
0010
,  // measure 5
0100
0001
0100
0001
,  // measure 6
0010
0100
1000
0001
,  // measure 7
0100
0000
0100
0000
0100
0010
0100
0000
,  // measure 8
0010
1000
0010
1000
,  // measure 9
0100
0000
1000
0000
0001
0000
0010
0001
,  // measure 10
0010
0000
0001
0000
1000
0000
0010
0100
,  // measure 11
0001
1000
0001
1000
0001
0000
0100
0000
,  // measure 12
0010
1000
0100
1000
,  // measure 13
0001
0000
0100
0000
0010
0000
1000
0001
,  // measure 14
1000
0000
0000
1000
0000
0000
1000
0010
,  // measure 15
0000
0100
0001
0000
0001
0000
0001
0000
,  // measure 16
1000
0001
0010
0001
,  // measure 17
0100
0000
0001
0000
1000
0000
0100
1000
,  // measure 18
0100
0000
1000
0000
0010
0000
0100
0001
,  // measure 19
0010
0100
0010
0100
0010
0000
0010
0000
,  // measure 20
0100
0010
0001
1000
,  // measure 21
0010
0000
0100
0000
0001
0000
1000
0001
,  // measure 22
0200
0000
0000
0000
,  // measure 23
0000
0000
0000
0000
,  // measure 24
0310
0000
0000
0000
,  // measure 25
1000
0000
1000
0000
,  // measure 26
0001
0000
0000
0000
,  // measure 27
0010
0000
0001
0000
,  // measure 28
0100
0000
0000
0000
,  // measure 29
0010
0000
1000
0000
,  // measure 30
0010
0000
0000
0000
,  // measure 31
0100
0000
0000
0000
,  // measure 32
0010
0000
1000
0000
,  // measure 33
0001
1000
0001
0000
,  // measure 34
0100
0000
0010
0000
,  // measure 35
1000
0010
1000
0000
,  // measure 36
0001
0000
0010
0000
,  // measure 37
0100
0010
0100
0000
,  // measure 38
0010
0000
0001
0000
,  // measure 39
1000
0001
1000
0000
,  // measure 40
0110
0000
0000
0000
,  // measure 41
0000
0000
0000
0000
,  // measure 42
0000
0000
0000
0000
,  // measure 43
0000
0000
0000
0000
,  // measure 44
1000
0100
0010
0001
,  // measure 45
1000
0100
0010
0001
,  // measure 46
1000
0001
0100
0010
,  // measure 47
1000
0000
1000
0000
1000
0001
1000
0000
,  // measure 48
0001
0100
0001
0010
,  // measure 49
0001
1000
0100
0010
,  // measure 50
0100
1000
0010
1000
,  // measure 51
0001
0010
0100
1001
,  // measure 52
1000
0001
0010
0001
,  // measure 53
0100
0000
0010
0000
1000
0000
0001
0010
,  // measure 54
0001
0000
0010
0000
0001
0000
0100
0010
,  // measure 55
0000
0100
0010
0000
0100
0000
0100
0000
,  // measure 56
0001
0010
0001
1000
,  // measure 57
0100
1000
0010
0100
,  // measure 58
0001
0100
0010
1000
,  // measure 59
0010
0000
0100
0000
0001
0000
1000
0001
,  // measure 60
1000
0010
1000
0100
,  // measure 61
0010
0100
1000
0010
,  // measure 62
0100
0000
0000
0001
0000
0001
0000
0001
,  // measure 63
0000
0000
0000
0000
,  // measure 64
0010
1000
0010
1000
0010
0000
1000
0000
,  // measure 65
0010
0000
0100
0000
0001
0000
0010
0001
,  // measure 66
0010
0001
0100
0001
,  // measure 67
1000
0000
0100
0010
0100
0000
1001
0000
,  // measure 68
1000
0000
0100
0000
1000
0000
0010
0100
,  // measure 69
0010
0000
1000
0000
0001
0010
0001
0000
,  // measure 70
1000
0000
0001
0000
0100
0000
0010
1000
,  // measure 71
0000
0001
0010
0000
1100
0000
1100
0000
,  // measure 72
0001
0010
0001
0100
,  // measure 73
0010
0000
1000
0000
0010
0000
0100
0010
,  // measure 74
0100
0010
1000
0001
,  // measure 75
0010
0000
0001
0000
0000
1000
0000
1000
,  // measure 76
0001
0100
0001
0010
,  // measure 77
0100
0000
1000
0000
0100
0000
1000
0010
,  // measure 78
1000
0001
0010
0100
,  // measure 79
1000
0000
1000
0000
1000
0001
1000
0000
,  // measure 80
1001
0000
0000
0001
0000
0001
0000
0000
,  // measure 81
1000
0000
0000
0010
0000
0010
0000
0000
,  // measure 82
0100
0000
0000
0001
0000
0001
0000
0000
,  // measure 83
0010
0000
0000
0100
0000
0100
0000
0000
,  // measure 84
0010
0000
0000
0001
0000
0001
0000
0000
,  // measure 85
0100
0000
0000
0010
0000
0010
0000
0000
,  // measure 86
1000
0000
0000
0001
0000
0000
1000
0000
,  // measure 87
0000
0000
0000
0000
,  // measure 88
0001
0010
0001
0000
0100
0000
0010
0000
,  // measure 89
1000
0010
0100
0001
,  // measure 90
1000
0000
0100
0000
0010
0000
0100
1000
,  // measure 91
0100
2000
0000
0000
,  // measure 92
3010
0000
0100
0000
0010
0000
0100
0010
,  // measure 93
0100
0010
0100
0010
,  // measure 94
0100
0000
0000
0001
0000
0000
1000
0000
,  // measure 95
0001
0000
0001
0000
0001
1000
0001
0000
,  // measure 96
0110
0000
0000
0000
;

//---------------dance-single - ----------------
#NOTEDATA:;
#CHARTNAME:;
#STEPSTYPE:dance-single;
#DESCRIPTION:;
#CHARTSTYLE:;
#DIFFICULTY:Beginner;
#METER:25;
#RADARVALUES:0.132905,0.269477,0.072181,0.000000,0.000000,116.000000,107.000000,9.000000,0.000000,0.000000,0.000000,0.000000,0.000000,0.000000,0.132905,0.269477,0.072181,0.000000,0.000000,116.000000,107.000000,9.000000,0.000000,0.000000,0.000000,0.000000,0.000000,0.000000;
#CREDIT:;
#NOTES:
// measure 0
0000
0000
0000
0000
,  // measure 1
0000
0000
0000
0000
,  // measure 2
0000
0000
0000
0000
,  // measure 3
0000
0000
0000
0000
,  // measure 4
1000
0000
0000
0000
,  // measure 5
1000
0000
0000
0000
,  // measure 6
0001
0000
0000
0000
,  // measure 7
0010
0000
0000
0000
,  // measure 8
1001
0000
0000
0001
,  // measure 9
0001
0001
0000
0000
,  // measure 10
1001
0000
0000
1000
,  // measure 11
1000
1000
0000
0000
,  // measure 12
0110
0000
0000
0010
,  // measure 13
0010
0010
0000
0000
,  // measure 14
0110
0000
0000
0100
,  // measure 15
0000
0000
0000
0000
,  // measure 16
0010
0000
0000
0000
,  // measure 17
1000
0000
0001
0000
,  // measure 18
1000
0000
0000
0000
,  // measure 19
0100
0000
0010
0000
,  // measure 20
0100
0000
0000
0000
,  // measure 21
1000
0000
0001
0000
,  // measure 22
0100
0000
0000
0000
,  // measure 23
0000
0000
0000
0000
,  // measure 24
0010
0000
0000
0000
,  // measure 25
0000
0000
0000
0000
,  // measure 26
0000
0000
0000
0000
,  // measure 27
1000
0000
0000
0000
,  // measure 28
0000
0000
0000
0000
,  // measure 29
0001
0000
0000
0000
,  // measure 30
0000
0000
0000
0000
,  // measure 31
0100
0000
0000
0000
,  // measure 32
0010
0000
0000
0000
,  // measure 33
1000
0000
0000
0000
,  // measure 34
0001
0000
0000
0000
,  // measure 35
1000
0000
0000
0000
,  // measure 36
0100
0000
0000
0000
,  // measure 37
1000
0000
0000
0000
,  // measure 38
0010
0000
0000
0000
,  // measure 39
0100
0000
0000
0000
,  // measure 40
1001
0000
0000
0000
,  // measure 41
0000
0000
0000
0000
,  // measure 42
0000
0000
0000
0000
,  // measure 43
0000
0000
0000
0000
,  // measure 44
0010
0000
0000
0000
,  // measure 45
0010
0000
0000
0000
,  // measure 46
0100
0000
0100
0000
,  // measure 47
0100
0000
0000
0000
,  // measure 48
1001
0000
0000
0000
,  // measure 49
1000
0000
1000
0000
,  // measure 50
1000
0000
0000
0000
,  // measure 51
0001
0000
0001
0000
,  // measure 52
0001
0000
0000
0000
,  // measure 53
0100
0000
0100
0000
,  // measure 54
0100
0000
0000
0000
,  // measure 55
0010
0000
0010
0000
,  // measure 56
0010
0000
0000
0000
,  // measure 57
1000
0000
0001
0000
,  // measure 58
1000
0000
0000
0000
,  // measure 59
0010
0000
0100
0000
,  // measure 60
0010
0000
0000
0000
,  // measure 61
1000
0000
0010
0000
,  // measure 62
1000
0000
0000
0000
,  // measure 63
0100
0000
0000
0000
,  // measure 64
0001
0001
0001
0000
,  // measure 65
0100
0000
0000
0000
,  // measure 66
0010
0000
0000
0000
,  // measure 67
1000
0000
0001
0000
,  // measure 68
1000
0000
0000
0000
,  // measure 69
0100
0000
0000
0000
,  // measure 70
1000
0000
0000
0000
,  // measure 71
0001
0000
0100
0100
,  // measure 72
0010
0000
0000
0000
,  // measure 73
1000
0000
0000
0000
,  // measure 74
0001
0000
0000
0000
,  // measure 75
0010
0000
0000
0000
,  // measure 76
0001
0000
0000
0000
,  // measure 77
1000
0000
0000
0000
,  // measure 78
0010
0000
0000
0000
,  // measure 79
0100
0000
0000
0000
,  // measure 80
1001
0000
0000
0000
,  // measure 81
1000
0000
0000
0000
,  // measure 82
1000
0000
0000
0000
,  // measure 83
1000
0000
0000
0000
,  // measure 84
0001
0000
0000
0000
,  // measure 85
0001
0000
0000
0000
,  // measure 86
0001
0000
0000
0000
,  // measure 87
0100
0000
0000
0000
,  // measure 88
0110
0000
0000
0000
,  // measure 89
0100
0000
0000
0000
,  // measure 90
0010
0000
0000
0000
,  // measure 91
1000
0000
0000
0000
,  // measure 92
0001
0000
0000
0000
,  // measure 93
0010
0000
0000
0000
,  // measure 94
0001
0000
0000
0000
,  // measure 95
1000
0000
0000
0000
,  // measure 96
0110
0000
0000
0000
;

//---------------dance-single - ----------------
#NOTEDATA:;
#CHARTNAME:;
#STEPSTYPE:dance-single;
#DESCRIPTION:;
#CHARTSTYLE:;
#DIFFICULTY:Challenge;
#METER:105;
#RADARVALUES:0.662235,0.952392,0.481209,0.384967,0.116292,578.000000,518.000000,60.000000,48.000000,0.000000,0.000000,0.000000,0.000000,0.000000,0.662235,0.952392,0.481209,0.384967,0.116292,578.000000,518.000000,60.000000,48.000000,0.000000,0.000000,0.000000,0.000000,0.000000;
#CREDIT:;
#OFFSET:-0.958000;
#BPMS:0.000000=190.000000
,28.000000=380.000000
,32.000000=190.000000
,187.000000=380.000000
,191.000000=190.000000
,314.000000=380.000000
,319.000000=190.000000
,374.000000=380.000000
,379.000000=190.000000
;
#STOPS:28.000000=0.157895
,29.000000=0.157894
,30.000000=0.078947
,30.500000=0.078948
,31.000000=0.157895
,61.000000=0.157896
,61.500000=0.157896
,187.000000=0.078949
,187.500000=0.078945
,188.000000=0.078945
,188.500000=0.078945
,189.000000=0.078945
,189.500000=0.078945
,190.000000=0.157894
,285.000000=0.157890
,285.500000=0.157890
,314.000000=0.078949
,314.500000=0.078949
,315.000000=0.078949
,315.500000=0.078949
,316.000000=0.078949
,316.500000=0.078949
,347.000000=0.947372
,372.000000=0.315788
,372.500000=0.315788
,374.000000=0.078949
,374.500000=0.078949
,375.000000=0.078949
,375.500000=0.078949
,376.000000=0.078949
,376.500000=0.078949
;
#DELAYS:;
#WARPS:;
#TIMESIGNATURES:0.000000=4=4
;
#TICKCOUNTS:0.000000=4
;
#COMBOS:0.000000=1
;
#SPEEDS:0.000000=1.000000=0.000000=0
;
#SCROLLS:0.000000=1.000000
;
#FAKES:;
#LABELS:0.000000=Song Start
;
#NOTES:
// measure 0
0000
0000
0000
0000
,  // measure 1
0000
0000
0000
0000
,  // measure 2
0000
0000
0000
0000
,  // measure 3
0000
0000
0000
0000
,  // measure 4
0101
0000
0000
0010
0000
0010
0000
0000
,  // measure 5
1100
0000
0000
0010
0000
0010
0000
0100
,  // measure 6
0010
0001
0010
0001
0010
0001
0010
0001
0010
0001
0010
0001
0010
0001
0010
0001
,  // measure 7
1000
0000
1000
0000
1000
0001
0100
0000
,  // measure 8
1001
1000
0010
0000
0000
1000
0001
1000
,  // measure 9
0100
0010
0100
1000
1100
0000
1010
0010
,  // measure 10
0100
0001
0010
0000
0000
0100
0010
0100
,  // measure 11
1000
1000
0001
0001
1001
0000
0110
0000
,  // measure 12
0100
0001
0010
0000
0000
0100
0010
0100
,  // measure 13
0010
0001
1000
0010
0100
0000
0001
1000
,  // measure 14
0010
0110
0000
0100
0110
0000
0010
0210
,  // measure 15
0000
0000
0301
0000
0101
0000
0011
0000
1000
0000
0001
1000
0100
0000
1000
0000
,  // measure 16
0010
0000
0000
0100
0010
1000
0001
0010
,  // measure 17
0100
0010
0011
0000
1000
1000
1001
0000
,  // measure 18
0001
0000
0100
0000
0010
1000
0001
0001
,  // measure 19
0010
0010
0110
0000
0011
0000
0011
0010
,  // measure 20
0100
0000
0010
0001
1000
0010
0100
0010
,  // measure 21
1000
0010
0100
0000
0010
1000
0002
0000
,  // measure 22
0000
0000
0000
0000
1003
0000
0001
0100
0001
0000
0100
0000
0000
0000
0001
0000
,  // measure 23
2000
0000
0000
3100
,  // measure 24
0000
0000
0000
0010
,  // measure 25
0000
0100
0000
0010
,  // measure 26
0000
0000
0000
0000
0000
0000
0000
0000
0000
0000
0100
0010
0001
0000
1000
0000
,  // measure 27
0001
1000
0010
1000
,  // measure 28
0000
0000
0000
0010
,  // measure 29
0000
1000
0000
0001
,  // measure 30
0000
0000
0000
1000
,  // measure 31
0000
0000
0000
0000
0010
0000
0100
0010
0200
0000
0000
0000
0300
0000
0000
0000
,  // measure 32
0010
1000
0010
0000
1000
0001
0020
0000
,  // measure 33
0100
0130
0000
0010
0001
0000
0010
0001
,  // measure 34
1000
0010
1000
0001
0010
0100
2000
0000
,  // measure 35
0001
3001
0000
1000
0001
0000
0100
0100
,  // measure 36
0010
1000
0001
0010
0100
0000
0010
0000
,  // measure 37
0001
0001
0010
0100
1000
0001
0010
0000
,  // measure 38
0100
0010
0001
0100
0010
1000
0200
0000
,  // measure 39
0010
0310
0000
0100
1000
0000
1001
0010
,  // measure 40
0000
0000
0100
0000
0000
0001
0000
0001
,  // measure 41
0000
0010
0000
0010
0001
1000
0000
0001
,  // measure 42
0000
0000
1000
0000
0000
0100
0000
0100
,  // measure 43
0000
0010
0000
0010
0100
1000
0001
0100
,  // measure 44
0010
1000
0001
0010
0100
0010
0001
0100
,  // measure 45
0010
0000
1000
0000
0001
0000
0010
0000
0100
0000
0010
0000
0001
1000
0001
1000
,  // measure 46
0001
1000
0001
1000
0001
1000
0010
1000
0100
0010
0001
1000
0020
0030
0020
0030
,  // measure 47
0020
0030
0020
0030
0100
0000
0001
0000
1000
0000
0000
0000
1000
0000
0101
0000
,  // measure 48
0000
0001
1100
0000
0000
0100
1000
0100
,  // measure 49
0010
0100
1000
0001
0100
0010
1000
1001
,  // measure 50
0000
0001
0011
0000
0000
0010
0001
1000
,  // measure 51
0010
1000
0001
0100
0001
0010
0100
1100
,  // measure 52
0000
0001
0011
0000
0000
0001
1000
0100
,  // measure 53
1000
0001
0100
0010
1000
0100
0010
0110
,  // measure 54
0000
0000
1000
0000
1100
0000
0000
0000
0000
0000
1100
0000
0000
0000
0001
0010
,  // measure 55
0000
0001
0100
0100
0001
1000
0100
0020
,  // measure 56
0000
0130
1001
0000
0000
0102
0000
0010
,  // measure 57
0000
1000
0000
1003
0100
0001
0100
0201
,  // measure 58
0000
0310
0110
0000
0000
0010
0000
0100
,  // measure 59
0000
0000
0001
0000
1000
0000
0001
0000
0100
0000
0010
0100
0010
0000
1000
0000
,  // measure 60
0100
0000
0011
0000
0001
1001
0000
1010
,  // measure 61
0000
0000
0101
0000
0001
0010
0000
0010
0001
0000
1000
0000
1100
0000
0000
0000
,  // measure 62
1000
1010
0000
0011
0000
1010
0020
0000
,  // measure 63
0230
0000
0320
2030
3020
2030
3001
0010
,  // measure 64
0100
0000
1000
0001
1000
0000
0000
0010
0100
0000
0010
0000
0000
0000
0100
0000
,  // measure 65
0000
0100
0010
1000
0001
0010
0100
0010
,  // measure 66
0001
0000
1000
0010
0001
0010
0000
1010
,  // measure 67
0000
1000
1001
0001
0010
0010
0001
0101
,  // measure 68
0000
0000
0010
1000
0100
0000
0000
0100
0000
0000
1000
0000
0000
0000
0001
0000
,  // measure 69
0000
1000
0100
0001
0100
0010
0001
0100
,  // measure 70
0000
0010
1000
0001
0010
0200
0000
0010
,  // measure 71
0310
0000
0000
0000
1001
0000
0110
0000
1001
0000
1000
0000
0001
0000
0010
0100
,  // measure 72
2000
0000
3000
0001
0100
0010
1000
0001
,  // measure 73
0020
0000
0100
0100
0130
0010
0001
1000
,  // measure 74
0020
0000
0000
0130
0000
0100
0000
0100
,  // measure 75
0010
1002
0000
0013
0011
0001
0000
0001
,  // measure 76
0200
0000
0000
0310
0000
0010
0000
0010
,  // measure 77
1000
0001
0010
0100
1000
0000
1000
0000
,  // measure 78
1000
0000
0100
0000
0010
0000
0001
0000
0200
0300
0200
0300
0200
0300
0200
0300
,  // measure 79
0200
0300
0020
0000
2000
0000
0000
0000
3030
0000
0000
0000
0201
0000
0000
0000
,  // measure 80
0000
1000
0000
0301
0000
0000
0021
0000
,  // measure 81
0000
1000
0000
0001
0000
1030
1002
0000
,  // measure 82
0000
0010
0000
0013
0000
0000
2001
0000
,  // measure 83
0000
0100
0000
0100
0000
3100
1200
0000
,  // measure 84
0000
1000
0000
0301
0000
0000
0201
0000
,  // measure 85
0000
0001
0000
1000
0000
0310
0110
0000
,  // measure 86
0000
0011
0000
0000
1010
0000
0000
0000
,  // measure 87
1000
0001
1000
0010
0100
0001
0000
0000
,  // measure 88
0010
0001
0100
0010
1000
0001
0010
0100
,  // measure 89
0010
0001
1000
0010
0100
0001
1000
1000
,  // measure 90
0100
0000
0010
0200
0000
0310
0002
0000
,  // measure 91
1003
0000
0001
0000
0100
0000
0010
1000
,  // measure 92
0010
0100
0001
1000
,  // measure 93
1010
0000
0101
0000
0011
0000
0000
0000
0200
0300
0200
0300
0200
0300
0200
0300
,  // measure 94
0200
0300
0010
0000
0001
0000
0000
0000
0000
0000
0000
0000
2002
0000
0000
0000
,  // measure 95
3003
0000
0000
0000
;
