#VERSION:0.83;
#TITLE:Without Chu;
#SUBTITLE:(feat Emsi);
#ARTIST:7 Minutes Dead;
#TITLETRANSLIT:;
#SUBTITLETRANSLIT:;
#ARTISTTRANSLIT:;
#GENRE:;
#ORIGIN:;
#CREDIT:;
#BANNER:Without Chu (feat Emsi).png;
#BACKGROUND:Without Chu (feat Emsi)-bg.png;
#PREVIEWVID:;
#JACKET:Without Chu (feat Emsi)-jacket.png;
#CDIMAGE:;
#DISCIMAGE:;
#LYRICSPATH:;
#CDTITLE:;
#MUSIC:Without Chu (feat Emsi).ogg;
#OFFSET:-0.977000;
#SAMPLESTART:28.680307;
#SAMPLELENGTH:18.461538;
#SELECTABLE:YES;
#BPMS:0.000=104.000;
#STOPS:;
#DELAYS:;
#WARPS:;
#TIMESIGNATURES:0.000=4=4;
#TICKCOUNTS:0.000=4;
#COMBOS:0.000=1;
#SPEEDS:0.000=1.000=0.000=0;
#SCROLLS:0.000=1.000;
#FAKES:;
#LABELS:0.000=Song Start;
#BGCHANGES:;
#KEYSOUNDS:;
#ATTACKS:
;

//---------------dance-single - ----------------
#NOTEDATA:;
#CHARTNAME:;
#STEPSTYPE:dance-single;
#DESCRIPTION:;
#CHARTSTYLE:;
#DIFFICULTY:Hard;
#METER:60;
#RADARVALUES:0.249513,0.261989,0.108122,0.266148,0.037427,210.000000,197.000000,13.000000,32.000000,0.000000,0.000000,0.000000,0.000000,0.000000,0.249513,0.261989,0.108122,0.266148,0.037427,210.000000,197.000000,13.000000,32.000000,0.000000,0.000000,0.000000,0.000000,0.000000;
#CREDIT:;
#NOTES:
0000
0000
0000
0000
,
0000
0000
0000
0000
,
0000
0000
0000
0000
,
0000
0000
0000
0000
,
1100
0000
1000
0000
0001
1000
0000
0000
,
0010
0000
0100
0000
0010
1000
0000
0000
,
0011
0000
0001
0000
1000
0010
0000
0100
,
0000
0100
0010
0000
1001
0000
0000
0000
,
1000
0100
0010
0000
1100
0000
0100
0000
,
1000
0010
0100
0000
0101
0000
0001
0000
,
1000
0001
0010
0000
0110
0000
0010
0000
,
0001
1000
0010
0000
0110
0000
1000
0000
,
0001
0100
1000
0010
0002
0000
0000
0000
,
0103
0001
0010
0100
0020
0000
0030
0000
,
0000
0001
0010
0100
0010
0010
0010
0000
,
0000
0100
1000
0010
0100
0100
0100
0000
,
0010
1000
0001
0010
0200
0000
0300
0000
,
0010
0100
1000
0001
0020
0000
0030
0000
,
0000
0100
0010
0001
1000
1000
1000
0000
,
0000
0001
1000
0010
0100
0100
0100
0000
,
0010
0000
0000
1000
0000
0000
0001
0000
1000
0000
0000
0000
0010
0000
0000
0000
,
1001
0001
1000
0000
0001
0100
0010
0000
,
0100
0000
0010
0000
1000
0001
0000
0100
,
0000
0010
1000
0000
0001
0010
0000
0000
,
0100
0010
0001
0000
1000
0001
0000
0100
,
0000
0010
1000
0100
0010
0100
0000
0000
,
0010
0001
1000
0000
0100
0010
0000
0100
,
0000
1000
0010
0000
0100
0010
1000
0000
,
0001
0000
0000
1000
0000
0000
0010
0000
0200
0000
0000
0000
0301
0000
0000
0000
,
0010
0000
0000
0100
0000
0000
1000
0000
1100
0000
0000
0000
0000
0000
0000
0000
,
1000
0000
0000
0001
0000
0000
0100
0000
0020
0000
0000
0000
1030
0000
0000
0000
,
0100
0000
0000
0010
0000
0000
0001
0000
0011
0000
0000
0000
0000
0000
0000
0000
,
0100
0000
0000
0010
0000
0000
0001
0000
2000
0000
0000
0000
3010
0000
0000
0000
,
0100
0000
0000
0010
0000
0000
1000
0000
0101
0000
0000
0000
0000
0000
0000
0000
,
0001
0000
0000
0010
0000
0000
0001
0000
0200
0000
0000
0000
0310
0000
0000
0000
,
0100
0000
0000
0010
0000
0000
1000
0000
0011
0000
0000
0000
0000
0000
0000
0000
,
0100
0000
0100
1000
0100
0001
0010
0000
,
0200
2300
3002
1003
,
2000
3020
0230
0301
,
0020
0230
2300
3001
,
0200
0320
2030
3100
,
2000
3020
0230
0301
,
0200
0320
2030
3001
,
0020
0230
2300
3010
,
0200
0320
2030
3001
,
0110
0000
0000
0000
;

//---------------dance-single - ----------------
#NOTEDATA:;
#CHARTNAME:;
#STEPSTYPE:dance-single;
#DESCRIPTION:;
#CHARTSTYLE:;
#DIFFICULTY:Challenge;
#METER:80;
#RADARVALUES:0.339814,0.411697,0.241196,0.207928,0.137232,286.000000,257.000000,29.000000,25.000000,6.000000,0.000000,0.000000,0.000000,0.000000,0.339814,0.411697,0.241196,0.207928,0.137232,286.000000,257.000000,29.000000,25.000000,6.000000,0.000000,0.000000,0.000000,0.000000;
#CREDIT:;
#NOTES:
0000
0000
0000
0000
,
0000
0000
0000
0000
,
0000
0000
0000
0000
,
0000
0000
0000
0000
,
1000
0010
0200
0000
1000
0000
0301
0000
,
0001
0010
0200
0000
0001
0000
1300
0000
,
0001
1000
0200
0000
0010
0000
1300
0000
,
0001
0100
0020
0000
1000
0000
0130
0000
,
0001
1000
0200
0000
0010
0320
0000
0001
,
0000
0100
0230
0000
1000
1300
0000
0000
,
0100
0010
0002
0000
0100
0203
0000
0010
,
0000
0010
0320
0000
1000
1030
0000
0000
,
0001
010M
1M00
M010
00M2
0000
1MM0
0000
,
0013
0100
1000
0001
0101
0000
0011
0000
,
0000
0001
0010
0100
0010
0000
0001
0100
0010
0000
0010
0200
0000
0000
0000
0000
,
0300
0010
0100
0001
1000
0000
1000
0001
0010
0000
0010
0100
0020
0000
0000
0000
,
0130
1000
1100
0100
0010
0001
1001
0000
,
1000
0010
1000
0000
0110
0000
0100
0000
0001
0000
1000
0000
1100
0000
0000
0000
,
0000
0100
0010
0001
1000
0000
0010
0000
0100
0000
0100
0020
0000
0000
0000
0000
,
0030
1000
0001
0010
0001
0000
0010
0200
0000
0310
0001
2000
0002
0000
3003
0000
,
0101
0000
0100
0020
0000
1030
0001
0000
0010
0000
0100
0000
0000
0000
1001
0000
,
0000
0010
1010
1000
0100
0001
0101
0000
,
0001
0010
1010
0010
0001
0100
0101
0000
,
0001
0100
1100
0100
0110
0100
0110
0010
,
1000
0000
0001
0200
0000
0000
0310
0000
1000
0000
0100
0000
0011
0000
0001
0000
,
1000
0001
0100
0010
0000
0100
0001
0000
1000
0000
0001
0000
0110
0000
0000
0000
,
0100
0001
0011
0010
0100
1000
1001
0001
,
0010
0001
0101
0001
0100
0010
1010
0000
,
0102
0000
0000
0010
0000
0000
0000
0000
1000
0000
0000
0000
1000
0000
0000
0000
,
0100
0000
0000
0010
0000
0000
0000
0000
1003
0000
0000
0000
0110
0000
0000
0000
,
2001
0000
0000
0001
0000
0000
0000
0000
0010
0000
0000
0100
0000
0000
0000
0000
,
0010
0000
0000
0001
0000
0000
0000
0000
3010
0000
0000
0000
1001
0000
0000
0000
,
1020
0000
0000
1000
0000
0000
0000
0000
0100
0000
0000
0000
0001
0000
0000
0000
,
0100
0000
0000
0100
0000
0000
0000
0000
1030
0000
0000
0000
1001
0000
0000
0000
,
1200
0000
0000
1000
0000
0000
0000
0000
0010
0000
0000
0010
0000
0000
0000
0000
,
0001
0000
0000
0001
0000
0000
0000
0000
0310
0000
0000
0000
0000
0000
0000
0000
,
1000
0000
1000
0100
1000
0001
1001
0000
,
1000
1000
0001
0100
0001
0010
0100
0000
,
0010
0010
0001
0001
1000
1000
0100
0000
,
1000
0010
0100
0010
1000
1000
0001
0000
,
1000
0001
0100
0001
0020
0000
0030
0000
,
0100
0100
0010
0001
0100
0100
0001
0000
,
1000
1000
0001
0001
1000
1000
0010
0100
,
0001
0100
0010
1000
0100
0100
1000
0001
,
0010
0010
0100
0100
2000
0000
3000
0000
,
0010
0000
0000
0000
;

//---------------dance-single - ----------------
#NOTEDATA:;
#CHARTNAME:;
#STEPSTYPE:dance-single;
#DESCRIPTION:;
#CHARTSTYLE:;
#DIFFICULTY:Easy;
#METER:15;
#RADARVALUES:0.127133,0.168422,0.016634,0.083171,0.000000,107.000000,105.000000,2.000000,10.000000,0.000000,0.000000,0.000000,0.000000,0.000000,0.127133,0.168422,0.016634,0.083171,0.000000,107.000000,105.000000,2.000000,10.000000,0.000000,0.000000,0.000000,0.000000,0.000000;
#CREDIT:;
#NOTES:
// measure 0
0000
0000
0000
0000
,  // measure 1
0000
0000
0000
0000
,  // measure 2
0000
0000
0000
0000
,  // measure 3
0000
0000
0000
0000
,  // measure 4
1000
1000
0001
0000
,  // measure 5
1000
0000
0001
0000
,  // measure 6
0010
0010
0100
0000
,  // measure 7
0010
0000
0001
0000
,  // measure 8
1000
0010
0100
0000
,  // measure 9
0001
0000
0001
0000
,  // measure 10
0010
0001
1000
0000
,  // measure 11
0100
0000
0100
0000
,  // measure 12
1001
0000
0000
0000
,  // measure 13
1000
0010
0100
0000
,  // measure 14
0010
0000
1000
0000
,  // measure 15
0001
0000
0010
0000
,  // measure 16
0001
0001
0001
0000
,  // measure 17
1000
0010
1000
0000
,  // measure 18
0100
0000
0010
0000
,  // measure 19
0100
0000
1000
0000
,  // measure 20
0001
0000
1000
0000
,  // measure 21
0110
0010
1000
0000
,  // measure 22
0001
0010
0001
1000
,  // measure 23
0100
0100
1000
1000
,  // measure 24
0001
1000
0010
1000
,  // measure 25
0001
0100
0001
0000
,  // measure 26
1000
0001
0010
0001
,  // measure 27
0100
0010
1000
0000
,  // measure 28
0002
0000
1003
0000
,  // measure 29
2000
0000
3001
0000
,  // measure 30
0200
0000
0310
0000
,  // measure 31
0020
0000
0130
0000
,  // measure 32
0002
0000
0013
0000
,  // measure 33
0200
0000
1300
0000
,  // measure 34
2000
0000
3010
0000
,  // measure 35
0200
0000
0301
0000
,  // measure 36
0000
0000
0000
0000
,  // measure 37
1000
0100
0010
0000
,  // measure 38
0100
0010
0100
0000
,  // measure 39
0010
0001
0100
0000
,  // measure 40
0010
0010
0020
0030
,  // measure 41
1000
0001
0100
0000
,  // measure 42
0010
0010
0010
0000
,  // measure 43
1000
0001
0010
0000
,  // measure 44
0100
0100
0200
0000
,  // measure 45
0300
0000
0000
0000
;

//---------------dance-single - ----------------
#NOTEDATA:;
#CHARTNAME:;
#STEPSTYPE:dance-single;
#DESCRIPTION:;
#CHARTSTYLE:;
#DIFFICULTY:Medium;
#METER:40;
#RADARVALUES:0.169907,0.223315,0.099805,0.108122,0.000000,143.000000,131.000000,12.000000,13.000000,0.000000,0.000000,0.000000,0.000000,0.000000,0.169907,0.223315,0.099805,0.108122,0.000000,143.000000,131.000000,12.000000,13.000000,0.000000,0.000000,0.000000,0.000000,0.000000;
#CREDIT:;
#NOTES:
0000
0000
0000
0000
,
0000
0000
0000
0000
,
0000
0000
0000
0000
,
0000
0000
0000
0000
,
1000
0001
0100
0000
,
0010
0000
1000
0000
0001
1000
0000
0000
,
0100
0010
0001
0000
,
1000
0000
0010
0000
0100
0010
0000
0000
,
1000
0010
1000
0000
0001
0000
0000
0000
,
0010
0001
1000
0000
,
0001
0100
0001
0000
1000
0000
0000
0000
,
0100
0000
1000
0000
,
0001
0010
0100
1000
0002
0000
0003
0000
,
1000
0100
0010
0001
2000
0000
3000
0000
,
0001
1000
0010
1000
,
0001
0010
0001
0100
,
0010
0100
0001
1000
0002
0000
0003
0000
,
1000
0100
0010
0100
2000
0000
3000
0000
,
0000
0001
1000
0010
,
0000
1000
0001
0100
,
0020
0000
0000
0030
,
1000
0000
0001
0000
0010
0001
0000
0000
,
0100
0001
1000
0100
,
1000
0000
0010
0000
0100
0001
0000
0000
,
0010
0100
0010
0000
0001
0000
1000
0000
,
0010
0000
1000
0000
0001
0010
0000
0000
,
0100
0010
0100
0000
0010
0000
0001
0000
,
1000
0010
1000
0000
,
1001
0000
0110
0000
,
1010
0000
0100
0000
,
1001
0000
0110
0000
,
0101
0000
0010
0000
,
1001
0000
1100
0000
,
1001
0000
0001
0000
,
0011
0000
0110
0000
,
1100
0000
1000
0000
,
0000
0000
0000
0000
,
0001
0010
0200
0300
,
0010
0010
0020
0030
,
0001
1000
0002
0003
,
0100
0100
0200
0300
,
0010
1000
0020
0030
,
1000
1000
2000
3000
,
0100
0010
0002
0003
,
1000
1000
2000
3000
;

//---------------dance-single - ----------------
#NOTEDATA:;
#CHARTNAME:;
#STEPSTYPE:dance-single;
#DESCRIPTION:;
#CHARTSTYLE:;
#DIFFICULTY:Beginner;
#METER:5;
#RADARVALUES:0.067725,0.112281,0.016634,0.000000,0.000000,57.000000,55.000000,2.000000,0.000000,0.000000,0.000000,0.000000,0.000000,0.000000,0.067725,0.112281,0.016634,0.000000,0.000000,57.000000,55.000000,2.000000,0.000000,0.000000,0.000000,0.000000,0.000000,0.000000;
#CREDIT:;
#NOTES:
0000
0000
0000
0000
,
0000
0000
0000
0000
,
0000
0000
0000
0000
,
0000
0000
0000
0000
,
1000
0000
0000
0000
,
1000
0000
0000
0000
,
0001
0000
0000
0000
,
0001
0000
0000
0000
,
0100
0000
0000
0000
,
0100
0000
0000
0000
,
0010
0000
0000
0000
,
0010
0000
0000
0000
,
1001
0000
0000
0000
,
1000
0000
0000
0000
,
0010
0000
0000
0000
,
0010
0000
0000
0000
,
0100
0000
0000
0000
,
0001
0000
0000
0000
,
1000
0000
0000
0000
,
0100
0000
0000
0000
,
1000
0000
1000
0000
,
0001
0000
0000
0000
,
0100
0000
0100
0000
,
0010
0000
1000
1000
,
1000
0000
0001
0000
,
1000
0000
0000
0000
,
0010
0000
0010
0000
,
1000
0000
0001
0000
,
1000
0000
0000
0000
,
0001
0000
0001
0000
,
0100
0000
0000
0000
,
0010
0000
0010
0000
,
1000
0000
0000
0000
,
0001
0000
0000
0000
,
0100
0000
0000
0000
,
0010
0000
0010
0000
,
0000
0000
0000
0000
,
1000
0000
0000
0000
,
0001
0000
0000
0000
,
0100
0000
0000
0000
,
0010
0010
0010
0000
,
1000
0000
0000
0000
,
0001
0000
0000
0000
,
0100
0000
0000
0000
,
0001
0001
0001
0000
,
0110
0000
0000
0000
;
