#VERSION:0.83;
#TITLE:Water Horizon;
#SUBTITLE:;
#ARTIST:青龍;
#TITLETRANSLIT:;
#SUBTITLETRANSLIT:;
#ARTISTTRANSLIT:Seiryu;
#GENRE:;
#ORIGIN:;
#CREDIT:;
#BANNER:Water Horizon.png;
#BACKGROUND:Water Horizon-bg.png;
#PREVIEWVID:;
#JACKET:Water Horizon-jacket.png;
#CDIMAGE:;
#DISCIMAGE:;
#LYRICSPATH:;
#CDTITLE:;
#MUSIC:Water Horizon.ogg;
#OFFSET:-0.846000;
#SAMPLESTART:97.599915;
#SAMPLELENGTH:15.078537;
#SELECTABLE:YES;
#BPMS:0.000=191.000;
#STOPS:;
#DELAYS:;
#WARPS:;
#TIMESIGNATURES:0.000=4=4;
#TICKCOUNTS:0.000=4;
#COMBOS:0.000=1;
#SPEEDS:0.000=1.000=0.000=0;
#SCROLLS:0.000=1.000;
#FAKES:;
#LABELS:0.000=Song Start;
#BGCHANGES:;
#KEYSOUNDS:;
#ATTACKS:
;

//---------------dance-single - ----------------
#NOTEDATA:;
#CHARTNAME:;
#STEPSTYPE:dance-single;
#DESCRIPTION:;
#CHARTSTYLE:;
#DIFFICULTY:Hard;
#METER:90;
#RADARVALUES:0.581131,0.756633,0.227803,0.089494,0.032543,500.000000,472.000000,28.000000,11.000000,0.000000,0.000000,0.000000,0.000000,0.000000,0.581131,0.756633,0.227803,0.089494,0.032543,500.000000,472.000000,28.000000,11.000000,0.000000,0.000000,0.000000,0.000000,0.000000;
#CREDIT:;
#NOTES:
0000
0000
0000
0000
,
0000
0000
0000
0000
,
0000
0000
0000
0000
,
0000
0000
0000
0000
,
0102
0000
0000
0000
,
0000
0000
0000
0003
,
1000
1000
0000
0000
0001
0001
0000
0000
,
1000
1000
0000
0000
0001
0001
0000
0000
,
1000
0001
1000
0001
1000
0001
1000
0001
,
1000
0001
1000
0001
1000
0001
1000
0001
,
1000
0010
0100
0001
1000
0010
0100
0001
,
1000
0010
1000
0010
0100
0001
0100
0001
0000
0000
0000
0000
0000
0000
0000
0000
,
1000
0001
0010
0100
0010
0001
1000
0010
,
0100
0001
1000
0001
0011
0000
0011
0000
,
0001
1000
0010
1000
0001
0010
0100
1000
,
0001
1000
0100
1000
1010
0000
1010
0000
,
1000
0001
0010
0001
1000
0100
0010
0001
,
1000
0001
0100
0001
0011
0000
0011
0000
,
0001
1000
0010
1000
0001
0010
0100
0010
,
0000
0000
1001
1001
,
0110
0100
0000
0010
1000
0001
0010
0100
,
0010
0010
0000
0100
0010
0001
1000
0010
,
0100
0100
0000
0010
1000
0001
0010
0100
,
0010
0010
0000
0100
0010
0001
1000
0010
,
0100
0100
0000
0010
1000
0001
0010
0001
,
1000
1000
0000
0001
0010
0001
1000
0010
,
0100
0100
0000
0010
1000
0001
0010
0100
,
0010
0010
0000
0100
0110
0000
1001
0000
,
0001
1000
0020
1030
,
0100
1000
0010
0100
,
0001
0010
0200
0310
,
0100
0010
0001
1000
,
0001
0100
0020
1030
,
0100
0010
0100
1000
,
0001
0100
0020
1030
,
0001
0010
0010
0100
0100
0010
0001
1000
,
0010
0010
0010
0010
,
0100
0010
1000
0001
0010
0000
1001
0000
,
0001
0100
0010
1000
0100
0001
0100
1000
,
0010
1000
1000
0001
0001
0010
0001
1000
,
0001
1000
0010
1000
0100
0001
0100
1000
,
0010
1000
0001
0010
0100
0010
0001
1000
,
0010
0100
0001
0010
1000
0010
0001
1000
,
0001
0001
1000
1000
0100
0010
0100
1000
,
0001
0010
0100
1000
1001
0000
0001
1000
,
0010
1000
0100
0001
0100
1000
0010
0100
,
0001
0010
0100
1000
1001
0000
0001
1000
,
0100
1000
0010
0001
0010
0100
0010
0001
,
1000
1000
1000
1000
,
0001
0001
0001
0001
,
1000
0001
0100
0010
,
1000
0100
0001
0100
0010
0001
1000
0000
,
1001
0000
0000
0000
,
0000
0000
0000
0000
,
0000
0000
0000
0000
,
0000
0000
0000
0000
,
0000
0000
0000
0000
,
0000
0000
0000
0000
,
0000
0000
0000
0000
,
0000
0000
0000
0000
,
1000
0001
0100
0001
,
0010
0100
1100
0000
,
0100
0010
0001
0100
,
0010
0000
1000
0000
0001
0010
0100
0010
,
0001
1000
0001
0100
,
0010
0000
1000
0000
0001
0010
0001
1000
,
0001
0000
0001
0100
0000
0010
0100
0010
,
1000
0100
0010
0100
0000
0000
0000
0000
,
1002
1000
1000
1000
,
1000
1000
1003
0000
,
2001
0001
0001
0001
,
0001
0001
0001
3001
,
0120
0100
0100
0100
,
0100
0100
0100
0130
,
0210
0010
0010
0010
,
0310
0100
0001
1000
0000
0000
0000
0000
,
0001
0100
0001
0100
0010
1000
0010
1000
0000
0000
0000
0000
0000
0000
0000
0000
,
0001
0100
1000
0100
0010
1000
0001
0010
,
0000
0100
0010
0001
1000
0000
0000
0000
,
0001
0100
0001
1000
0010
1000
0001
0010
,
0000
0100
0010
0001
0100
0010
1000
0001
,
0010
1000
0010
0001
0100
0010
1000
0001
,
0000
1000
0100
0010
0100
1000
0001
0100
,
0001
0000
1000
0001
0000
0100
0010
1000
,
0001
0010
0100
0020
0000
0000
0000
0000
,
0130
0000
0010
0001
0000
0010
0001
1000
,
0000
0010
0100
0001
1000
0100
1000
0001
,
0100
0000
0001
0010
0000
0100
0010
0001
,
1000
0001
0100
0010
1000
0100
1000
0001
,
0010
0000
0001
0100
0000
0010
1000
0100
,
0001
0100
1000
0010
0100
0001
1000
0100
,
0010
0000
0100
0110
0000
0010
0110
0110
,
0000
0010
1001
1001
1002
0000
1003
0000
,
0110
0000
0000
0000
;

//---------------dance-single - ----------------
#NOTEDATA:;
#CHARTNAME:;
#STEPSTYPE:dance-single;
#DESCRIPTION:;
#CHARTSTYLE:;
#DIFFICULTY:Challenge;
#METER:100;
#RADARVALUES:0.713629,1.071896,0.219668,0.195260,0.292890,614.000000,587.000000,27.000000,24.000000,0.000000,0.000000,0.000000,0.000000,0.000000,0.713629,1.071896,0.219668,0.195260,0.292890,614.000000,587.000000,27.000000,24.000000,0.000000,0.000000,0.000000,0.000000,0.000000;
#CREDIT:;
#OFFSET:-0.846000;
#BPMS:0.000000=191.000000
,208.000000=95.500000
,240.000000=191.000000
;
#STOPS:;
#DELAYS:;
#WARPS:;
#TIMESIGNATURES:0.000000=4=4
;
#TICKCOUNTS:0.000000=4
;
#COMBOS:0.000000=1
;
#SPEEDS:0.000000=1.000000=0.000000=0
;
#SCROLLS:0.000000=1.000000
;
#FAKES:;
#LABELS:0.000000=Song Start
;
#NOTES:
0000
0000
0000
0000
,
0000
0000
0000
0000
,
0000
0000
0000
0000
,
0000
0000
0000
0000
,
2002
0000
0000
0000
,
0000
0000
0000
3003
,
0001
0001
0000
0000
1000
1000
0000
0000
,
0001
0001
0000
0000
1000
1000
0000
0000
,
0001
0001
1000
1000
0001
0001
1000
1000
,
0001
0001
1000
1000
0001
0001
1000
1000
,
0001
0100
0001
0100
0010
0100
0010
0100
0001
0100
0001
0100
0010
0100
0010
0100
,
0010
1000
0001
0010
0100
0010
0001
1000
0001
0000
0000
0000
0001
0000
0000
0000
,
1000
0100
1000
0001
0100
0010
0100
0001
,
1000
0100
0010
0100
1100
0000
1100
0000
,
0100
1000
0001
0100
0010
0100
0001
1000
,
0100
1000
0001
0100
0110
0000
0110
0000
,
0100
0001
1000
0100
0010
0100
1000
0001
,
0100
0001
0010
0100
0110
0000
0110
0000
,
0100
0010
0001
0100
0010
0100
0001
1000
,
0200
0000
1000
1300
,
0100
0000
0100
0000
0000
0000
0000
0000
0010
0000
0001
0000
0100
0001
0000
0001
,
0010
0000
0010
0000
0100
1000
0000
1000
0001
0000
0100
0000
0010
0000
1000
0000
,
0001
0000
0001
0000
0000
0000
1000
0000
0001
0000
0100
0000
0010
1000
0000
1000
,
0100
0000
0100
0000
0010
0001
0000
0001
0100
0000
0010
0000
1000
0000
0001
0000
,
1000
0000
0000
0000
0100
0000
0000
0000
0010
0000
0000
0000
0001
0000
1000
0001
,
1000
0000
0001
0000
0100
0010
0100
0010
,
0100
0000
0000
0000
0001
0000
0000
0000
1000
0000
0000
0000
0100
0000
0010
0100
,
0010
0001
1000
0001
1000
0001
1000
0001
1000
0000
0000
0000
1001
0000
0000
0000
,
1000
0000
0100
0000
0010
0000
0001
0000
1000
0001
1000
0000
0001
0000
0000
0000
,
0010
0001
0100
0001
0010
0001
0100
0010
,
1000
0000
0001
0000
0010
0000
0100
0000
1000
0001
1000
0000
0100
0000
0000
0000
,
0010
0100
1000
0010
0100
0001
1000
0100
,
0010
0000
0100
0000
1000
0000
0010
0000
0100
0001
0010
0000
0100
0000
0010
0000
,
0001
1000
0010
1000
0001
0000
0010
0001
,
1000
0000
0001
0000
0100
0000
0010
0000
1000
0010
1000
0000
0100
0000
0010
0000
,
0100
0100
0001
0010
0100
0100
0010
0001
,
1000
0000
0100
0000
0001
0000
0100
0000
0010
0001
0100
0000
0010
0000
1000
0000
,
0001
0010
1000
0010
0001
0000
0110
0000
,
0001
0000
0100
0000
0010
0000
0100
0000
0001
1000
0001
0000
0010
0000
0100
0000
,
1000
0010
0010
0100
0100
0010
1000
0001
,
0010
0000
0001
0000
0100
0000
0001
0000
1000
0100
1000
0000
0100
0000
1000
0000
,
0010
0100
0010
1000
0010
0100
0001
0010
,
0100
0000
0010
0000
0001
0000
1000
0000
0010
1000
0010
0000
0100
0000
0001
0000
,
1000
0100
0100
0001
0100
0100
0010
0001
,
1000
0010
0100
0001
1001
0000
0001
0010
,
0100
0000
0010
0000
0001
1000
0010
0100
0001
0000
0010
0000
0100
0000
0010
0000
,
0001
1000
0100
0010
1001
0000
0001
0010
,
0100
0000
0010
0000
0001
0100
0010
1000
0001
0000
0010
0000
0001
0000
1000
0000
,
0100
0000
0000
0000
0100
0000
0000
0000
0100
0000
0000
0000
0100
0000
0010
0100
,
0010
0000
0100
0000
0100
0010
0100
0010
,
0100
0000
0000
0000
0100
0000
0000
0000
0100
0010
0100
0000
0010
0000
0100
0000
,
1000
0010
0010
0100
0010
0010
1000
0000
,
1002
0000
2003
3002
,
0023
0000
0032
2003
,
3020
0000
2030
3002
,
0023
0230
0320
0000
,
0031
0010
0100
0010
0001
0100
0010
1000
0000
0010
0100
0001
1000
0000
0000
0000
,
0001
0010
0001
0100
0001
1000
0100
0010
0000
0100
0010
0001
0100
1000
0100
0001
,
1000
0100
1000
0001
0010
0100
1000
0001
0000
0010
0001
1000
0100
0010
0100
1000
,
0001
0000
0100
0001
0000
0010
0001
0100
0010
1000
0100
1000
0000
0000
0000
0000
,
1000
0001
0100
0001
0010
0100
0010
0001
,
0000
1000
0100
0010
0100
0000
0000
0000
,
0010
0001
0100
0010
1000
0001
0010
0100
,
0000
0010
0001
0100
0010
1000
0010
0001
,
0010
0100
0001
0010
1000
0010
0100
0010
,
0000
0100
0010
0001
0100
0010
1000
0001
,
0010
0000
0100
0010
0000
0010
0001
0100
,
1000
0100
0010
1000
0000
0000
0000
0000
,
0001
0100
0010
1000
0001
0010
0100
1000
0001
0000
0000
0000
1001
0000
0000
0000
,
1000
0100
0001
0100
0010
0001
0100
0020
,
0000
1030
0001
0010
0200
0000
0000
0000
,
0310
0001
0100
0001
1000
0100
0010
0200
,
0000
0310
0001
0100
0010
1000
0001
0010
,
0001
1000
0010
0100
0001
0010
0100
2000
,
0000
3001
0100
0001
0100
0010
1000
0001
,
0020
0000
0130
0020
0000
0130
1000
0010
,
0100
0001
0010
0200
0000
0000
0000
0300
,
0110
0000
0010
0001
0000
0010
0100
1000
,
0000
0100
0010
0001
1000
0010
0100
0001
,
1001
0000
0001
1000
0000
1000
0010
0100
,
0010
1000
0001
1000
0100
0010
0001
1000
,
1001
0000
0001
0100
0000
0100
0010
1000
,
0001
0010
0100
0000
1000
0000
0100
0000
0010
0000
0100
0000
1000
0000
0001
0000
,
1001
0000
0101
1010
0000
1100
0011
0110
,
0000
0011
0110
1100
2002
0000
3003
0000
,
0110
0000
0000
0000
;

//---------------dance-single - ----------------
#NOTEDATA:;
#CHARTNAME:;
#STEPSTYPE:dance-single;
#DESCRIPTION:;
#CHARTSTYLE:;
#DIFFICULTY:Medium;
#METER:70;
#RADARVALUES:0.448633,0.605306,0.317298,0.024408,0.000000,386.000000,347.000000,39.000000,3.000000,0.000000,0.000000,0.000000,0.000000,0.000000,0.448633,0.605306,0.317298,0.024408,0.000000,386.000000,347.000000,39.000000,3.000000,0.000000,0.000000,0.000000,0.000000,0.000000;
#CREDIT:;
#NOTES:
0000
0000
0000
0000
,
0000
0000
0000
0000
,
0000
0000
0000
0000
,
0000
0000
0000
0000
,
2002
0000
0000
0000
,
0000
0000
0000
3003
,
0001
0100
0000
0000
0010
1000
0000
0000
,
0001
0100
0000
0000
0010
1000
0000
0000
,
0001
0100
0010
1000
,
0001
0100
0010
1000
,
0001
0100
0010
1000
0001
0100
0010
1000
,
0001
0010
0100
1000
0000
0000
0000
0000
,
0001
1000
0010
0100
,
0001
0010
0110
1100
,
0100
1000
0010
0100
,
0010
1000
1010
0101
,
0001
0010
0001
0100
,
0010
1000
1010
1100
,
0100
0010
0001
0010
,
0200
0000
0010
0310
,
0100
0010
0001
0000
0010
0000
0100
0000
,
0010
0100
1000
0000
0100
0000
1000
0000
,
0010
0100
0001
0000
1000
0000
0010
0000
,
0100
0010
1000
0000
0010
0000
0100
0000
,
0001
0000
0001
0000
0001
0000
0001
1000
,
0001
0000
0001
0000
0001
0000
0001
1000
,
0001
0000
0001
0000
0001
0000
0001
1000
,
0001
1000
0010
0010
,
0100
0000
0010
0000
1000
0010
1000
0000
,
0010
0100
0001
0010
,
0100
0000
0010
0000
0001
0010
0001
0000
,
0010
0010
0100
0100
,
0010
0000
0001
0000
0100
0010
1000
0000
,
0001
0010
0001
1000
,
0010
0000
0100
0000
0001
0100
0010
0000
,
0100
0100
0010
1000
0001
0001
0010
0100
,
1000
0100
1000
0010
,
0100
0010
1000
0001
0010
0000
1100
0000
,
0100
0000
1000
0000
0010
0100
0001
0000
,
0010
0010
0100
0100
,
0010
0000
0001
0000
0100
0010
1000
0000
,
0010
0100
0001
1000
,
0100
0000
0010
0000
0001
0010
0100
0000
,
0010
0010
0001
0001
,
1000
0100
0010
0001
1001
0000
0001
0000
,
1000
0010
1000
0001
,
1000
0100
0010
0001
1001
0000
0001
0000
,
0010
0001
0100
0010
,
1000
0000
1000
0000
0001
0000
1000
0001
,
1000
0000
0001
0000
0001
0000
1000
0001
,
1000
0001
0100
0010
,
1000
0010
0100
0001
0010
0100
0010
0000
,
1001
0000
0000
0000
,
0000
0000
0000
0000
,
0000
0000
0000
0000
,
0000
0000
0000
0000
,
0000
0000
0000
0000
,
0000
0000
0000
0000
,
0000
0000
0000
0000
,
0000
0000
0000
0000
,
1000
0000
0010
0000
,
0100
0000
0101
0000
,
0001
0000
0010
0000
,
0100
0000
0010
0001
,
1000
0000
0001
0000
,
0100
0000
0010
1000
,
0100
0000
0000
1000
0000
0000
0001
0000
,
0100
0000
0000
0010
0000
0000
0000
0000
,
1001
1000
0001
0010
,
0001
0100
0101
0000
,
1010
0010
1000
0100
,
0010
0001
0011
0011
,
0101
0001
0100
0010
,
1010
0010
0100
0001
,
1001
0010
1001
0100
,
0001
0100
0010
1000
0000
0000
0000
0000
,
1000
0100
0010
0001
1000
0000
1000
0000
,
0001
0000
0100
0000
0010
0000
1000
0010
,
0000
0010
1000
0000
1001
0000
0000
0000
,
0001
0000
0010
0000
0100
0000
0100
0010
,
0000
0010
0001
0000
0010
0100
1000
0001
,
0100
0000
0010
0000
1000
0000
0010
0100
,
0000
0001
1000
0000
0001
0000
0010
0000
,
0100
0000
0010
0001
0000
0010
0100
1000
,
0010
0100
0001
1000
0000
0000
0000
0000
,
1001
0010
0110
0100
,
1001
0010
0110
0010
,
1001
0100
1001
0010
,
1001
0110
1001
0110
,
1001
0010
1001
0100
,
1001
0110
1001
0110
,
1000
0000
0010
0001
0000
0010
1000
0100
,
0000
0001
0100
1000
0010
0000
0000
0000
,
1001
0000
0000
0000
;

//---------------dance-single - ----------------
#NOTEDATA:;
#CHARTNAME:;
#STEPSTYPE:dance-single;
#DESCRIPTION:;
#CHARTSTYLE:;
#DIFFICULTY:Easy;
#METER:45;
#RADARVALUES:0.269645,0.340485,0.105766,0.040679,0.000000,232.000000,219.000000,13.000000,5.000000,0.000000,0.000000,0.000000,0.000000,0.000000,0.269645,0.340485,0.105766,0.040679,0.000000,232.000000,219.000000,13.000000,5.000000,0.000000,0.000000,0.000000,0.000000,0.000000;
#CREDIT:;
#NOTES:
0000
0000
0000
0000
,
0000
0000
0000
0000
,
0000
0000
0000
0000
,
0000
0000
0000
0000
,
2002
0000
0000
0000
,
0000
0000
0000
0000
0000
0003
3000
0000
,
1000
0000
0001
0000
,
1000
0000
0001
0000
,
1000
0001
1000
0001
,
1000
0001
1000
0001
,
1000
0100
0010
0001
,
0200
0000
0300
0000
,
0010
1000
0010
0100
,
0001
0010
0100
0100
,
0000
0010
0001
0100
,
0010
1000
0001
0001
,
0000
1000
0001
0100
,
0001
0010
0100
0100
,
0000
0010
0001
0100
,
0020
0000
1000
1030
,
0001
0000
1000
0010
,
0100
0000
0010
0100
,
0001
0000
1000
0001
,
0010
0000
0100
0010
,
0001
0000
1000
0010
,
0100
0000
0010
1000
,
0001
0000
0010
0100
,
0010
0000
0100
0100
,
1001
0000
0001
0000
,
1000
0000
0010
0000
,
1000
0000
0001
0000
,
0100
0000
0001
0000
,
1000
0000
0100
0000
,
0001
0000
0100
0000
,
0010
0000
0001
0000
,
1000
0010
0100
0010
,
1000
0000
0001
0000
,
0100
0000
0010
1001
,
0100
0000
0010
0000
,
1000
0001
0100
0001
,
0010
0000
0001
0000
,
0100
0001
0010
0000
,
0100
0000
0010
0000
,
0001
1000
0010
1000
,
0001
0010
1100
0000
,
0100
0000
1000
0000
,
0010
1000
0101
0000
,
0001
0000
1000
0000
,
0010
0000
0100
0000
,
0001
0000
1000
0000
,
0001
0000
0010
0000
,
0100
0010
0001
1000
,
1001
0000
0000
0000
,
0000
0000
0000
0000
,
0000
0000
0000
0000
,
0000
0000
0000
0000
,
0000
0000
0000
0000
,
0000
0000
0000
0000
,
0000
0000
0000
0000
,
0000
0000
0000
0000
,
0001
0000
1000
0000
,
0010
0000
0100
0000
,
0001
0000
1000
0000
,
0010
0000
1000
0000
,
0001
0000
1000
0000
,
0010
0000
0100
0000
,
0001
0000
0010
0000
,
0100
0100
0000
0000
,
0010
0000
0001
0000
,
1000
1000
0001
0000
,
1000
0000
0010
0000
,
0100
0100
0010
0100
,
0010
0000
1000
0000
,
0001
0001
0010
0000
,
0001
0000
1000
0000
,
0010
0100
0010
0000
,
2000
0000
3001
0001
,
1000
0010
0100
0001
,
0010
0100
0010
0000
,
0100
0010
0001
0100
,
0010
1000
0001
0001
,
1000
0001
0010
0001
,
1000
0100
1000
0010
,
0100
0010
1000
0001
,
0010
0100
0010
0000
,
0110
0000
0001
0000
,
1001
0000
1000
0000
,
1010
0000
0010
0000
,
0110
0000
0100
0000
,
0101
0000
0001
0000
,
1001
0000
1000
0000
,
0001
0000
0000
1000
0000
0000
0001
0000
,
0000
0100
0010
0000
,
1001
0000
0000
0000
;

//---------------dance-single - ----------------
#NOTEDATA:;
#CHARTNAME:;
#STEPSTYPE:dance-single;
#DESCRIPTION:;
#CHARTSTYLE:;
#DIFFICULTY:Beginner;
#METER:20;
#RADARVALUES:0.124362,0.302653,0.065087,0.000000,0.000000,107.000000,99.000000,8.000000,0.000000,0.000000,0.000000,0.000000,0.000000,0.000000,0.124362,0.302653,0.065087,0.000000,0.000000,107.000000,99.000000,8.000000,0.000000,0.000000,0.000000,0.000000,0.000000,0.000000;
#CREDIT:;
#NOTES:
// measure 0
0000
0000
0000
0000
,  // measure 1
0000
0000
0000
0000
,  // measure 2
0000
0000
0000
0000
,  // measure 3
0000
0000
0000
0000
,  // measure 4
1001
0000
0000
0000
,  // measure 5
0000
0000
0000
0000
,  // measure 6
0010
0000
0000
0000
,  // measure 7
0010
0000
0000
0000
,  // measure 8
0100
0000
0100
0000
,  // measure 9
0100
0000
0100
0000
,  // measure 10
0100
0100
0000
0000
,  // measure 11
0010
0010
0000
0000
,  // measure 12
1001
0000
0000
0000
,  // measure 13
0000
0000
1000
1000
,  // measure 14
0000
0000
0000
0000
,  // measure 15
0000
0000
0001
0001
,  // measure 16
0000
0000
0000
0000
,  // measure 17
0000
0000
0100
0100
,  // measure 18
0000
0000
0000
0000
,  // measure 19
0010
0000
0100
0100
,  // measure 20
0010
0000
0000
0000
,  // measure 21
1000
0000
0000
0000
,  // measure 22
0001
0000
0000
0000
,  // measure 23
0010
0000
0000
0000
,  // measure 24
0001
0000
0000
0000
,  // measure 25
1000
0000
0000
0000
,  // measure 26
0100
0000
0000
0000
,  // measure 27
1000
0000
0001
0001
,  // measure 28
1000
0000
0000
0000
,  // measure 29
0010
0000
0000
0000
,  // measure 30
0100
0000
0000
0000
,  // measure 31
0001
0000
0000
0000
,  // measure 32
1000
0000
0000
0000
,  // measure 33
0001
0000
0000
0000
,  // measure 34
0100
0000
0000
0000
,  // measure 35
0010
0000
0000
0000
,  // measure 36
0000
0000
0000
0000
,  // measure 37
0000
0000
0000
1001
,  // measure 38
0110
0000
0000
0000
,  // measure 39
0010
0000
0000
0000
,  // measure 40
1000
0000
0000
0000
,  // measure 41
0001
0000
0000
0000
,  // measure 42
0010
0000
0000
0000
,  // measure 43
0001
0000
0000
0000
,  // measure 44
1000
0000
1000
0000
,  // measure 45
0001
0000
0000
0000
,  // measure 46
0100
0000
0100
0000
,  // measure 47
0010
0000
0000
0000
,  // measure 48
1000
0000
0000
0000
,  // measure 49
0010
0000
0000
0000
,  // measure 50
0100
0000
0000
0000
,  // measure 51
0001
0000
1000
0000
,  // measure 52
0110
0000
0000
0000
,  // measure 53
0000
0000
0000
0000
,  // measure 54
0000
0000
0000
0000
,  // measure 55
0000
0000
0000
0000
,  // measure 56
0000
0000
0000
0000
,  // measure 57
0000
0000
0000
0000
,  // measure 58
0000
0000
0000
0000
,  // measure 59
0000
0000
0000
0000
,  // measure 60
1000
0000
0000
0000
,  // measure 61
0000
0000
0000
0000
,  // measure 62
0001
0000
0000
0000
,  // measure 63
0000
0000
0000
0000
,  // measure 64
1000
0000
0000
0000
,  // measure 65
0000
0000
0000
0000
,  // measure 66
0010
0000
0000
0000
,  // measure 67
0000
0000
0000
0000
,  // measure 68
0100
0000
0000
0000
,  // measure 69
0000
0000
0000
0000
,  // measure 70
0010
0000
0000
0000
,  // measure 71
0000
0000
0000
0000
,  // measure 72
1000
0000
0000
0000
,  // measure 73
0001
0000
0000
0000
,  // measure 74
1000
0000
0001
0000
,  // measure 75
0100
0100
0100
0000
,  // measure 76
0010
0000
0100
0100
,  // measure 77
1001
0000
0000
0000
,  // measure 78
0001
0000
0000
0000
,  // measure 79
1000
0000
0000
0000
,  // measure 80
0010
0000
1000
0000
,  // measure 81
0100
0000
0000
0000
,  // measure 82
1000
0000
0000
0000
,  // measure 83
0001
0000
1000
0000
,  // measure 84
0010
0010
0010
0000
,  // measure 85
0100
0000
0010
0000
,  // measure 86
0100
0000
0000
0000
,  // measure 87
0010
0000
1000
0000
,  // measure 88
0010
0000
0000
0000
,  // measure 89
0100
0000
0001
0000
,  // measure 90
0100
0000
0000
0000
,  // measure 91
1001
0000
0000
0000
,  // measure 92
0000
0010
0010
0000
,  // measure 93
1001
0000
0000
0000
;
