#VERSION:0.83;
#TITLE:Urban Caravan;
#SUBTITLE:;
#ARTIST:FAKE TYPE.;
#TITLETRANSLIT:;
#SUBTITLETRANSLIT:;
#ARTISTTRANSLIT:;
#GENRE:;
#ORIGIN:;
#CREDIT:;
#BANNER:Urban Caravan.png;
#BACKGROUND:Urban Caravan-bg.png;
#PREVIEWVID:;
#JACKET:Urban Caravan-jacket.png;
#CDIMAGE:;
#DISCIMAGE:;
#LYRICSPATH:;
#CDTITLE:;
#MUSIC:Urban Caravan.ogg;
#OFFSET:-0.021000;
#SAMPLESTART:61.461002;
#SAMPLELENGTH:15.360001;
#SELECTABLE:YES;
#BPMS:0.000=125.000;
#STOPS:;
#DELAYS:;
#WARPS:;
#TIMESIGNATURES:0.000=4=4;
#TICKCOUNTS:0.000=4;
#COMBOS:0.000=1;
#SPEEDS:0.000=1.000=0.000=0;
#SCROLLS:0.000=1.000;
#FAKES:;
#LABELS:0.000=Song Start;
#BGCHANGES:;
#KEYSOUNDS:;
#ATTACKS:
;

//---------------dance-single - ----------------
#NOTEDATA:;
#CHARTNAME:;
#STEPSTYPE:dance-single;
#DESCRIPTION:;
#CHARTSTYLE:;
#DIFFICULTY:Hard;
#METER:85;
#RADARVALUES:0.481405,0.560224,0.466853,0.331042,0.157033,397.000000,342.000000,55.000000,39.000000,0.000000,0.000000,0.000000,0.000000,0.000000,0.481405,0.560224,0.466853,0.331042,0.157033,397.000000,342.000000,55.000000,39.000000,0.000000,0.000000,0.000000,0.000000,0.000000;
#CREDIT:;
#NOTES:
// measure 0
0000
0000
0000
0000
,  // measure 1
0000
0000
0000
0000
,  // measure 2
0000
0000
0000
0000
,  // measure 3
0000
0000
0000
0000
,  // measure 4
0000
0000
0000
0000
,  // measure 5
0000
0000
0000
0000
,  // measure 6
0000
0000
0000
0000
,  // measure 7
0000
0000
0000
1000
1000
0001
0002
0000
,  // measure 8
0013
0100
0010
0001
0100
0010
1000
0001
,  // measure 9
0010
0100
0010
0001
0100
0001
1000
0100
,  // measure 10
1000
0010
0100
0001
0010
0100
0010
0001
,  // measure 11
0000
1000
0010
0100
0001
0010
0200
0000
,  // measure 12
0300
0000
0010
0000
0100
0000
1000
0000
0010
0000
0100
0001
0100
0000
0001
0000
,  // measure 13
0000
0000
1000
0010
1000
0000
0001
0100
0001
0000
0100
0010
0100
0000
0001
0000
,  // measure 14
1000
0000
0000
0001
0010
0000
0001
0000
1000
0000
0010
0000
1000
0000
0001
0000
,  // measure 15
2000
0000
0000
0100
0100
0000
3002
0000
,  // measure 16
0103
0010
1000
0010
0100
0001
0110
0100
,  // measure 17
0010
1001
1000
0010
0101
1010
0000
1000
,  // measure 18
0001
1000
0010
1000
0100
1000
0010
0100
,  // measure 19
0001
0010
0100
0010
0001
1000
0001
0100
,  // measure 20
0000
0000
0001
0100
0001
0000
0001
1000
0001
0000
0001
0010
0001
0000
1000
0000
,  // measure 21
0000
0000
1000
0010
1000
0000
1000
0001
1000
0000
1000
0100
1000
0000
0100
0000
,  // measure 22
0010
0000
0000
0100
0010
0000
0001
1000
0001
0000
0100
0000
0001
0000
0100
0000
,  // measure 23
0020
0000
0130
0110
,  // measure 24
1001
0000
0000
0000
1000
0010
0000
0100
0000
0001
0010
0000
0010
0001
0000
0000
,  // measure 25
1000
0000
0001
0000
0010
0000
0001
0000
0100
0000
0010
0000
1000
0100
0000
0000
,  // measure 26
1000
0001
0100
0001
1000
1000
1000
0000
,  // measure 27
0100
0010
0001
0100
0010
0200
0302
2000
,  // measure 28
3003
0000
0001
0100
0010
0000
0100
0010
1000
0000
0001
0010
0100
0000
0010
0000
,  // measure 29
0000
0000
0100
0010
0001
0000
0010
0100
1000
0000
0100
0010
0001
0000
1000
0000
,  // measure 30
0000
0000
0000
1001
0000
0000
0000
0000
0011
0000
0000
0000
1100
0000
0000
0000
0000
0101
0000
0000
0000
1010
0000
0000
,  // measure 31
0000
0000
1001
0000
0000
1010
0000
0000
0101
0000
0000
0000
0021
0000
0000
0000
,  // measure 32
0130
0000
0010
0001
1000
0000
0001
0000
0200
0000
0000
0000
0310
0000
1000
0000
,  // measure 33
0002
0000
0000
0000
0023
0000
0000
0000
0130
0000
1000
0010
0100
0000
0001
0000
,  // measure 34
1000
0000
0001
0010
0001
0000
1000
0000
0020
0000
0000
0000
0130
0000
0001
0000
,  // measure 35
2000
0000
0000
0000
3200
0000
0000
0000
0310
0000
0100
0010
0001
0000
1000
0000
,  // measure 36
0020
0000
0130
0001
0020
0000
0130
0010
,  // measure 37
0002
0000
0000
0000
2003
0000
0000
0000
3010
0000
0100
0010
0100
0000
0010
0000
,  // measure 38
2000
0000
3100
0010
0001
0100
1000
0010
,  // measure 39
0200
0000
0310
1001
,  // measure 40
0110
0000
0010
1000
0010
0000
0100
0000
0002
0000
0000
0000
0013
0000
0001
0000
,  // measure 41
2000
0000
0000
0000
3002
0000
0000
0000
0103
0000
0010
1000
0100
0000
0010
0000
,  // measure 42
0100
0000
1000
0010
1000
0000
0010
0000
0200
0000
0000
0000
0310
0000
1000
0000
,  // measure 43
0002
0000
0000
0000
0023
0000
0000
0000
0130
0000
0010
0001
1000
0000
0010
0000
,  // measure 44
0200
0000
0301
1000
0200
0000
0310
0100
,  // measure 45
2000
0000
0000
0000
3020
0000
0000
0000
0130
0000
0010
1000
0001
0000
0010
0000
,  // measure 46
0200
0000
0310
0001
0010
1000
0010
0100
,  // measure 47
2000
0000
3001
1001
,  // measure 48
0120
0000
0000
0130
0002
0000
1003
0100
,  // measure 49
0020
0000
0200
0000
0330
0000
0000
0010
,  // measure 50
0011
0000
0000
1000
0001
0100
0010
1000
,  // measure 51
1001
0110
1001
0000
,  // measure 52
0101
1010
0101
1010
,  // measure 53
0011
1100
0011
1100
,  // measure 54
1001
0110
1001
0110
,  // measure 55
0101
1010
0101
1010
,  // measure 56
1100
0110
1100
0110
,  // measure 57
0011
0110
0011
0110
,  // measure 58
0011
1001
1010
1001
,  // measure 59
0110
1001
0110
2002
,  // measure 60
3003
0000
0000
0000
;

//---------------dance-single - ----------------
#NOTEDATA:;
#CHARTNAME:;
#STEPSTYPE:dance-single;
#DESCRIPTION:;
#CHARTSTYLE:;
#DIFFICULTY:Challenge;
#METER:90;
#RADARVALUES:0.509295,0.822511,0.364994,0.390459,0.352262,420.000000,377.000000,43.000000,46.000000,32.000000,0.000000,0.000000,0.000000,0.000000,0.509295,0.822511,0.364994,0.390459,0.352262,420.000000,377.000000,43.000000,46.000000,32.000000,0.000000,0.000000,0.000000,0.000000;
#CREDIT:;
#OFFSET:-0.021000;
#BPMS:0.000000=124.999992
;
#STOPS:62.000000=0.240002
,62.500000=0.240000
,93.000000=0.239998
,93.500000=0.239998
,118.500000=0.320000
,118.666664=0.239998
,118.833336=0.320000
,119.000000=0.239998
,119.166664=0.399998
,119.333336=0.320000
,119.500000=0.239998
,119.666664=0.319998
,151.000000=0.239998
,151.500000=0.240005
,182.000000=0.239998
,182.500000=0.240005
,191.000000=0.479996
,194.000000=0.239998
,194.500000=0.240005
,195.000000=0.480003
;
#DELAYS:;
#WARPS:;
#TIMESIGNATURES:0.000000=4=4
;
#TICKCOUNTS:0.000000=4
;
#COMBOS:0.000000=1
;
#SPEEDS:0.000000=1.000000=0.000000=0
;
#SCROLLS:0.000000=1.000000
;
#FAKES:;
#LABELS:0.000000=Song Start
;
#NOTES:
// measure 0
0000
0000
0000
0000
,  // measure 1
0000
0000
0000
0000
,  // measure 2
0000
0000
0000
0000
,  // measure 3
0000
0000
0000
0000
,  // measure 4
0000
0000
0000
0000
,  // measure 5
0000
0000
0000
0000
,  // measure 6
0000
0000
0000
0000
,  // measure 7
0000
0000
0000
1000
1000
0001
0002
0000
,  // measure 8
0013
0001
0100
0010
1000
0001
0010
0100
,  // measure 9
0010
0000
0001
0000
1000
0000
0010
0000
0100
0000
0001
0100
0010
0100
0001
1000
,  // measure 10
0100
0010
0100
1000
0010
0100
0001
1000
,  // measure 11
0000
0000
0001
0100
0001
0100
0010
1000
0010
1000
0001
0000
2000
0000
0000
0000
,  // measure 12
3010
0000
0100
0000
0001
0000
0010
0100
1000
0000
0100
0010
0001
0000
1000
0000
,  // measure 13
0000
0000
0001
0100
0010
0000
0100
0010
1000
0000
0001
0010
0100
0000
0010
0000
,  // measure 14
0001
0000
0000
1000
0010
0000
0100
0001
0100
0000
0010
0000
0100
0000
0001
0000
,  // measure 15
2000
0000
0000
0000
0000
0000
3000
0000
1010
0000
0101
0001
0010
0000
0100
0000
,  // measure 16
0010
0000
0001
0000
1000
0001
0100
0010
1000
0000
0001
0100
0001
0100
0010
0000
,  // measure 17
0100
0010
1000
0010
0100
0000
1000
0001
1000
0100
0010
0100
1000
0000
0001
0000
,  // measure 18
0100
0001
0010
0001
1000
0100
1000
0001
,  // measure 19
0100
0000
0010
0000
1000
0010
0100
0001
0010
0100
1000
0000
0000
0000
0001
0100
,  // measure 20
0010
0000
0100
0010
1000
0000
0001
0010
0100
0000
0010
0000
0000
0000
0100
0010
,  // measure 21
0001
0000
0010
0100
1000
0000
0100
0010
0001
0000
1000
0000
0010
0000
0000
0100
,  // measure 22
0001
0000
0010
0100
0010
0000
0001
0000
0100
0000
0010
0000
2000
0000
0000
0000
,  // measure 23
0000
0000
3000
0000
1001
0000
0110
0000
1001
0000
0000
0000
0001
0100
0000
1010
,  // measure 24
0000
1000
0001
0000
0001
1000
0000
0000
0100
1000
0010
0100
0001
0010
0100
0010
,  // measure 25
0001
0000
1000
0000
0001
1000
0000
0000
0010
0000
0100
0001
0010
0100
0000
0010
,  // measure 26
0001
1000
0010
0100
0001
0000
0000
0000
1000
0000
0001
0000
0100
0001
0010
0000
,  // measure 27
1100
0000
0200
0000
0320
0000
0002
0000
0033
0000
0010
0001
0100
0000
0010
1000
,  // measure 28
0001
0000
0100
0010
1000
0000
0001
0000
0000
0000
1000
0001
0010
0000
0100
0010
,  // measure 29
0001
0000
0000
0000
0000
0000
0100
0000
0000
0010
0000
0000
1000
0000
0000
0000
0000
0000
0001
0000
0000
0000
0000
0000
0000
0000
0000
0000
0000
0000
1001
0000
1100
0000
1001
0000
0011
0000
1001
0000
0101
0000
1010
0000
1001
0000
0000
0000
,  // measure 30
0120
0000
0000
0030
1001
0000
1000
0001
0100
0000
0001
0000
0010
0000
0100
0000
,  // measure 31
0010
0000
0000
0001
0000
0000
0200
0000
0000
0000
0000
0000
0320
0000
0000
0000
0000
0000
0000
0000
0000
1030
0010
1000
,  // measure 32
0010
0000
1000
0000
0001
0000
1000
0100
1000
0000
0100
0000
0020
0000
0000
0000
,  // measure 33
0130
0000
0000
0000
0000
0000
0010
0000
0000
0000
0000
0000
0002
0000
0000
0000
0000
0000
0000
0000
0000
0000
0000
0000
0200
0000
0000
0000
0000
0000
0000
0000
0000
0000
0000
0000
0000
0000
0000
0303
0000
0000
0001
0000
1000
0000
0001
0000
,  // measure 34
1000
0100
0020
0000
0130
1000
0002
0000
,  // measure 35
0103
0000
0000
0001
0000
0000
0020
0000
0000
0000
0000
0000
0230
0000
0000
0000
0000
0000
1300
0000
0000
0100
0010
0100
,  // measure 36
0010
0001
0100
0000
0010
0100
0001
1000
,  // measure 37
0100
0010
0002
0000
0000
0003
1001
0110
,  // measure 38
1001
0000
0001
1000
0010
0000
1000
0000
0100
0000
0010
0000
0100
0000
1000
0000
,  // measure 39
0020
0000
0000
0000
0000
0000
0230
0000
0000
0000
0000
0000
0000
0000
0000
0301
0100
0001
0100
0000
0000
0001
0000
0000
,  // measure 40
1000
0000
0001
0010
0001
0000
0010
0000
0200
0000
0000
0000
0310
0000
0100
0000
,  // measure 41
2000
0000
0000
0000
0000
0000
0000
0000
0000
0000
0000
0000
0020
0000
0000
0000
0000
0000
0000
0000
0000
0000
0000
0000
0000
0000
0000
3030
0000
0000
1000
0000
0001
0000
1000
0000
0001
0000
0000
0000
0000
0000
0010
0000
0000
0000
0000
0000
,  // measure 42
0200
0000
0310
0001
2000
0000
3010
1000
,  // measure 43
0200
0000
0000
0000
0000
0000
0320
0000
0000
0000
0000
0000
0031
0000
0000
0010
0100
0010
0100
0000
0000
1000
0000
0000
,  // measure 44
0010
0000
0100
0010
1000
0001
0010
0100
,  // measure 45
2000
0000
0000
3000
1001
0110
0002
0000
,  // measure 46
0000
0103
2000
0000
3100
0010
2000
0000
,  // measure 47
0002
0000
0000
0000
3003
0010
1001
0001
,  // measure 48
0010
0100
1000
0001
1001
1010
1001
0000
,  // measure 49
0120
1030
0120
0031
,  // measure 50
0120
1030
0120
0031
,  // measure 51
021M
0000
000M
1300
0000
0000
0210
0000
M000
0301
0000
0000
,  // measure 52
0210
0000
0000
130M
0000
000M
M210
0000
0000
0301
0000
0000
,  // measure 53
0102
M000
0000
0013
0000
0000
210M
0000
0000
3010
0000
0000
,  // measure 54
M102
0013
210M
3010
,  // measure 55
1020
0130
0021
0130
,  // measure 56
MM11
0000
0000
0000
1100
0000
0000
0000
0011
0000
0000
0000
MMMM
MMMM
MMMM
MMMM
,  // measure 57
MMMM
0000
0000
0000
;

//---------------dance-single - ----------------
#NOTEDATA:;
#CHARTNAME:;
#STEPSTYPE:dance-single;
#DESCRIPTION:;
#CHARTSTYLE:;
#DIFFICULTY:Medium;
#METER:50;
#RADARVALUES:0.284962,0.356506,0.220694,0.424412,0.012732,235.000000,209.000000,26.000000,50.000000,0.000000,0.000000,0.000000,0.000000,0.000000,0.284962,0.356506,0.220694,0.424412,0.012732,235.000000,209.000000,26.000000,50.000000,0.000000,0.000000,0.000000,0.000000,0.000000;
#CREDIT:;
#NOTES:
// measure 0
0000
0000
0000
0000
,  // measure 1
0000
0000
0000
0000
,  // measure 2
0000
0000
0000
0000
,  // measure 3
0000
0000
0000
0000
,  // measure 4
0000
0000
0000
0000
,  // measure 5
0000
0000
0000
0000
,  // measure 6
0000
0000
0000
0000
,  // measure 7
0000
0000
0000
0000
,  // measure 8
1000
0010
0100
0001
,  // measure 9
0010
0001
1000
0100
,  // measure 10
1000
0001
0100
0001
,  // measure 11
0010
0000
0001
0000
1000
0001
2000
0000
,  // measure 12
3010
0100
0010
1010
,  // measure 13
1000
0010
0100
0101
,  // measure 14
0011
0001
1100
0001
,  // measure 15
0220
0000
0330
0000
,  // measure 16
0010
0000
1000
0000
0001
1000
0001
0000
,  // measure 17
1000
0010
0100
0001
0100
0010
0000
0000
,  // measure 18
0100
0001
1000
0100
,  // measure 19
1000
0000
0010
0000
0100
0001
0010
0100
,  // measure 20
0000
0010
0001
0101
,  // measure 21
0000
0001
0100
1010
,  // measure 22
1001
1000
1100
0001
,  // measure 23
0202
0000
0303
0000
,  // measure 24
1010
0001
1010
0011
,  // measure 25
0010
0100
1100
0101
,  // measure 26
0001
0000
1000
0000
0010
0100
0010
0000
,  // measure 27
0100
0000
0001
0000
1000
0100
1000
0010
,  // measure 28
0000
0100
0010
1010
,  // measure 29
0000
1000
0001
0011
,  // measure 30
0000
0000
0000
0001
0000
0000
0000
0000
1000
0000
0000
0000
0010
0000
0000
0000
0000
1000
0000
0000
0000
0001
0000
0000
,  // measure 31
0000
0000
0000
1000
0000
0000
0000
0000
0010
0000
0000
0000
0100
0000
0000
0000
0000
0000
0020
0000
0000
0000
0000
0000
,  // measure 32
1030
0000
0000
0010
0100
0000
0010
1000
,  // measure 33
0002
0020
0000
0033
,  // measure 34
0020
0000
0000
0130
1000
0000
0100
1000
,  // measure 35
0020
0200
0000
0330
,  // measure 36
0200
0000
0000
0310
2000
0000
3001
0010
,  // measure 37
0200
0000
2000
0000
0000
0000
3300
0100
,  // measure 38
1000
0000
0010
0100
0001
1000
0001
0010
,  // measure 39
0200
0000
0010
0310
,  // measure 40
1002
0000
0000
1003
0020
0000
1030
0001
,  // measure 41
0020
0200
0000
0330
,  // measure 42
0200
0000
0000
0310
0002
0000
1003
0010
,  // measure 43
0200
0002
0000
0303
,  // measure 44
0002
0000
0000
1003
0020
0000
1030
0100
,  // measure 45
0020
0000
0200
0000
0000
0000
0330
0100
,  // measure 46
0020
0000
0031
0010
0100
0010
0001
1000
,  // measure 47
0020
0000
1000
1030
,  // measure 48
1002
0000
0000
1003
0020
0000
1030
0001
,  // measure 49
0020
0000
0200
0000
0000
0000
0330
0010
,  // measure 50
0110
0000
0000
0100
0010
0001
0100
1000
,  // measure 51
0100
1100
0101
0000
,  // measure 52
0002
1003
2000
3001
,  // measure 53
0002
1003
2000
3001
,  // measure 54
0002
1003
2000
3001
,  // measure 55
0002
1003
2000
3001
,  // measure 56
0200
0310
0020
0130
,  // measure 57
0200
0310
0020
0130
,  // measure 58
0200
0310
0020
0130
,  // measure 59
0110
1001
0110
2002
,  // measure 60
3003
0000
0000
0000
;

//---------------dance-single - ----------------
#NOTEDATA:;
#CHARTNAME:;
#STEPSTYPE:dance-single;
#DESCRIPTION:;
#CHARTSTYLE:;
#DIFFICULTY:Easy;
#METER:30;
#RADARVALUES:0.213419,0.329662,0.110347,0.118835,0.000000,176.000000,163.000000,13.000000,14.000000,0.000000,0.000000,0.000000,0.000000,0.000000,0.213419,0.329662,0.110347,0.118835,0.000000,176.000000,163.000000,13.000000,14.000000,0.000000,0.000000,0.000000,0.000000,0.000000;
#CREDIT:;
#NOTES:
// measure 0
0000
0000
0000
0000
,  // measure 1
0000
0000
0000
0000
,  // measure 2
0000
0000
0000
0000
,  // measure 3
0000
0000
0000
0000
,  // measure 4
0000
0000
0000
0000
,  // measure 5
0000
0000
0000
0000
,  // measure 6
0000
0000
0000
0000
,  // measure 7
0000
0000
0000
0000
,  // measure 8
1000
0001
0010
0001
,  // measure 9
0100
0001
1000
0100
,  // measure 10
1000
0010
0100
0010
,  // measure 11
0000
0100
0001
2000
,  // measure 12
3000
0001
0010
0001
,  // measure 13
0000
1000
0100
1000
,  // measure 14
0001
0100
0010
2000
,  // measure 15
0002
0000
3003
0000
,  // measure 16
0001
1000
0010
1010
,  // measure 17
0010
0000
0100
0000
0001
1000
0000
0000
,  // measure 18
0001
0010
0001
1000
,  // measure 19
0100
1000
0010
0100
,  // measure 20
0001
0010
0100
0000
,  // measure 21
0010
0001
1000
0000
,  // measure 22
0001
1000
0010
0100
,  // measure 23
0020
0000
0030
0000
,  // measure 24
1000
0000
1000
0000
,  // measure 25
0001
0010
0001
0001
,  // measure 26
1000
0001
0100
0010
,  // measure 27
0100
0000
0010
0000
1000
0001
1000
0001
,  // measure 28
0000
1000
0010
0100
,  // measure 29
0000
0010
0100
0001
,  // measure 30
0000
1001
0000
0000
0000
0000
0000
0000
,  // measure 31
0000
0110
0000
0000
0000
0000
2000
0000
,  // measure 32
3001
0000
0010
0001
,  // measure 33
1000
2000
0000
3000
,  // measure 34
0001
0000
1000
0010
,  // measure 35
0100
0200
0000
0300
,  // measure 36
0010
0000
1000
0001
,  // measure 37
0010
0020
0000
0030
,  // measure 38
0001
0010
0100
1000
,  // measure 39
1001
0000
0010
0100
,  // measure 40
1001
0000
0001
0010
,  // measure 41
0001
2000
0000
3000
,  // measure 42
0001
0000
0100
0010
,  // measure 43
1000
0200
0000
0300
,  // measure 44
0010
0000
0100
1000
,  // measure 45
0001
0200
0000
0300
,  // measure 46
0010
1000
0001
0010
,  // measure 47
0110
0000
0100
0010
,  // measure 48
0002
0000
2003
0000
,  // measure 49
0002
0000
3003
0000
,  // measure 50
0010
0000
0100
0001
,  // measure 51
1010
0101
1010
0000
,  // measure 52
0001
1000
0001
1000
,  // measure 53
0001
1000
0001
1000
,  // measure 54
0010
0100
0010
0100
,  // measure 55
0010
0100
0010
0100
,  // measure 56
0001
0100
0010
1000
,  // measure 57
0001
0100
0010
1000
,  // measure 58
0001
0010
0100
1000
,  // measure 59
1001
0110
1001
0110
;

//---------------dance-single - ----------------
#NOTEDATA:;
#CHARTNAME:;
#STEPSTYPE:dance-single;
#DESCRIPTION:;
#CHARTSTYLE:;
#DIFFICULTY:Beginner;
#METER:15;
#RADARVALUES:0.093371,0.152152,0.059418,0.000000,0.000000,77.000000,70.000000,7.000000,0.000000,0.000000,0.000000,0.000000,0.000000,0.000000,0.093371,0.152152,0.059418,0.000000,0.000000,77.000000,70.000000,7.000000,0.000000,0.000000,0.000000,0.000000,0.000000,0.000000;
#CREDIT:;
#NOTES:
0000
0000
0000
0000
,
0000
0000
0000
0000
,
0000
0000
0000
0000
,
0000
0000
0000
0000
,
0000
0000
0000
0000
,
0000
0000
0000
0000
,
0000
0000
0000
0000
,
0000
0000
0000
0000
,
0010
0000
0000
0000
,
1000
0000
0000
0000
,
0001
0000
0000
0000
,
0010
0000
0000
0000
,
0001
0000
0000
0000
,
1000
0000
0000
0000
,
0010
0000
0100
0000
,
0010
0000
0000
0000
,
1000
0000
0000
0000
,
0001
0000
1000
0000
,
0010
0000
0000
0000
,
0100
0000
0000
0000
,
0010
0000
0000
0000
,
1000
0000
0000
0000
,
0001
0000
1000
0000
,
0010
0000
0000
0000
,
0100
0000
0100
0000
,
0010
0000
0000
0000
,
1000
0000
1000
0000
,
0001
0000
0000
0110
,
0000
0100
0000
0000
,
0000
0100
0000
0000
,
0010
0000
0000
0000
,
0000
0000
0000
0000
,
1001
0000
1000
0000
,
1000
0000
0000
0000
,
0001
0000
0001
0000
,
0001
0000
0000
0000
,
0100
0000
0100
0000
,
0100
0000
0000
0000
,
0010
0000
0010
0000
,
0010
0000
0000
0000
,
1001
0000
1000
0000
,
0001
0000
0000
0000
,
0100
0000
0010
0000
,
0100
0000
0000
0000
,
0001
0000
1000
0000
,
0010
0000
0000
0000
,
0100
0000
0001
0000
,
1000
0000
0000
0000
,
1001
0000
0000
0000
,
0110
0000
0000
0000
,
0010
0000
0000
0000
,
0100
0100
0100
0000
,
1001
0000
0000
0000
,
1000
0000
0000
0000
,
0001
0000
0000
0000
,
0100
0000
0000
0000
,
0010
0000
0000
0000
,
1000
0000
0000
0000
,
0001
0000
0000
0000
,
1000
0001
1000
0110
;
