#VERSION:0.83;
#TITLE:Unstoppable;
#SUBTITLE:;
#ARTIST:Zatox;
#TITLETRANSLIT:;
#SUBTITLETRANSLIT:;
#ARTISTTRANSLIT:;
#GENRE:;
#ORIGIN:;
#CREDIT:;
#BANNER:Unstoppable.png;
#BACKGROUND:Unstoppable-bg.png;
#PREVIEWVID:;
#JACKET:Unstoppable-jacket.png;
#CDIMAGE:;
#DISCIMAGE:;
#LYRICSPATH:;
#CDTITLE:;
#MUSIC:Unstoppable.ogg;
#OFFSET:0.002000;
#SAMPLESTART:92.978004;
#SAMPLELENGTH:15.800003;
#SELECTABLE:YES;
#BPMS:0.000=150.000;
#STOPS:128.000=5.600;
#DELAYS:;
#WARPS:;
#TIMESIGNATURES:0.000=4=4;
#TICKCOUNTS:0.000=4;
#COMBOS:0.000=1;
#SPEEDS:0.000=1.000=0.000=0;
#SCROLLS:0.000=1.000;
#FAKES:;
#LABELS:0.000=Song Start;
#BGCHANGES:;
#KEYSOUNDS:;
#ATTACKS:
;

//---------------dance-single - ----------------
#NOTEDATA:;
#CHARTNAME:;
#STEPSTYPE:dance-single;
#DESCRIPTION:;
#CHARTSTYLE:;
#DIFFICULTY:Hard;
#METER:85;
#RADARVALUES:0.492835,0.665812,0.495117,0.159715,0.123779,432.000000,370.000000,62.000000,20.000000,0.000000,0.000000,0.000000,0.000000,0.000000,0.492835,0.665812,0.495117,0.159715,0.123779,432.000000,370.000000,62.000000,20.000000,0.000000,0.000000,0.000000,0.000000,0.000000;
#CREDIT:;
#NOTES:
// measure 0
0000
0000
0000
0000
,  // measure 1
0000
0000
0000
0000
,  // measure 2
0000
0000
0000
0000
,  // measure 3
0000
0000
0000
0000
,  // measure 4
0020
0000
0000
0030
,  // measure 5
1001
1001
0000
0000
,  // measure 6
0200
0000
0000
0300
,  // measure 7
1001
1001
0000
0000
,  // measure 8
0001
0000
0100
0010
1000
0000
0001
0000
,  // measure 9
1000
0000
0100
0010
0001
0000
1000
0000
,  // measure 10
0001
0000
1000
0100
0010
0000
0100
0000
,  // measure 11
1000
0000
0010
0100
0001
0000
1000
0000
,  // measure 12
0010
0100
0001
1000
0010
0100
0001
1000
,  // measure 13
0010
0100
0001
1000
0010
0100
0001
1000
,  // measure 14
0000
0001
0100
0000
1010
0000
0101
0000
,  // measure 15
1000
0000
0000
0000
0100
0000
0010
0000
0000
0000
0000
0000
0001
0000
0000
1000
0000
0000
0001
0000
0000
0000
0000
0000
,  // measure 16
1010
0000
1100
0000
1020
0000
0130
0001
,  // measure 17
1001
0000
0011
0000
0201
0000
0310
1000
,  // measure 18
1001
0000
0000
0000
1010
0000
0000
0000
0021
0000
0000
0000
0130
1000
0000
1000
,  // measure 19
0001
0000
0000
0000
,  // measure 20
0101
0000
1010
0000
0102
0000
0013
0100
,  // measure 21
1100
0000
0011
0000
1200
0000
0310
0001
,  // measure 22
1001
0000
0110
0000
2001
0000
3001
0100
,  // measure 23
0020
0000
0000
0000
1030
0001
1000
0001
2000
0000
0000
0000
0000
0000
3000
0000
,  // measure 24
1001
0000
0101
0000
1020
0000
0130
0001
,  // measure 25
0011
0000
0110
0000
2100
0000
3100
0010
,  // measure 26
0011
0000
1010
0000
0210
0000
0310
1000
,  // measure 27
1001
0002
0000
0000
0000
0000
0000
0003
,  // measure 28
0101
0000
0011
0000
2001
0000
3100
0010
,  // measure 29
0011
0000
1010
0000
0001
1000
0000
1000
,  // measure 30
0001
0000
0000
0100
0000
0010
0000
0000
0100
0000
0001
1000
0001
0000
1000
0001
,  // measure 31
0200
0000
0000
0310
,  // measure 32
1001
0000
1000
1000
,  // measure 33
0001
0001
0100
0100
,  // measure 34
0010
0010
1000
0010
,  // measure 35
0100
0001
0010
0010
,  // measure 36
0002
0000
1000
1000
,  // measure 37
1000
1000
0100
0100
,  // measure 38
0100
0100
0010
0010
,  // measure 39
0010
0010
1000
1000
,  // measure 40
1000
0000
1003
0000
0000
0001
0100
0010
,  // measure 41
1000
0100
0010
0000
0000
0100
1000
0001
,  // measure 42
0100
0010
1000
0000
0000
0001
1000
0010
,  // measure 43
1000
0000
0100
0000
0010
0000
0000
0000
0100
0000
0000
1000
0000
0000
0010
0000
,  // measure 44
0100
0000
0000
0001
0000
0000
1000
0000
0100
0000
1000
0000
0010
0000
0001
0000
,  // measure 45
0010
1000
0001
0000
0000
1000
0100
0001
,  // measure 46
0100
1000
0001
0000
0000
1000
0010
0001
,  // measure 47
0010
1000
0001
0010
0100
0000
1000
0000
,  // measure 48
0002
0000
0103
0000
0001
1000
0001
1000
,  // measure 49
0001
1000
0001
1000
0010
0100
0010
0100
,  // measure 50
0010
0100
0010
0100
0001
1000
0001
1000
,  // measure 51
0010
0100
0010
0100
0001
1000
0010
0100
,  // measure 52
0001
1000
0010
0100
0001
0010
0100
1000
,  // measure 53
0001
0010
0100
1000
0001
0100
0010
1000
,  // measure 54
0001
0000
0000
0100
0000
0000
0010
0000
0000
1000
0000
0000
0001
0000
0000
0000
1000
0000
0010
0000
0000
0000
0000
0000
,  // measure 55
1010
0000
0000
0101
0000
0000
0001
0000
0010
0100
0000
0000
,  // measure 56
1000
0000
0001
0000
1000
0000
0000
0000
0001
0000
0000
0100
0000
0000
0010
0000
,  // measure 57
1000
0000
0100
0000
1000
0000
0001
0000
0010
0000
0000
0001
0000
0000
0100
0000
,  // measure 58
0010
0000
0001
0000
0010
0000
1000
0000
0001
0000
0000
1000
0000
0000
0100
0000
,  // measure 59
1000
0000
0001
0000
0100
0000
0010
0000
1010
0000
0000
0001
0000
0000
1000
0000
,  // measure 60
1100
0000
0000
2000
0000
0000
0000
0000
3100
0000
0000
1000
0000
0000
0100
0000
,  // measure 61
0010
0000
0001
0000
0100
0000
0010
0000
1000
0000
0000
0001
0000
0000
0010
0000
,  // measure 62
0001
0000
0100
0000
1000
0000
0100
0000
0010
0000
0000
1000
0000
0000
0100
0000
,  // measure 63
1000
0000
0001
0000
0010
0000
0001
0000
0100
0000
0000
0100
0000
0000
0100
0000
,  // measure 64
0010
0000
0000
0010
0000
0000
0010
0000
1010
0000
0000
0101
0000
0000
0001
0000
,  // measure 65
0010
0000
0001
0000
1000
0000
0100
0000
0110
0000
0000
1100
0000
0000
0100
0000
,  // measure 66
1000
0000
0010
0000
0100
0000
0001
0000
0011
0000
0000
1010
0000
0000
1000
0000
,  // measure 67
0001
0000
0100
0000
0001
0000
1000
0000
1001
0000
0000
1001
0000
0000
1001
0000
,  // measure 68
0110
0000
0000
0110
0000
0000
0110
0000
1010
0000
0000
0101
0000
0000
0001
0000
,  // measure 69
0010
0000
0001
0000
1000
0000
0100
0000
0110
0000
0000
1100
0000
0000
1000
0000
,  // measure 70
0010
0000
0001
0000
0010
0000
0100
0000
0110
0000
0000
1010
0000
0000
1000
0000
,  // measure 71
0010
0100
0001
0010
0200
0000
0000
0000
,  // measure 72
0000
0000
0310
0000
;

//---------------dance-single - ----------------
#NOTEDATA:;
#CHARTNAME:;
#STEPSTYPE:dance-single;
#DESCRIPTION:;
#CHARTSTYLE:;
#DIFFICULTY:Challenge;
#METER:95;
#RADARVALUES:0.565848,0.909178,0.447202,0.167701,0.335402,496.000000,438.000000,56.000000,21.000000,0.000000,7.000000,6.000000,0.000000,0.000000,0.565848,0.909178,0.447202,0.167701,0.335402,496.000000,438.000000,56.000000,21.000000,0.000000,7.000000,6.000000,0.000000,0.000000;
#CREDIT:;
#OFFSET:0.002000;
#BPMS:0.000000=75.000000
,16.000000=150.000000
,53.000000=75.000000
,55.000000=150.000000
,67.000000=75.000000
,69.000000=150.000000
,81.000000=75.000000
,83.000000=150.000000
,165.000000=300.000000
,213.000000=150.000000
,242.000000=75.000000
,244.000000=150.000000
;
#STOPS:40.000000=2.799999
,99.000000=5.600000
,213.000000=2.800003
;
#DELAYS:;
#WARPS:;
#TIMESIGNATURES:0.000000=4=4
;
#TICKCOUNTS:0.000000=4
;
#COMBOS:0.000000=1
;
#SPEEDS:0.000000=1.000000=0.000000=0
;
#SCROLLS:0.000000=1.000000
;
#FAKES:;
#LABELS:0.000000=Song Start
;
#NOTES:
// measure 0
0000
0000
0000
0000
,  // measure 1
0000
0000
0000
0000
,  // measure 2
2002
0000
0000
0000
0010
0010
0000
3003
,  // measure 3
2002
0000
0000
0000
0010
0010
0000
3003
,  // measure 4
1000
0001
0010
0001
1000
0001
0010
0001
,  // measure 5
1000
0001
0010
0001
1000
0001
0010
0001
,  // measure 6
1000
0010
0100
0010
1000
0010
0100
0010
,  // measure 7
1000
0010
0100
0010
1000
0010
0100
0010
,  // measure 8
1000
0001
1000
0001
1000
0001
1000
0001
1000
0001
1000
0001
1000
0001
1000
0001
,  // measure 9
0100
0010
0100
0010
0100
0010
0100
0010
0100
0010
0100
0010
0100
0010
0100
0010
,  // measure 10
0100
0000
0010
0000
1000
0100
0020
0000
,  // measure 11
0130
1000
0010
0100
0001
0000
0000
0000
1000
0000
0001
0010
0200
0000
0000
0000
,  // measure 12
0310
0001
1000
0010
0100
0000
0000
0000
0010
0000
1000
0000
0200
0000
0000
0000
,  // measure 13
0310
0100
1000
0001
1000
0010
0100
0000
0010
1000
0001
0000
0100
0000
0000
0000
,  // measure 14
0001
0000
1000
0000
0200
0000
0000
0000
0310
0001
0100
0010
1000
0000
0000
0000
,  // measure 15
0001
0000
1000
0001
0200
0000
0000
0000
0310
0100
0001
1000
0100
0000
0000
0000
,  // measure 16
0010
0000
0000
0000
0001
0000
0000
0000
0200
0000
0000
0000
0000
0000
0000
0000
0310
0000
1000
0000
0001
0000
0010
0000
0200
0000
0000
0000
0301
1000
0001
1000
,  // measure 17
0002
0010
1003
0000
0100
0010
0002
0000
,  // measure 18
0103
0001
1000
0010
0100
0000
0000
0000
0010
0000
1000
0100
0020
0000
0000
0000
,  // measure 19
0130
1000
0001
0100
0010
0000
0000
0000
0100
0000
0001
0000
0020
0000
0000
0000
,  // measure 20
0130
0000
0010
0000
0001
0000
1000
0000
0040
0400
0000
0000
0000
0000
0000
0000
0000
0000
0000
0000
0330
0000
0000
0000
1000
0000
0000
0000
0000
0000
0000
0000
,  // measure 21
0001
0000
1000
0000
0200
0000
0000
0000
0310
0001
1000
0100
0010
0000
0000
0000
,  // measure 22
0100
0000
0010
0001
0200
0000
0310
0000
0000
0000
1000
0000
0001
0000
0000
1100
,  // measure 23
0000
0011
0000
0000
1000
0000
0001
1000
0001
0000
1000
0001
0200
0000
0000
0000
,  // measure 24
0000
0000
0310
1101
,  // measure 25
0000
1000
1000
0001
,  // measure 26
0001
0100
0100
0010
,  // measure 27
0010
0000
0000
0100
0010
1000
0001
0010
,  // measure 28
1000
0010
0001
0000
0010
0000
4004
0000
,  // measure 29
0000
0000
0000
0000
,  // measure 30
0000
0000
0000
0000
,  // measure 31
0000
0000
0000
0000
,  // measure 32
0000
0000
0000
0000
,  // measure 33
3003
0000
0000
0000
0001
0000
0000
1000
0000
0000
0010
0000
0100
0000
0001
0000
,  // measure 34
1000
0000
0100
0000
0010
0000
0000
0100
0000
0000
1000
0000
0010
0000
0001
0000
,  // measure 35
0010
0000
0100
0000
0001
0000
0000
0100
0000
0000
0010
0000
1000
0000
0100
0000
,  // measure 36
0010
0000
0100
0000
1100
0000
0000
1000
0000
0000
0100
0000
0110
0000
0000
0010
,  // measure 37
0000
0000
0001
0000
1001
0000
0000
1000
0000
0000
0001
0000
1000
0000
0010
0000
,  // measure 38
1000
0000
0100
0000
0010
0000
0000
0100
0000
0000
0010
0000
0001
0000
0100
0000
,  // measure 39
1000
0000
0100
0000
0010
0000
0000
1000
0000
0000
0010
0000
0100
0000
0001
0000
,  // measure 40
0010
0100
2000
0000
0002
0000
0010
0000
,  // measure 41
3003
0001
1000
0001
,  // measure 42
1000
0001
1000
0001
,  // measure 43
1000
0010
0100
0010
,  // measure 44
0100
0010
0100
0010
,  // measure 45
0100
0001
0100
0010
,  // measure 46
1000
0001
0100
0010
,  // measure 47
1000
0001
0010
0100
,  // measure 48
1000
0001
0010
0100
,  // measure 49
1000
0000
0001
1000
0001
1000
0001
1000
,  // measure 50
0001
1000
0001
1000
0001
1000
0001
1000
,  // measure 51
0001
1000
0001
0010
0100
0010
0100
0010
,  // measure 52
0100
0010
0100
0010
0100
0010
0100
0010
,  // measure 53
0100
0000
0010
0000
0100
0000
0000
0000
0011
0000
0000
0001
0000
0000
0100
0000
,  // measure 54
0101
0000
0001
0000
1001
0000
1000
0000
1100
0000
0000
0100
0000
0000
0010
0000
,  // measure 55
0110
0000
0100
0000
1100
0000
1000
0000
1001
0000
0000
0001
0000
0000
0100
0000
,  // measure 56
0101
0000
0001
0000
0011
0000
0010
0000
0110
0000
0000
0011
0000
0000
0110
0000
,  // measure 57
1100
0000
0000
0040
0400
0000
0330
0000
1001
0000
0000
0001
0000
0000
1000
0000
,  // measure 58
1010
0000
1000
0000
1001
0000
0001
0000
0011
0000
0000
0010
0000
0000
0100
0000
,  // measure 59
1100
0000
1000
0000
1010
0000
0010
0000
0110
0000
0000
0100
0000
0000
0010
0000
,  // measure 60
1010
0000
0000
0000
1000
0000
0000
0000
1001
0000
0000
0000
0001
0000
0000
0000
0011
0000
0000
0001
0000
0000
0100
0000
1000
0000
0000
0100
0000
0000
0010
0000
,  // measure 61
1000
0000
0010
0100
0000
0001
0010
0000
0110
0000
0010
0000
0011
0000
0001
0000
,  // measure 62
1001
0000
0001
0100
0000
0010
1000
0000
1100
0000
0100
0000
0110
0000
0010
0000
,  // measure 63
0011
0000
0001
0010
0000
0100
1000
0000
1001
0000
1000
0000
1001
0000
0001
0000
,  // measure 64
0101
0000
0000
1010
0000
0000
1100
0000
0110
0000
0000
0011
0000
0000
0101
0000
,  // measure 65
1001
0000
0001
0100
0000
0100
0010
0000
0101
0000
0001
0000
0011
0000
0010
0000
,  // measure 66
0110
0000
0100
0010
0000
0010
0001
0000
1001
0000
1000
0000
1010
0000
0010
0000
,  // measure 67
0110
0000
0100
0001
0000
0001
1000
0000
1001
0000
0001
0000
0011
0000
0010
0000
,  // measure 68
0200
0000
0000
0300
,  // measure 69
1011
0000
0000
0000
;

//---------------dance-single - ----------------
#NOTEDATA:;
#CHARTNAME:;
#STEPSTYPE:dance-single;
#DESCRIPTION:;
#CHARTSTYLE:;
#DIFFICULTY:Medium;
#METER:65;
#RADARVALUES:0.373049,0.521070,0.702746,0.175687,0.007986,327.000000,239.000000,88.000000,22.000000,0.000000,0.000000,0.000000,0.000000,0.000000,0.373049,0.521070,0.702746,0.175687,0.007986,327.000000,239.000000,88.000000,22.000000,0.000000,0.000000,0.000000,0.000000,0.000000;
#CREDIT:;
#NOTES:
// measure 0
0000
0000
0000
0000
,  // measure 1
0000
0000
0000
0000
,  // measure 2
0000
0000
0000
0000
,  // measure 3
0000
0000
0000
0000
,  // measure 4
1002
0000
0000
0000
,  // measure 5
0010
0013
0000
0000
,  // measure 6
2001
0000
0000
0000
,  // measure 7
0010
3010
0000
0000
,  // measure 8
1000
0010
0100
0001
,  // measure 9
1000
0010
0100
0001
,  // measure 10
1000
0100
0010
0001
,  // measure 11
1000
0100
0010
0001
,  // measure 12
1000
0000
0001
0100
0010
0000
0100
0010
,  // measure 13
1000
0000
0001
0010
0100
0000
0010
0001
,  // measure 14
1000
0000
0000
0000
,  // measure 15
0000
0000
0000
0000
,  // measure 16
1001
1001
1001
1001
,  // measure 17
0110
0000
0110
0000
0110
0000
0100
0010
,  // measure 18
1010
1010
1010
1010
,  // measure 19
0202
0000
0000
0303
,  // measure 20
0011
0011
0011
0011
,  // measure 21
1010
1010
1010
1010
,  // measure 22
1001
1001
1001
1001
,  // measure 23
0220
0000
0000
0330
,  // measure 24
1010
1010
1010
1010
,  // measure 25
0101
0000
0101
0000
0101
0000
0001
0100
,  // measure 26
0110
0110
0110
0110
,  // measure 27
0010
2000
0000
0000
0000
0000
3000
0000
,  // measure 28
1100
1100
1100
1100
,  // measure 29
0011
0000
0011
0000
0001
0010
0000
0000
,  // measure 30
1001
0000
0000
0010
0000
0100
0000
0000
0110
0000
0000
0000
1001
0000
0000
0000
,  // measure 31
0220
0000
0000
0330
,  // measure 32
1001
0000
1000
0001
,  // measure 33
1000
0001
1000
0001
,  // measure 34
1000
0001
1000
0100
,  // measure 35
0010
0001
0101
1010
,  // measure 36
0202
0000
0000
0000
,  // measure 37
0000
0000
0000
0000
,  // measure 38
0000
0000
0000
0000
,  // measure 39
0000
0000
0000
0000
,  // measure 40
0000
0303
0001
1000
,  // measure 41
0010
0100
0010
0000
1000
0000
0001
0000
,  // measure 42
0010
0100
0010
0000
0001
0000
0100
0000
,  // measure 43
0010
1000
0010
0000
1000
0000
0100
0000
,  // measure 44
0001
0100
1000
0010
,  // measure 45
0100
0001
0100
0000
0001
0000
0010
0000
,  // measure 46
0100
1000
0100
0000
1000
0000
0001
0000
,  // measure 47
0100
0010
0100
0000
0110
0000
1010
0000
,  // measure 48
0101
0000
2001
0001
,  // measure 49
0001
3001
1002
1000
,  // measure 50
1000
1003
0120
0100
,  // measure 51
0100
0130
0210
0010
,  // measure 52
0010
0310
1020
1000
,  // measure 53
1000
1030
0201
0001
,  // measure 54
0001
0301
1001
0000
,  // measure 55
0000
0000
0000
0000
,  // measure 56
0000
0000
1001
1010
,  // measure 57
1000
0010
0100
0000
0101
0000
0011
0000
,  // measure 58
0010
0100
1000
0000
1100
0000
0101
0000
,  // measure 59
0001
0100
0010
0000
1010
0000
0000
0000
,  // measure 60
0101
0000
1001
0011
,  // measure 61
0010
0100
1000
0000
1100
0000
1010
0000
,  // measure 62
0010
0100
0001
0000
1001
0000
0011
0000
,  // measure 63
0001
0100
0010
0000
2000
0000
0000
0000
,  // measure 64
3002
0003
0101
0011
,  // measure 65
0010
0100
1000
0000
0110
0000
0011
0000
,  // measure 66
0010
0100
1000
0000
1100
0000
1010
0000
,  // measure 67
0010
0100
0001
0000
2000
0000
3001
0000
,  // measure 68
0002
1003
0101
1010
,  // measure 69
1000
0010
0100
0000
0110
0000
1010
0000
,  // measure 70
1000
0100
0010
0000
0011
0000
0101
0000
,  // measure 71
0001
0100
0010
0000
0200
0000
0000
0000
,  // measure 72
0000
0000
0310
0000
;

//---------------dance-single - ----------------
#NOTEDATA:;
#CHARTNAME:;
#STEPSTYPE:dance-single;
#DESCRIPTION:;
#CHARTSTYLE:;
#DIFFICULTY:Easy;
#METER:30;
#RADARVALUES:0.205348,0.289484,0.047915,0.191658,0.000000,180.000000,174.000000,6.000000,24.000000,0.000000,0.000000,0.000000,0.000000,0.000000,0.205348,0.289484,0.047915,0.191658,0.000000,180.000000,174.000000,6.000000,24.000000,0.000000,0.000000,0.000000,0.000000,0.000000;
#CREDIT:;
#NOTES:
// measure 0
0000
0000
0000
0000
,  // measure 1
0000
0000
0000
0000
,  // measure 2
0000
0000
0000
0000
,  // measure 3
0000
0000
0000
0000
,  // measure 4
0000
0000
0000
0000
,  // measure 5
1001
1001
0000
0000
,  // measure 6
0000
0000
0000
0000
,  // measure 7
0110
0110
0000
0000
,  // measure 8
1000
0000
0100
0000
,  // measure 9
0010
0000
0001
0000
,  // measure 10
1000
0000
0100
0000
,  // measure 11
0010
0000
0001
0000
,  // measure 12
1000
0100
0010
0001
,  // measure 13
1000
0100
0010
0001
,  // measure 14
1001
0000
0000
0000
,  // measure 15
0000
0000
0000
0000
,  // measure 16
0001
0100
0020
0000
,  // measure 17
0130
0001
2000
0000
,  // measure 18
3001
0010
0200
0000
,  // measure 19
0310
0000
0000
0000
,  // measure 20
0100
0010
0002
0000
,  // measure 21
1003
0001
0200
0000
,  // measure 22
0310
1000
0200
0000
,  // measure 23
0310
0001
2000
0000
,  // measure 24
3001
0100
0020
0000
,  // measure 25
0130
0001
2000
0000
,  // measure 26
3100
1000
0020
0000
,  // measure 27
0200
0000
0000
0330
,  // measure 28
0010
1000
0002
0000
,  // measure 29
0013
0100
2000
0000
,  // measure 30
3100
1000
0010
0100
,  // measure 31
0002
0000
0000
0013
,  // measure 32
1001
0000
1000
0000
,  // measure 33
1000
0000
0001
0000
,  // measure 34
0001
0000
0100
0000
,  // measure 35
0010
0000
0100
0010
,  // measure 36
2000
0000
0001
0000
,  // measure 37
0001
0000
0001
0000
,  // measure 38
0001
0000
0001
0000
,  // measure 39
0001
0000
0001
0000
,  // measure 40
3001
0000
0000
1000
,  // measure 41
0010
0100
0000
0010
,  // measure 42
1000
0001
0000
0010
,  // measure 43
0100
1000
0000
0100
,  // measure 44
0010
0001
0000
1000
,  // measure 45
0001
0010
0000
0100
,  // measure 46
0010
0001
0000
1000
,  // measure 47
0001
0100
0010
1000
,  // measure 48
0010
0000
0200
0000
,  // measure 49
0000
0000
0302
0000
,  // measure 50
0000
0000
0023
0000
,  // measure 51
0000
0000
0230
0000
,  // measure 52
0000
0000
2300
0000
,  // measure 53
0000
0000
3200
0000
,  // measure 54
0000
0000
0310
0000
,  // measure 55
0000
0000
0000
0000
,  // measure 56
0000
0000
0001
1000
,  // measure 57
0010
0100
0001
1000
,  // measure 58
0010
0000
0100
0010
0100
0000
0001
0000
,  // measure 59
0010
0001
1000
0000
,  // measure 60
0001
0000
0100
0010
,  // measure 61
1000
0010
0100
0001
,  // measure 62
0010
0000
0100
0010
0100
0000
0010
0000
,  // measure 63
0001
1000
0020
0000
,  // measure 64
2030
0000
3001
0010
,  // measure 65
0001
1000
0100
1000
,  // measure 66
0010
0000
0100
0001
0100
0000
0001
0000
,  // measure 67
0010
0001
1000
0000
,  // measure 68
0001
0000
0100
0010
,  // measure 69
1000
0010
0100
0001
,  // measure 70
0010
0000
0100
0010
0100
0000
0010
0000
,  // measure 71
0001
1000
0002
0000
,  // measure 72
0000
0000
0013
0000
;

//---------------dance-single - ----------------
#NOTEDATA:;
#CHARTNAME:;
#STEPSTYPE:dance-single;
#DESCRIPTION:;
#CHARTSTYLE:;
#DIFFICULTY:Beginner;
#METER:15;
#RADARVALUES:0.094688,0.173690,0.063886,0.000000,0.000000,83.000000,75.000000,8.000000,0.000000,0.000000,0.000000,0.000000,0.000000,0.000000,0.094688,0.173690,0.063886,0.000000,0.000000,83.000000,75.000000,8.000000,0.000000,0.000000,0.000000,0.000000,0.000000,0.000000;
#CREDIT:;
#NOTES:
// measure 0
0000
0000
0000
0000
,  // measure 1
0000
0000
0000
0000
,  // measure 2
0000
0000
0000
0000
,  // measure 3
0000
0000
0000
0000
,  // measure 4
0000
0000
0000
0000
,  // measure 5
0010
0010
0000
0000
,  // measure 6
0000
0000
0000
0000
,  // measure 7
0010
0010
0000
0000
,  // measure 8
1000
0000
0000
0000
,  // measure 9
0100
0000
0000
0000
,  // measure 10
0010
0000
0000
0000
,  // measure 11
0001
0000
0000
0000
,  // measure 12
1000
0000
0001
0000
,  // measure 13
0100
0000
0010
0000
,  // measure 14
1001
0000
0000
0000
,  // measure 15
0000
0000
0000
0000
,  // measure 16
0000
0000
1000
0000
,  // measure 17
0000
0000
1000
0000
,  // measure 18
0000
0000
1000
0000
,  // measure 19
0001
0000
0000
0000
,  // measure 20
0000
0000
0100
0000
,  // measure 21
0000
0000
0100
0000
,  // measure 22
0000
0000
0100
0000
,  // measure 23
0010
0000
0000
0000
,  // measure 24
0000
0000
1000
0000
,  // measure 25
0000
0000
0001
0000
,  // measure 26
0000
0000
0010
0000
,  // measure 27
0100
0000
0000
0000
,  // measure 28
0000
0000
0010
0000
,  // measure 29
0000
0000
0001
0000
,  // measure 30
1000
0000
0001
0000
,  // measure 31
0100
0000
0000
0000
,  // measure 32
1001
0000
1000
0000
,  // measure 33
0000
0000
1000
0000
,  // measure 34
0000
0000
0001
0000
,  // measure 35
0000
0000
0001
0000
,  // measure 36
0000
0000
0100
0000
,  // measure 37
0000
0000
0100
0000
,  // measure 38
0000
0000
0010
0000
,  // measure 39
0000
0000
0010
0000
,  // measure 40
0000
0000
1000
0000
,  // measure 41
0000
0000
0001
0000
,  // measure 42
0000
0000
1000
0000
,  // measure 43
0000
0000
0010
0000
,  // measure 44
0100
0000
0010
0000
,  // measure 45
0000
0000
1000
0000
,  // measure 46
0000
0000
0001
0000
,  // measure 47
0000
0000
1000
0000
,  // measure 48
0001
0000
0110
0000
,  // measure 49
0000
0000
0010
0000
,  // measure 50
0000
0000
1000
0000
,  // measure 51
0000
0000
0001
0000
,  // measure 52
0000
0000
0100
0000
,  // measure 53
0000
0000
0010
0000
,  // measure 54
0000
0000
1001
0000
,  // measure 55
0000
0000
0000
0000
,  // measure 56
0000
0000
1000
0000
,  // measure 57
0000
0000
0001
0000
,  // measure 58
0000
0000
1000
0000
,  // measure 59
0000
0000
0010
0000
,  // measure 60
0100
0000
0001
0000
,  // measure 61
0000
0000
0010
0000
,  // measure 62
0000
0000
0001
0000
,  // measure 63
0000
0000
1000
0000
,  // measure 64
0000
0000
1001
0000
,  // measure 65
0000
0000
0010
0000
,  // measure 66
0000
0000
0100
0000
,  // measure 67
0000
0000
0001
0000
,  // measure 68
1000
0000
0110
0000
,  // measure 69
0000
0000
0100
0000
,  // measure 70
0000
0000
0010
0000
,  // measure 71
0000
0000
1001
0000
,  // measure 72
0000
0000
0110
0000
;
