#VERSION:0.83;
#TITLE:The Feelings;
#SUBTITLE:;
#ARTIST:Supbaby;
#TITLETRANSLIT:;
#SUBTITLETRANSLIT:;
#ARTISTTRANSLIT:;
#GENRE:;
#ORIGIN:;
#CREDIT:;
#BANNER:The Feelings.png;
#BACKGROUND:The Feelings-bg.png;
#PREVIEWVID:;
#JACKET:The Feelings-jacket.png;
#CDIMAGE:;
#DISCIMAGE:;
#LYRICSPATH:;
#CDTITLE:;
#MUSIC:The Feelings.mp3;
#OFFSET:-2.142001;
#SAMPLESTART:46.397690;
#SAMPLELENGTH:14.769230;
#SELECTABLE:YES;
#BPMS:0.000=130.000;
#STOPS:;
#DELAYS:;
#WARPS:;
#TIMESIGNATURES:0.000=4=4;
#TICKCOUNTS:0.000=4;
#COMBOS:0.000=1;
#SPEEDS:0.000=1.000=0.000=0;
#SCROLLS:0.000=1.000;
#FAKES:;
#LABELS:0.000=Song Start;
#BGCHANGES:;
#KEYSOUNDS:;
#ATTACKS:
;

//---------------dance-single - ----------------
#NOTEDATA:;
#CHARTNAME:;
#STEPSTYPE:dance-single;
#DESCRIPTION:;
#CHARTSTYLE:;
#DIFFICULTY:Hard;
#METER:70;
#RADARVALUES:0.371096,0.472527,0.079928,0.327706,0.127885,325.000000,315.000000,10.000000,41.000000,0.000000,0.000000,0.000000,0.000000,0.000000,0.371096,0.472527,0.079928,0.327706,0.127885,325.000000,315.000000,10.000000,41.000000,0.000000,0.000000,0.000000,0.000000,0.000000;
#CREDIT:;
#NOTES:
// measure 0
0000
0000
0000
0000
,  // measure 1
0000
0000
0000
0000
,  // measure 2
0000
0000
0000
0000
,  // measure 3
0000
0000
0000
0000
,  // measure 4
1000
0000
0010
0200
0000
0000
0310
2000
,  // measure 5
0000
3001
0010
0002
0000
0000
1003
0010
,  // measure 6
0000
1000
0001
0000
0010
0000
0001
0100
,  // measure 7
0000
0001
1000
0000
0100
0000
1001
0000
,  // measure 8
0000
1000
0010
0000
0100
0000
0010
0100
,  // measure 9
0000
0001
0010
0001
0010
0000
1001
0000
,  // measure 10
0001
1000
0001
0000
0100
0000
0010
1000
,  // measure 11
0000
0000
0010
0000
0100
0000
0001
0000
1000
0000
0000
1000
0000
0000
0000
0000
,  // measure 12
0000
0000
0001
0000
0100
0000
0010
1000
,  // measure 13
0000
0100
0010
0001
0000
0000
1001
0001
,  // measure 14
0010
0100
0000
0010
0000
0000
0100
0010
,  // measure 15
0001
0100
0000
0010
0000
0000
0100
0001
,  // measure 16
2000
0000
3100
0000
1000
0000
0010
0100
,  // measure 17
0002
0013
0100
0010
,  // measure 18
0002
0000
0103
0000
0010
0000
0100
0001
,  // measure 19
2000
3100
0010
0100
,  // measure 20
2000
0000
3010
0000
0100
0000
0010
0100
,  // measure 21
0002
0013
0100
0010
,  // measure 22
0002
0000
0013
0000
0100
0000
0010
0001
,  // measure 23
2000
0000
0000
0000
3000
0000
0000
0001
0100
0000
0000
0010
0000
0000
1000
0000
,  // measure 24
0001
0000
1000
0020
0000
0000
0130
0002
,  // measure 25
0000
0000
0013
0200
0000
0000
0300
0000
,  // measure 26
2000
3200
0320
0230
,  // measure 27
2300
0000
3002
0000
1003
0100
0001
0100
,  // measure 28
0010
0000
0001
2000
0000
0000
3100
0020
,  // measure 29
0000
0130
0010
0002
0000
0000
0003
0000
,  // measure 30
2000
0000
3020
0000
0031
0020
0000
0230
,  // measure 31
0000
0310
0100
1000
0100
0001
0010
0100
,  // measure 32
1000
0000
0000
0010
0000
0000
0100
0000
0001
0000
0000
0000
0000
0000
0000
0000
,  // measure 33
0010
0000
0001
0000
0000
1000
0000
0000
0001
0000
0000
0000
0000
0000
0000
0000
,  // measure 34
0100
0001
0100
0010
0100
1000
0100
0010
,  // measure 35
1000
0001
0010
0001
1000
0100
0010
0000
,  // measure 36
0100
0000
0000
0010
0000
0000
0001
0000
1000
0000
0000
0000
0000
0000
0000
0000
,  // measure 37
0010
1000
0100
1000
0001
0000
0000
0000
,  // measure 38
0100
0010
1000
0010
0100
0001
0010
0100
,  // measure 39
0010
0001
1000
0010
0100
0001
1000
0010
,  // measure 40
1002
0000
0000
1003
0000
0000
0000
0000
,  // measure 41
0000
0000
0000
0000
0000
0000
0000
0000
0000
0000
0001
0000
0000
0001
0000
0000
,  // measure 42
0000
0000
0000
0100
0000
0000
0010
0000
1000
0000
0000
0001
0000
0000
0001
0000
,  // measure 43
0000
0000
0000
0000
0000
0000
0010
0100
,  // measure 44
2000
0000
0000
3010
0000
0000
0000
0000
,  // measure 45
0100
0010
1000
0000
0000
0000
0102
0000
,  // measure 46
1003
0001
0020
0000
0000
0000
0000
0000
,  // measure 47
0130
0010
0010
0000
0010
0010
0100
1000
,  // measure 48
0001
0000
1000
0000
0010
0000
0000
0000
1000
0000
0000
0100
0000
0000
1000
0000
,  // measure 49
0000
0001
0010
0000
0001
0000
1001
0000
,  // measure 50
1000
0000
0001
0000
0100
0000
0000
0000
0001
0000
0000
0100
0000
0000
0010
0000
,  // measure 51
0000
1000
0100
0000
0010
0000
0110
0000
,  // measure 52
0100
0000
1000
0000
0010
0000
0000
0000
0100
0000
0000
0001
0000
0000
0010
0000
,  // measure 53
0000
0001
1000
0000
0010
0000
1001
0000
,  // measure 54
0001
1000
0010
1000
0001
0100
0001
1000
,  // measure 55
0010
0100
0001
0010
0100
0010
0001
1000
,  // measure 56
0100
1000
0001
0000
0100
0000
0020
0000
,  // measure 57
2030
0000
0000
0000
3001
1000
0000
0200
0000
0000
0000
0000
0310
0000
0001
0000
,  // measure 58
0010
0001
1000
0000
0100
0000
1000
0020
,  // measure 59
0000
0000
0000
0000
0000
0000
0130
0000
0000
0000
0000
0000
0001
0000
0000
0000
1000
0000
0000
0000
0100
0000
0000
0000
0020
0000
0000
0000
0000
0000
0000
0000
0000
0032
0000
0000
0000
0000
0000
0000
0000
0000
0000
0000
0000
0000
0000
0000
,  // measure 60
1003
0000
0001
0000
1000
0000
0000
0000
0100
0000
0000
1000
0000
0000
0001
0000
,  // measure 61
1000
0001
0100
0010
1000
0001
0010
0001
0100
0010
2000
0000
,  // measure 62
0000
0000
0000
0000
0000
0000
3001
1000
0100
1000
0001
0100
,  // measure 63
0020
0000
0000
0000
2030
0000
0000
0000
3100
0000
0100
0020
0000
0000
0000
0000
,  // measure 64
0030
0000
0100
0000
0010
0000
0000
0000
0001
0000
0000
0100
0000
0000
1000
0000
,  // measure 65
0000
0000
1000
0000
0100
0000
0001
0000
1001
0000
0000
0110
0000
0000
0000
0000
;

//---------------dance-single - ----------------
#NOTEDATA:;
#CHARTNAME:;
#STEPSTYPE:dance-single;
#DESCRIPTION:;
#CHARTSTYLE:;
#DIFFICULTY:Medium;
#METER:50;
#RADARVALUES:0.334557,0.446275,0.271757,0.319714,0.011989,293.000000,259.000000,34.000000,40.000000,0.000000,0.000000,0.000000,0.000000,0.000000,0.334557,0.446275,0.271757,0.319714,0.011989,293.000000,259.000000,34.000000,40.000000,0.000000,0.000000,0.000000,0.000000,0.000000;
#CREDIT:;
#NOTES:
0000
0000
0000
0000
,
0000
0000
0000
0000
,
0000
0000
0000
0000
,
0000
0000
0000
0000
,
0001
0000
1000
0002
0000
0000
0013
2000
,
0000
3100
0010
0002
0000
0000
1003
0010
,
0000
0010
0100
0000
0010
0000
1000
0001
,
0000
0010
0100
0000
1000
0001
1000
0000
,
0000
0000
0100
0000
0010
1000
0000
0010
,
0000
0100
0000
0000
0000
0000
1001
0000
,
0001
0010
0000
0001
0000
1000
0000
0000
,
0000
0010
0100
0010
0000
0000
0000
0000
,
0000
0000
0100
0000
0001
0000
1000
0010
,
0000
0100
0001
0010
0000
0000
1001
0001
,
1000
0001
0000
0100
0000
0000
0001
1000
,
0001
1000
0000
0010
0000
0000
0000
0100
,
0002
0000
0013
0000
0100
0000
0010
0001
,
2000
3001
0100
0010
,
2000
0000
3100
0000
0010
0000
0001
0100
,
0020
1030
0010
0100
,
0002
0000
1003
0000
0100
0000
1000
0010
,
0200
0301
0010
0100
,
2000
0000
3100
0000
1000
0000
0010
0100
,
0001
0000
0000
0000
0000
0000
0000
0000
1000
0000
0000
0001
0000
0000
0100
0000
,
0010
0000
1000
0020
0000
0000
1030
0002
,
0000
0000
0013
0200
0000
0000
0300
0000
,
2000
3200
0320
0032
,
0203
0000
0320
0000
0130
0010
1000
0001
,
0010
0000
0100
0020
0000
0000
0031
0200
,
0000
0310
1000
0002
0000
0000
0003
0000
,
2000
0000
3200
0000
0310
0002
0000
0203
,
0000
0310
0100
0001
1000
0100
0010
0001
,
1000
0001
1001
0000
,
0001
0100
1010
0000
,
0101
0101
1100
1100
,
1001
0011
1010
1001
,
0001
1000
1100
0000
,
1000
0001
0101
0000
,
0011
0011
1100
1100
,
1001
0000
0110
0000
1010
0000
0010
0100
,
0002
0000
0003
0000
,
0000
0000
0000
0000
0000
0010
0000
0000
,
0000
0100
0010
0001
,
1000
0000
0000
0000
0000
0000
0010
0100
,
2002
0000
3003
0000
,
0001
1000
0020
0000
0000
0000
0130
0000
,
0001
0010
0200
0000
0000
0000
0000
0000
,
0310
0001
0010
0000
0010
0001
0010
0000
,
0001
1000
0010
0000
1000
0000
0001
0000
,
0100
0001
0010
1001
,
0001
1000
0100
0000
1000
0000
0010
0000
,
0100
0001
1000
0110
,
0100
0010
1000
0000
0001
0000
0010
0000
,
0100
0010
0001
1001
,
0001
0100
0010
1000
,
0001
0100
0010
0000
0100
0010
1000
0000
,
0001
1000
0100
0000
1000
0000
0020
0000
,
2030
0000
3100
0010
0002
0000
1003
0001
,
0200
0000
0320
0000
1030
0000
0001
2000
,
0000
3010
2000
0000
3100
0000
0010
0100
,
1000
0010
0100
0001
,
1001
0000
1010
0000
0101
0000
0001
0020
,
0000
0000
0000
0030
0011
0000
1100
0000
,
0101
0000
1010
0000
0001
1000
0200
0000
,
0300
0000
0010
0000
0001
0000
0000
0000
0100
0000
0000
0001
0000
0000
0100
0000
,
0000
0000
0010
0000
0100
0000
0001
0000
1001
0000
0000
1001
0000
0000
0000
0000
;

//---------------dance-single - ----------------
#NOTEDATA:;
#CHARTNAME:;
#STEPSTYPE:dance-single;
#DESCRIPTION:;
#CHARTSTYLE:;
#DIFFICULTY:Easy;
#METER:25;
#RADARVALUES:0.206672,0.262515,0.071936,0.151864,0.003996,181.000000,172.000000,9.000000,19.000000,0.000000,0.000000,0.000000,0.000000,0.000000,0.206672,0.262515,0.071936,0.151864,0.003996,181.000000,172.000000,9.000000,19.000000,0.000000,0.000000,0.000000,0.000000,0.000000;
#CREDIT:;
#NOTES:
0000
0000
0000
0000
,
0000
0000
0000
0000
,
0000
0000
0000
0000
,
0000
0000
0000
0000
,
1000
0100
0000
1000
,
0000
0010
0000
0100
,
0010
1000
0001
0010
,
0100
0010
0001
1001
,
0000
0001
0000
1000
,
0000
0010
1000
0100
,
1000
0000
0001
0000
,
0100
0001
0100
0000
,
0010
0000
1000
0000
,
0001
0010
0001
1000
,
0100
0010
0100
0000
,
0001
1000
0001
0000
,
0200
0300
0000
0000
,
0020
0030
0000
0000
,
2000
3000
0000
0000
,
0002
0003
0000
0000
,
0020
0030
0000
0000
,
0200
0300
0000
0000
,
2000
3000
0000
0000
,
0002
0003
0100
0000
,
0010
1000
0000
0001
,
0000
1000
0000
0000
,
0001
0010
0100
1000
,
0010
0100
0001
1000
,
0001
0010
0000
0001
,
0000
0100
0000
0000
,
0010
0100
0001
1000
,
0001
0010
0001
1000
,
0100
1000
0100
0000
,
0010
0100
0010
0000
,
0100
1000
0010
0100
,
0001
0010
0100
1100
,
0100
0010
0001
0000
,
0001
0100
0010
0000
,
0010
0100
0010
0100
,
0001
1000
0010
0100
,
1001
0000
0000
0000
,
0000
0000
0000
0000
,
0100
0000
0000
0000
,
0000
0000
0000
0010
,
1001
0000
0000
0000
,
0100
0010
0000
1001
,
0000
0000
0000
0000
,
0110
0000
1001
0000
,
0001
1000
0010
1000
,
0100
1000
0010
0110
,
0100
0010
1000
0001
,
0010
0100
0010
0001
,
0100
0010
1000
0100
,
0010
0100
1000
1001
,
0001
0100
0010
0100
,
0001
1000
0100
0010
,
0100
1000
0001
0200
,
0320
2030
3002
1003
,
0001
0100
0001
0010
,
0200
0320
0032
2003
,
3001
0100
0001
0010
,
0100
0100
0100
0200
,
0000
0000
0310
0001
,
0100
0010
2000
0002
,
3003
1000
0000
0001
,
0000
0000
0000
0000
0100
0000
0000
0000
0010
0000
0000
0010
0000
0000
0000
0000
;

//---------------dance-single - ----------------
#NOTEDATA:;
#CHARTNAME:;
#STEPSTYPE:dance-single;
#DESCRIPTION:;
#CHARTSTYLE:;
#DIFFICULTY:Challenge;
#METER:85;
#RADARVALUES:0.445315,0.866299,0.087921,0.319714,0.343692,390.000000,379.000000,11.000000,40.000000,31.000000,0.000000,0.000000,0.000000,0.000000,0.445315,0.866299,0.087921,0.319714,0.343692,390.000000,379.000000,11.000000,40.000000,31.000000,0.000000,0.000000,0.000000,0.000000;
#CREDIT:;
#NOTES:
0000
0000
0000
0000
,
0000
0000
0000
0000
,
0000
0000
0000
0000
,
0000
0000
0000
0000
,
0002
0000
0103
0020
0000
0000
1030
0002
,
0000
0013
0100
2000
0000
0000
3100
0010
,
0000
0100
0010
0000
0001
0000
1000
0001
,
0000
0000
0100
0001
0000
0001
1000
0000
0100
0010
0000
0100
2000
0000
0000
0000
,
3000
0001
0100
0000
0010
0000
0000
0100
,
0000
0010
1000
0001
0010
0000
MMMM
0000
,
0000
0010
0001
0000
0100
0000
0001
0000
,
0000
0000
1000
0000
0001
0000
0100
0000
0001
0000
0001
0010
0000
0000
0000
0000
,
0000
0000
0100
0000
0010
0000
0001
1000
,
0000
0100
0010
0001
0000
0000
1MMM
0001
,
0010
1000
0000
0010
0000
0000
0100
0010
,
0001
0000
0100
0000
0000
0000
0010
0000
0000
0000
0000
0000
0010
1000
0010
0100
,
0001
0000
0010
0000
0100
0000
0010
0000
0001
0000
0000
0000
0000
1000
0001
0000
,
0100
0000
0000
0100
0000
0000
0100
0000
0010
0000
1000
0000
0001
0000
0010
0000
,
0001
0000
0010
0000
0100
0000
1000
0000
0001
0000
1000
0000
0000
0001
0100
0000
,
0010
0000
0000
0010
0000
0000
0020
0000
0000
0000
1030
0001
1000
0010
0000
0000
,
1000
0000
0100
0000
0010
0000
0001
0000
1000
0000
0000
0000
0000
0001
0010
0000
,
0001
0000
0000
0001
0000
0000
0001
0000
1000
0000
0100
0000
0010
0000
0001
0000
,
1000
0000
0001
0000
0010
0000
0100
0000
1000
0000
0000
0000
0000
0100
0010
0000
,
1001
0000
0000
0000
0000
0000
0000
0000
0001
0000
0000
0001
0000
0000
1000
0000
,
0001
0000
0100
2000
0000
0000
3100
0002
,
0000
0000
0103
2000
0000
0000
0000
0000
,
3200
0000
0002
0300
0020
0003
2000
0030
,
0200
3000
0002
0300
1003
0100
0010
0001
,
0010
0000
0001
0020
0000
0000
1030
0020
,
0000
0130
0010
0002
0000
0000
0003
0000
,
2000
0000
0200
3000
0302
0023
0000
2000
,
0030
0000
3002
0000
0203
0000
2300
0000
3100
0010
1000
0001
0100
0010
1000
0001
,
0010
0000
0001
1000
0000
1000
0010
0000
0100
0000
0000
0000
0001
1000
0001
0000
,
0100
0000
0010
0000
0000
1000
0000
0000
0010
0000
0000
0000
0000
0000
0000
0000
,
1000
0000
0001
0000
0010
0000
0001
0000
1000
0000
0010
0100
0001
0000
0010
0000
,
0001
1000
0001
0000
0010
0000
0100
0000
0010
0000
0001
0000
1001
0000
0000
0000
,
0001
0000
1000
0010
0000
0100
0001
0000
0010
0000
0100
0000
0000
0000
0000
0000
,
0010
0000
0001
0000
0100
0010
1000
0001
1000
0000
0001
0000
0100
0000
0000
0000
,
0010
0000
1000
0000
0010
0000
0001
0000
0010
0000
1000
0010
0100
0000
0001
0000
,
0010
0100
1000
0000
0001
0000
0100
0000
1000
0000
0100
0000
0010
0000
1000
0000
,
2001
0000
0000
3001
0000
0000
0000
0000
,
0000
0000
0000
0000
0000
0000
0000
0000
0000
0000
1000
0000
0000
1000
0000
0000
,
0000
0000
0000
0001
0000
0100
0001
0000
0001
0000
0010
0100
0000
0000
0100
0010
,
0000
0000
0000
0000
0000
0000
0100
0010
,
1002
0000
0000
0000
0000
0000
1003
0000
0000
0000
0000
0000
0000
0000
0001
1000
,
0001
0000
1000
0001
0200
0000
0000
0000
0000
0000
0000
0300
MMMM
0000
0001
1000
,
0100
0000
1000
0001
0020
0000
0000
0000
0000
0000
0000
0000
0000
0000
0130
0000
,
0010
0000
0001
1000
0001
0000
0100
0000
0001
1000
0001
1000
0001
0000
1000
0000
,
0100
0000
1000
0000
0010
0000
0000
0000
0100
0000
0000
0010
0000
0000
1000
0000
,
0000
0001
0010
0000
0100
0000
MMMM
0000
,
0000
0000
0010
0000
0001
0000
0000
0000
0100
0000
0000
0010
0000
0000
1000
0000
,
0000
0001
1000
0000
0100
0000
MMMM
0000
,
0000
0000
0010
0000
0100
0000
0000
0000
0010
0000
0000
0001
0000
0000
0100
0000
,
0000
0001
1000
0000
0100
0000
MMMM
0000
,
1000
0001
1000
0010
1000
0001
1000
0100
1000
0001
0010
0001
1000
0100
1000
0001
,
0100
0010
1000
0001
0100
0010
1000
0001
1000
0100
0010
0100
1000
0001
0010
0100
,
0010
0001
0100
0000
0010
0000
1020
0000
,
0230
0000
0000
0300
0001
1000
0000
0200
0000
0000
0000
0000
1300
0000
0100
0000
,
0001
0000
0100
0000
0010
0000
0000
0000
0100
0000
0000
0010
0000
0000
0001
0000
,
0000
0000
0000
0010
0000
0000
0100
0000
0010
0000
0001
0000
2000
0000
0000
0000
0002
0000
0000
0000
0000
0000
3003
0000
,
1000
0000
0001
0000
0100
0000
0000
0000
0001
0000
0000
0010
0000
0000
0100
0000
,
0010
0001
0100
0010
1000
0001
0010
0100
0010
0001
2000
0000
,
0000
0000
0000
0000
0000
0000
3001
1000
0100
1000
0001
0100
,
0020
0000
0000
0000
2030
0000
0000
0000
3002
0000
0010
0020
0000
0000
0000
0000
,
0033
0000
1001
0000
0001
0000
0000
0000
1010
0000
0000
0101
0000
0000
1010
0000
,
0000
0000
1000
0000
0100
0000
0010
MMMM
1001
0000
MMMM
0110
0000
0000
0000
0000
;

//---------------dance-single - ----------------
#NOTEDATA:;
#CHARTNAME:;
#STEPSTYPE:dance-single;
#DESCRIPTION:;
#CHARTSTYLE:;
#DIFFICULTY:Beginner;
#METER:10;
#RADARVALUES:0.099340,0.157059,0.023979,0.000000,0.000000,87.000000,84.000000,3.000000,0.000000,0.000000,0.000000,0.000000,0.000000,0.000000,0.099340,0.157059,0.023979,0.000000,0.000000,87.000000,84.000000,3.000000,0.000000,0.000000,0.000000,0.000000,0.000000,0.000000;
#CREDIT:;
#NOTES:
0000
0000
0000
0000
,
0000
0000
0000
0000
,
0000
0000
0000
0000
,
0000
0000
0000
0000
,
0010
0000
0000
0000
,
0000
0000
0000
0100
,
0000
0000
0000
0001
,
0000
0000
0000
1000
,
0000
0001
0000
0000
,
0000
0000
0000
0100
,
0010
0000
0000
0000
,
0000
1000
0000
0000
,
0001
0000
0000
0000
,
1000
0000
0000
0010
,
0010
0000
0000
0100
,
0100
0000
0000
0000
,
0001
0000
0000
0000
,
1000
0000
0000
0000
,
0010
0000
0000
0000
,
1000
0000
0000
0000
,
0100
0000
0000
0000
,
1000
0000
0000
0000
,
0001
0000
0000
0000
,
0100
0000
0010
0000
,
1000
0000
0000
0000
,
0001
0000
0000
0000
,
0100
0000
0000
0000
,
0010
0000
0000
0000
,
1000
0000
0000
0000
,
0100
0000
0000
0000
,
1000
0000
0001
0000
,
1000
0000
0000
0000
,
0010
0000
0000
0000
,
0010
0000
0000
0000
,
0100
0000
0100
0000
,
0100
0100
0100
0000
,
0001
0000
0001
0000
,
1000
0000
1000
0000
,
0010
0000
0010
0000
,
0100
0000
0100
0000
,
0001
0000
0000
0000
,
0000
0000
0000
0000
,
1000
0000
0000
0000
,
0000
0000
0000
0000
,
0010
0000
0000
0000
,
0100
0000
0000
0001
,
1000
0000
0000
0000
,
1001
0000
0110
0000
,
1000
0000
0000
0000
,
0010
0000
0100
0000
,
0001
0000
0000
0000
,
1000
0000
0001
0000
,
0100
0000
0000
0000
,
0010
0000
1000
0000
,
0001
0000
0000
0000
,
0010
0000
0100
0000
,
1000
0000
0000
0001
,
0001
0000
0000
0100
,
0000
0000
0000
0000
,
0010
0000
1000
0000
,
0100
0000
0000
0000
,
1000
0000
1000
0000
,
0010
0000
0100
0000
,
0001
0001
0001
0000
,
1000
0000
0000
0000
,
0001
0000
0110
0000
;
